Начать новую тему Ответить на тему
Статистика раздачи
Размер: 252.14 МБ | Добавлен: 26 июн 2020, 20:26 | Скачали: 0
Сидеров: 1  [0 байт/сек]    Личеров: 0  [0 байт/сек]
Пред. тема | След. тема 

Автор
Сообщение

СообщениеДобавлено: 26 июн 2020, 20:26 

Ответить с цитатой 

Seileen / Kinjirareta Asobi
Жанр: Dark Electro, Electrogoth
Страна-производитель диска: Japan
Год издания: 2009
Издатель (лейбл): Darkest Labyrinth
Номер по каталогу: DLSL-1
Страна: Japan
Аудиокодек: FLAC (*.flac)
Тип рипа: image+.cue
Битрейт аудио: lossless
Продолжительность: 32:51
Источник (релизер): CD rip
Наличие сканов в содержимом раздачи: да
Треклист:
1 Kaikin
2 Eden without Eve
3 Demento
4 Baku
5 Carnival of Blood
6 Kinjirareta Asobi
7 Rensa
Код:
Exact Audio Copy V1.0 beta 3 from 29. August 2011
EAC extraction logfile from 28. July 2013, 7:57
Seileen / 禁じられた遊び
Used drive  : TSSTcorpCDDVDW SH-S223C   Adapter: 2  ID: 0
Read mode               : Secure
Utilize accurate stream : Yes
Defeat audio cache      : Yes
Make use of C2 pointers : No
Read offset correction                      : 697
Overread into Lead-In and Lead-Out          : No
Fill up missing offset samples with silence : Yes
Delete leading and trailing silent blocks   : No
Null samples used in CRC calculations       : Yes
Used interface                              : Native Win32 interface for Win NT & 2000
Used output format              : User Defined Encoder
Selected bitrate                : 1024 kBit/s
Quality                         : High
Add ID3 tag                     : Yes
Command line compressor         : C:\Program Files (x86)\Exact Audio Copy\Flac\flac.exe
Additional command line options : -6 -V -T "ARTIST=%artist%" -T "TITLE=%title%" -T "ALBUM=%albumtitle%" -T "DATE=%year%" -T "TRACKNUMBER=%tracknr%" -T "GENRE=%genre%" -T "COMMENT=%comment%" -T "BAND=%albuminterpret%" -T "ALBUMARTIST=%albuminterpret%" -T "COMPOSER=%composer%" %haslyrics%--tag-from-file=LYRICS="%lyricsfile%"%haslyrics% -T "DISCNUMBER=%cdnumber%" -T "TOTALDISCS=%totalcds%" -T "TOTALTRACKS=%numtracks%" %hascover%--picture="%coverfile%"%hascover% %source% -o %dest%
TOC of the extracted CD
     Track |   Start  |  Length  | Start sector | End sector
    ---------------------------------------------------------
        1  |  0:00.00 |  0:42.33 |         0    |     3182
        2  |  0:42.33 |  5:24.03 |      3183    |    27485
        3  |  6:06.36 |  6:20.51 |     27486    |    56036
        4  | 12:27.12 |  4:47.64 |     56037    |    77625
        5  | 17:15.01 |  4:40.19 |     77626    |    98644
        6  | 21:55.20 |  5:38.25 |     98645    |   124019
        7  | 27:33.45 |  5:18.01 |    124020    |   147870
Range status and errors
Selected range
     Filename C:\Users\Usuário\Desktop\Seileen - 禁じられた遊び.wav
     Peak level 99.9 %
     Extraction speed 4.4 X
     Range quality 100.0 %
     Test CRC 22415333
     Copy CRC 22415333
     Copy OK
No errors occurred
AccurateRip summary
Track  1  accurately ripped (confidence 1)  [A3B7A6E2]  (AR v1)
Track  2  accurately ripped (confidence 1)  [381572F5]  (AR v1)
Track  3  accurately ripped (confidence 1)  [6D541A7B]  (AR v1)
Track  4  accurately ripped (confidence 1)  [68040B32]  (AR v1)
Track  5  accurately ripped (confidence 1)  [B9A39D09]  (AR v1)
Track  6  accurately ripped (confidence 1)  [37254E20]  (AR v1)
Track  7  accurately ripped (confidence 1)  [11E077CE]  (AR v1)
All tracks accurately ripped
End of status report
---- CUETools DB Plugin V2.1.3
[CTDB TOCID: VCUM9wzpL8pe3HzPxU20FS57BHw-] found, Submit result: VCUM9wzpL8pe3HzPxU20FS57BHw- has been confirmed
[a17ee711] (2/2) Accurately ripped
Код:
Lossless Audio Checker 1.9.1 logfile from Sunday 28 July 2013 08:05:30 AM
File:   C:\Users\Usuário\Documents\Felipe\Música\Seileen\禁じられた遊び\Seileen - 禁じられた遊び.flac
Result: LOSSLESS
Files checked: 1 | Lossless: 1 | Cutoff: 0 | Error: 0 | Elapsed time: 00:00:25.171
Правила, инструкции, FAQ!!!
Торрент  Добавлен [26 июн 2020, 20:26] Скачать торрент Магнет ссылка
Скачать торрент
[ Размер 20.36 КБ / Просмотров 4 ]

Статус
Проверен 
 
Размер  252.14 МБ
Приватный: Нет (DHT включён)
.torrent скачан  0
 


     Отправить личное сообщение
   
Страница 1 из 1
Показать сообщения за:  Поле сортировки  
Начать новую тему Ответить на тему


Сейчас этот форум просматривают: нет зарегистрированных пользователей и гости: 0


Вы не можете начинать темы
Вы не можете отвечать на сообщения
Вы не можете редактировать свои сообщения
Вы не можете удалять свои сообщения
Вы не можете добавлять вложения

Перейти:  
cron