Начать новую тему Ответить на тему
Статистика раздачи
Размер: 507.7 МБ | Добавлен: 26 июн 2020, 20:11 | Скачали: 0
Сидеров: 0  [0 байт/сек]    Личеров: 0  [0 байт/сек]
Пред. тема | След. тема 

Автор
Сообщение

СообщениеДобавлено: 26 июн 2020, 20:11 

Ответить с цитатой 

In Strict Confidence - Babylon.1 / Babylon.2 (2xMCD)
#777Жанр: Dark Electro / Electro-Industrial
Год выпуска диска: 2003
Производитель диска: Germany
Аудио кодек: APE
Тип рипа: image+.cue
Битрейт аудио: lossless
Продолжительность: 1:13:27
Трэклист:
CD1:
1 Babylon (Extended Version) (6:50)
2 Babylon (Club Mix) (7:26) Remix - Olaf Wollschläger
3 Blue Light (4:03) Vocals - Nadine Stelzer
4 Babylon (L'Âme Immortelle Remix) (3:44) Remix - L'Âme Immortelle
5 Babylon (Sleeper Edit) (5:57) Remix - Hecq
6 Deep Black (6:40)
CD2:
1 Babylon (Steve Dragon Remix) (6:57) Remix - Steve Dragon
2 Babylon (Monstré Mekkunik Version) (5:12) Remix - Monstré Mekkunik
3 Babylon (Hecq Remix) (4:55) Remix - Hecq
4 Morph The Visions (7:38)
5 Babylon (Babylon Nebukadnetzar) (5:22) Remix - Die Farben
6 Babylon (Battlewind Version) (4:50) Remix - Hecq
7 Babylon (Short Radio Edit) (3:48)
Доп. информация: Minuswelt Musikfabrik; minus 009-1 / minus 009-2
Код:
Exact Audio Copy V0.99 prebeta 4 from 23. January 2008
EAC extraction logfile from 3. December 2008, 16:22
In Strict Confidence / Babylon.1
Used drive  : PLEXTOR CD-R   PX-W4824A   Adapter: 1  ID: 1
Read mode               : Secure
Utilize accurate stream : Yes
Defeat audio cache      : Yes
Make use of C2 pointers : No
Read offset correction                      : 98
Overread into Lead-In and Lead-Out          : No
Fill up missing offset samples with silence : Yes
Delete leading and trailing silent blocks   : No
Null samples used in CRC calculations       : Yes
Used interface                              : Installed external ASPI interface
Used output format : Internal WAV Routines
Sample format      : 44.100 Hz; 16 Bit; Stereo
TOC of the extracted CD
     Track |   Start  |  Length  | Start sector | End sector
    ---------------------------------------------------------
        1  |  0:00.00 |  6:50.55 |         0  |       30804
        2  |  6:50.55 |  7:26.09 |     30805  |       64263
        3  | 14:16.64 |  4:03.53 |     64264  |       82541
        4  | 18:20.42 |  3:44.62 |     82542  |       99403
        5  | 22:05.29 |  5:57.31 |     99404  |      126209
        6  | 28:02.60 |  6:40.12 |    126210  |      156221
Range status and errors
Selected range
   Filename J:\In Strict Confidence - Babylon.1\CDImage.wav
   Peak level 99.0 %
   Range quality 100.0 %
   Test CRC 05EC37F1
   Copy CRC 05EC37F1
   Copy OK
No errors occurred
AccurateRip summary
Track  1  not present in database
Track  2  not present in database
Track  3  not present in database
Track  4  not present in database
Track  5  not present in database
Track  6  not present in database
None of the tracks are present in the AccurateRip database
End of status report
Код:
AUDIOCHECKER v2.0 beta (build 457) - by Dester - opdester@freemail.hu
~~~~~~~~~~~~~~~~~~~~~~~~~~~~~~~~~~
-=== DO NOT EDIT THIS FILE! ===-
Path: ...\In Strict Confidence - Babylon.1
01 -=- CDImage.wav -=- CDDA (100%)
190127764
Код:
Exact Audio Copy V0.99 prebeta 4 from 23. January 2008
EAC extraction logfile from 3. December 2008, 16:38
In Strict Confidence / Babylon.2
Used drive  : PLEXTOR CD-R   PX-W4824A   Adapter: 1  ID: 1
Read mode               : Secure
Utilize accurate stream : Yes
Defeat audio cache      : Yes
Make use of C2 pointers : No
Read offset correction                      : 98
Overread into Lead-In and Lead-Out          : No
Fill up missing offset samples with silence : Yes
Delete leading and trailing silent blocks   : No
Null samples used in CRC calculations       : Yes
Used interface                              : Installed external ASPI interface
Used output format : Internal WAV Routines
Sample format      : 44.100 Hz; 16 Bit; Stereo
TOC of the extracted CD
     Track |   Start  |  Length  | Start sector | End sector
    ---------------------------------------------------------
        1  |  0:00.00 |  6:57.30 |         0  |       31304
        2  |  6:57.30 |  5:12.67 |     31305  |       54771
        3  | 12:10.22 |  4:55.08 |     54772  |       76904
        4  | 17:05.30 |  7:38.33 |     76905  |      111287
        5  | 24:43.63 |  5:22.48 |    111288  |      135485
        6  | 30:06.36 |  4:50.33 |    135486  |      157268
        7  | 34:56.69 |  3:48.06 |    157269  |      174374
Range status and errors
Selected range
   Filename J:\In Strict Confidence - Babylon.2\CDImage.wav
   Peak level 99.0 %
   Range quality 100.0 %
   Test CRC D19A1E98
   Copy CRC D19A1E98
   Copy OK
No errors occurred
AccurateRip summary
Track  1  not present in database
Track  2  not present in database
Track  3  not present in database
Track  4  not present in database
Track  5  not present in database
Track  6  not present in database
Track  7  not present in database
None of the tracks are present in the AccurateRip database
End of status report
Код:
AUDIOCHECKER v2.0 beta (build 457) - by Dester - opdester@freemail.hu
~~~~~~~~~~~~~~~~~~~~~~~~~~~~~~~~~~
-=== DO NOT EDIT THIS FILE! ===-
Path: ...\In Strict Confidence - Babylon.2
01 -=- CDImage.wav -=- CDDA (100%)
190127764
Правила, инструкции, FAQ!!!
Торрент  Добавлен [26 июн 2020, 20:11] Скачать торрент Магнет ссылка
Скачать торрент
[ Размер 21.22 КБ / Просмотров 9 ]

Статус
Проверен 
 
Размер  507.7 МБ
Приватный: Нет (DHT включён)
.torrent скачан  0
 


     Отправить личное сообщение
   
Страница 1 из 1
Показать сообщения за:  Поле сортировки  
Начать новую тему Ответить на тему


Сейчас этот форум просматривают: нет зарегистрированных пользователей и гости: 0


Вы не можете начинать темы
Вы не можете отвечать на сообщения
Вы не можете редактировать свои сообщения
Вы не можете удалять свои сообщения
Вы не можете добавлять вложения

Перейти:  
cron