Начать новую тему Ответить на тему
Статистика раздачи
Размер: 429.19 МБ | Добавлен: 26 июн 2020, 19:36 | Скачали: 0
Сидеров: 0  [0 байт/сек]    Личеров: 0  [0 байт/сек]
Пред. тема | След. тема 

Автор
Сообщение

СообщениеДобавлено: 26 июн 2020, 19:36 

Ответить с цитатой 

Index AI - World Blade Center

Жанр: Dark Electro / Electro-Industrial
Год выпуска диска: 2006
Производитель диска: US
Аудио кодек: APE
Тип рипа: image+.cue
Битрейт аудио: lossless
Продолжительность: 67:58
Трэклист:
1 Heaven West (5:52)
2 Motion Blue (5:16)
3 Wraithcast (5:19)
4 Butterfly Houses / Charnel Palaces (8:21)
5 Azultra (7:16)
6 Seventh Sky (4:31)
7 Godshado (5:08)
8 Swarming With Prey (6:22)
9 Caustic Light / Silent Architecture (8:33)
10 Burning Cirrus (4:54)
11 Gunmetal Skyline (6:21)
Доп. информация: Auralsx; ASX 001
[Index AI = alias of Index]
Код:
Exact Audio Copy V0.99 prebeta 4 from 23. January 2008
EAC extraction logfile from 17. December 2008, 17:48
Index AI / World Blade Center
Used drive  : PLEXTOR CD-R   PX-W4824A   Adapter: 1  ID: 1
Read mode               : Secure
Utilize accurate stream : Yes
Defeat audio cache      : Yes
Make use of C2 pointers : No
Read offset correction                      : 98
Overread into Lead-In and Lead-Out          : No
Fill up missing offset samples with silence : Yes
Delete leading and trailing silent blocks   : No
Null samples used in CRC calculations       : Yes
Used interface                              : Installed external ASPI interface
Used output format : Internal WAV Routines
Sample format      : 44.100 Hz; 16 Bit; Stereo
TOC of the extracted CD
     Track |   Start  |  Length  | Start sector | End sector
    ---------------------------------------------------------
        1  |  0:00.00 |  5:52.27 |         0  |       26426
        2  |  5:52.27 |  5:16.50 |     26427  |       50176
        3  | 11:09.02 |  5:19.02 |     50177  |       74103
        4  | 16:28.04 |  8:21.69 |     74104  |      111747
        5  | 24:49.73 |  7:16.11 |    111748  |      144458
        6  | 32:06.09 |  4:31.51 |    144459  |      164834
        7  | 36:37.60 |  5:08.57 |    164835  |      187991
        8  | 41:46.42 |  6:22.07 |    187992  |      216648
        9  | 48:08.49 |  8:33.16 |    216649  |      255139
       10  | 56:41.65 |  4:54.48 |    255140  |      277237
       11  | 61:36.38 |  6:21.37 |    277238  |      305849
Range status and errors
Selected range
   Filename I:\Index AI - World Blade Center\CDImage.wav
   Peak level 99.0 %
   Range quality 100.0 %
   Test CRC 166ADD20
   Copy CRC 166ADD20
   Copy OK
No errors occurred
AccurateRip summary
Track  1  accurately ripped (confidence 2)  [2607D09B]
Track  2  accurately ripped (confidence 2)  [711FC0C8]
Track  3  accurately ripped (confidence 2)  [E11FE5CE]
Track  4  accurately ripped (confidence 2)  [01A910D9]
Track  5  accurately ripped (confidence 2)  [E52BA234]
Track  6  accurately ripped (confidence 2)  [5C7F9589]
Track  7  accurately ripped (confidence 2)  [5CB5FDA6]
Track  8  accurately ripped (confidence 2)  [BC51F67C]
Track  9  accurately ripped (confidence 2)  [968F1073]
Track 10  accurately ripped (confidence 2)  [4F8DE87A]
Track 11  accurately ripped (confidence 2)  [104C9E17]
All tracks accurately ripped
End of status report
Код:
AUDIOCHECKER v2.0 beta (build 457) - by Dester - opdester@freemail.hu
~~~~~~~~~~~~~~~~~~~~~~~~~~~~~~~~~~
-=== DO NOT EDIT THIS FILE! ===-
Path: ...\Index AI - World Blade Center
1 -=- CDImage.wav -=- CDDA (100%)
190127764
Правила, инструкции, FAQ!!!
Торрент  Добавлен [26 июн 2020, 19:36] Скачать торрент Магнет ссылка
Скачать торрент
[ Размер 17.74 КБ / Просмотров 12 ]

Статус
Проверен 
 
Размер  429.19 МБ
Приватный: Нет (DHT включён)
.torrent скачан  0
 


     Отправить личное сообщение
   
Страница 1 из 1
Показать сообщения за:  Поле сортировки  
Начать новую тему Ответить на тему


Сейчас этот форум просматривают: нет зарегистрированных пользователей и гости: 0


Вы не можете начинать темы
Вы не можете отвечать на сообщения
Вы не можете редактировать свои сообщения
Вы не можете удалять свои сообщения
Вы не можете добавлять вложения

Перейти:  
cron