Начать новую тему Ответить на тему
Статистика раздачи
Размер: 426.96 МБ | Добавлен: 26 июн 2020, 21:11 | Скачали: 0
Сидеров: 3  [0 байт/сек]    Личеров: 2  [0 байт/сек]
Пред. тема | След. тема 

Автор
Сообщение

СообщениеДобавлено: 26 июн 2020, 21:11 

Ответить с цитатой 

Distorted Memory - Burning Heaven
Жанр: Dark Electro, EBM, Techno-Industrial
Год выпуска диска: 2006
Производитель диска: Россия
Аудио кодек: FLAC
Тип рипа: tracks+.cue
Битрейт аудио: lossless
Продолжительность: 57:04
Трэклист:
1. Disciples Of The Watch 5:16
2. God's Wrath 6:03
3. Sweet Evil 5:03
4. Loss Of Faith 5:29
5. Hellion's Fall 5:00
6. Confession 6:46
7. Burning Heaven 7:17
8. Sons Of Perdition 3:39
9. Ask The Dying 7:18
10. Psalm 5:09
Exact Audio Copy V0.99 prebeta 4 from 23. January 2008
EAC extraction logfile from 16. July 2009, 22:31
Distorted Memory / Burning Heaven
Used drive : PIONEER BD-RW BDR-202 Adapter: 4 ID: 0
Read mode : Secure
Utilize accurate stream : Yes
Defeat audio cache : Yes
Make use of C2 pointers : No
Read offset correction : 667
Overread into Lead-In and Lead-Out : Yes
Fill up missing offset samples with silence : Yes
Delete leading and trailing silent blocks : No
Null samples used in CRC calculations : No
Used interface : Native Win32 interface for Win NT & 2000
Gap handling : Appended to previous track
Used output format : User Defined Encoder
Selected bitrate : 768 kBit/s
Quality : High
Add ID3 tag : Yes
Command line compressor : C:\Program Files\Exact Audio Copy\Flac\flac.exe
Additional command line options : -8 -V -T "ARTIST=%a" -T "TITLE=%t" -T "ALBUM=%g" -T "DATE=%y" -T "TRACKNUMBER=%n" -T "GENRE=%m" %s -o %d
TOC of the extracted CD
Track | Start | Length | Start sector | End sector
---------------------------------------------------------
1 | 0:00.00 | 5:16.06 | 0 | 23705
2 | 5:16.06 | 6:03.29 | 23706 | 50959
3 | 11:19.35 | 5:03.54 | 50960 | 73738
4 | 16:23.14 | 5:29.03 | 73739 | 98416
5 | 21:52.17 | 5:00.50 | 98417 | 120966
6 | 26:52.67 | 6:46.27 | 120967 | 151443
7 | 33:39.19 | 7:17.31 | 151444 | 184249
8 | 40:56.50 | 3:39.38 | 184250 | 200712
9 | 44:36.13 | 7:18.68 | 200713 | 233630
10 | 51:55.06 | 5:09.02 | 233631 | 256807
Track 1
Filename C:\Temp\Distorted Memory - [2006] - Burning Heaven\01 - Disciples Of The Watch.wav
Pre-gap length 0:00:02.00
Peak level 99.8 %
Track quality 100.0 %
Test CRC 6E2A2629
Copy CRC 6E2A2629
Track not present in AccurateRip database
Copy OK
Track 2
Filename C:\Temp\Distorted Memory - [2006] - Burning Heaven\02 - God's Wrath.wav
Pre-gap length 0:00:02.00
Peak level 99.8 %
Track quality 100.0 %
Test CRC A5BFC2ED
Copy CRC A5BFC2ED
Track not present in AccurateRip database
Copy OK
Track 3
Filename C:\Temp\Distorted Memory - [2006] - Burning Heaven\03 - Sweet Evil.wav
Pre-gap length 0:00:02.00
Peak level 99.8 %
Track quality 100.0 %
Test CRC FA965E79
Copy CRC FA965E79
Track not present in AccurateRip database
Copy OK
Track 4
Filename C:\Temp\Distorted Memory - [2006] - Burning Heaven\04 - Loss Of Faith.wav
Pre-gap length 0:00:02.00
Peak level 99.8 %
Track quality 99.9 %
Test CRC 22ED23C6
Copy CRC 22ED23C6
Track not present in AccurateRip database
Copy OK
Track 5
Filename C:\Temp\Distorted Memory - [2006] - Burning Heaven\05 - Hellion's Fall.wav
Pre-gap length 0:00:02.00
Peak level 91.4 %
Track quality 100.0 %
Test CRC D1DC94AE
Copy CRC D1DC94AE
Track not present in AccurateRip database
Copy OK
Track 6
Filename C:\Temp\Distorted Memory - [2006] - Burning Heaven\06 - Confession.wav
Pre-gap length 0:00:02.00
Peak level 99.8 %
Track quality 100.0 %
Test CRC B3453D0B
Copy CRC B3453D0B
Track not present in AccurateRip database
Copy OK
Track 7
Filename C:\Temp\Distorted Memory - [2006] - Burning Heaven\07 - Burning Heaven.wav
Pre-gap length 0:00:02.00
Peak level 99.8 %
Track quality 100.0 %
Test CRC 1CFB239B
Copy CRC 1CFB239B
Track not present in AccurateRip database
Copy OK
Track 8
Filename C:\Temp\Distorted Memory - [2006] - Burning Heaven\08 - Sons Of Perdition.wav
Pre-gap length 0:00:02.00
Peak level 99.8 %
Track quality 99.9 %
Test CRC E52D414A
Copy CRC E52D414A
Track not present in AccurateRip database
Copy OK
Track 9
Filename C:\Temp\Distorted Memory - [2006] - Burning Heaven\09 - Ask The Dying.wav
Pre-gap length 0:00:02.00
Peak level 99.8 %
Track quality 100.0 %
Test CRC E4AC20E1
Copy CRC E4AC20E1
Track not present in AccurateRip database
Copy OK
Track 10
Filename C:\Temp\Distorted Memory - [2006] - Burning Heaven\10 - Psalm.wav
Pre-gap length 0:00:02.00
Peak level 99.8 %
Track quality 100.0 %
Test CRC 7FE87908
Copy CRC 7FE87908
Track not present in AccurateRip database
Copy OK
None of the tracks are present in the AccurateRip database
No errors occurred
End of status report
www.distortedmemory.com
myspace.com/dmemory
Правила, инструкции, FAQ!!!
Торрент  Добавлен [26 июн 2020, 21:11] Скачать торрент Магнет ссылка
Скачать торрент
[ Размер 18.08 КБ / Просмотров 34 ]

Статус
Проверен 
 
Размер  426.96 МБ
Приватный: Нет (DHT включён)
.torrent скачан  0
 


     Отправить личное сообщение
   
Страница 1 из 1
Показать сообщения за:  Поле сортировки  
Начать новую тему Ответить на тему


Сейчас этот форум просматривают: нет зарегистрированных пользователей и гости: 0


Вы не можете начинать темы
Вы не можете отвечать на сообщения
Вы не можете редактировать свои сообщения
Вы не можете удалять свои сообщения
Вы не можете добавлять вложения

Перейти:  
cron