Начать новую тему Ответить на тему
Статистика раздачи
Размер: 819.93 МБ | Добавлен: 26 июн 2020, 20:39 | Скачали: 1
Сидеров: 1  [0 байт/сек]    Личеров: 0  [0 байт/сек]
Пред. тема | След. тема 

Автор
Сообщение

СообщениеДобавлено: 26 июн 2020, 20:39 

Ответить с цитатой 

Suicide Commando - Implements of Hell [Limited Edition]

Жанр: Dark Electro\EBM
Год выпуска диска: 2010
Страна: Belgia
Производитель диска: Out Of Line [OUT 384 | 385]
Аудио кодек: FLAC
Тип рипа: tracks+.cue
Битрейт аудио: lossless
Продолжительность: 01:49:57
Релиз: waffles.fm
Список песен:
CD1:
01. (00:23) Intro
02. (04:59) The Pleasures Of Sin
03. (04:44) The Dying Breed
04. (06:10) Die Motherfucker Die
05. (06:02) Death Cures All Pain
06. (05:28) God Is In The Rain
07. (05:11) Hate Me (Retaliate V1.0)
08. (06:17) Come Down With Me
09. (04:07) Severed Head
10. (04:16) The Perils Of Indifference
11. (05:36) Until We Die (Album Edit)
CD2:
01. (04:28) Severed Head (Heads Of State Mix by Komor Kommando)
02. (06:35) Die Motherfucker Die (Modulate Remix)
03. (05:45) Cause Of Death: Suicide (Final Count 2009)
04. (05:16) The Perils Of Indifference (Remixed by JH from Centhron)
05. (04:37) Hate Me (Leaether Strip Remix)
06. (05:51) Die Motherfucker Die (Nurzery Rhymes vs Betamorphose Remix)
07. (04:12) The Perils Of Indifference (Xotox Remix)
08. (05:14) Hate Me (Original Version)
09. (05:33) Severed Head (Beheaded Mix by Schattenschlag)
10. (04:26) Die Motherfucker Die (Apology Not Accepted Remix by FÏX8:SËD8)
11. (04:45) Until We Die (Winter Version)
Состав группы:
Johan Van Roy
Код:
Exact Audio Copy V0.99 prebeta 5 from 4. May 2009
EAC extraction logfile from 16. March 2010, 0:01
Suicide Commando / Implements Of Hell
Used drive  : ASUS    DVD-E616P   Adapter: 3  ID: 1
Read mode               : Secure
Utilize accurate stream : Yes
Defeat audio cache      : Yes
Make use of C2 pointers : No
Read offset correction                      : 102
Overread into Lead-In and Lead-Out          : No
Fill up missing offset samples with silence : Yes
Delete leading and trailing silent blocks   : No
Null samples used in CRC calculations       : Yes
Used interface                              : Native Win32 interface for Win NT & 2000
Gap handling                                : Appended to previous track
Used output format              : User Defined Encoder
Selected bitrate                : 128 kBit/s
Quality                         : High
Add ID3 tag                     : No
Command line compressor         : C:\Program Files\FLAC\flac.exe
Additional command line options : -V -8 -T "artist=%a" -T "title=%t" -T "album=%g" -T "date=%y" -T "tracknumber=%n" -T "genre=%m" %s
TOC of the extracted CD
     Track |   Start  |  Length  | Start sector | End sector
    ---------------------------------------------------------
        1  |  0:00.00 |  0:22.61 |         0    |     1710
        2  |  0:22.61 |  4:58.56 |      1711    |    24116
        3  |  5:21.42 |  4:43.50 |     24117    |    45391
        4  | 10:05.17 |  6:10.19 |     45392    |    73160
        5  | 16:15.36 |  6:02.27 |     73161    |   100337
        6  | 22:17.63 |  5:28.35 |    100338    |   124972
        7  | 27:46.23 |  5:11.28 |    124973    |   148325
        8  | 32:57.51 |  6:17.34 |    148326    |   176634
        9  | 39:15.10 |  4:07.33 |    176635    |   195192
       10  | 43:22.43 |  4:16.20 |    195193    |   214412
       11  | 47:38.63 |  5:36.12 |    214413    |   239624
Track  1
     Filename E:\EACrips\Suicide Commando - Implements Of Hell (flac)\01 - Suicide Commando - Intro.wav
     Pre-gap length  0:00:02.00
     Peak level 50.0 %
     Track quality 100.0 %
     Test CRC 7FD74B88
     Copy CRC 7FD74B88
     Accurately ripped (confidence 3)  [601D05FD]
     Copy OK
Track  2
     Filename E:\EACrips\Suicide Commando - Implements Of Hell (flac)\02 - Suicide Commando - The Pleasures Of Sin.wav
     Peak level 98.0 %
     Track quality 100.0 %
     Test CRC 9DFD50FE
     Copy CRC 9DFD50FE
     Accurately ripped (confidence 3)  [C2CE70E6]
     Copy OK
Track  3
     Filename E:\EACrips\Suicide Commando - Implements Of Hell (flac)\03 - Suicide Commando - The Dying Breed.wav
     Peak level 97.2 %
     Track quality 100.0 %
     Test CRC 8B5485B2
     Copy CRC 8B5485B2
     Cannot be verified as accurate (confidence 2)  [5807A7C4], AccurateRip returned [D8F12EBC]
     Copy OK
Track  4
     Filename E:\EACrips\Suicide Commando - Implements Of Hell (flac)\04 - Suicide Commando - Die Motherfucker Die.wav
     Pre-gap length  0:00:01.00
     Peak level 97.9 %
     Track quality 99.9 %
     Test CRC 345539AC
     Copy CRC 345539AC
     Accurately ripped (confidence 2)  [E04B7E52]
     Copy OK
Track  5
     Filename E:\EACrips\Suicide Commando - Implements Of Hell (flac)\05 - Suicide Commando - Death Cures All Pain.wav
     Pre-gap length  0:00:01.00
     Peak level 97.9 %
     Track quality 100.0 %
     Test CRC 2D74A931
     Copy CRC 2D74A931
     Cannot be verified as accurate (confidence 2)  [1EBDA69C], AccurateRip returned [72F4B99C]
     Copy OK
Track  6
     Filename E:\EACrips\Suicide Commando - Implements Of Hell (flac)\06 - Suicide Commando - God Is In The Rain.wav
     Pre-gap length  0:00:01.00
     Peak level 97.9 %
     Track quality 100.0 %
     Test CRC 425FBC24
     Copy CRC 425FBC24
     Cannot be verified as accurate (confidence 2)  [A25578F4], AccurateRip returned [31F8EB8C]
     Copy OK
Track  7
     Filename E:\EACrips\Suicide Commando - Implements Of Hell (flac)\07 - Suicide Commando - Hate Me (Retaliate V1.0).wav
     Pre-gap length  0:00:01.00
     Peak level 98.0 %
     Track quality 100.0 %
     Test CRC A528CB47
     Copy CRC A528CB47
     Cannot be verified as accurate (confidence 2)  [7C3FF0F4], AccurateRip returned [79CEBA8C]
     Copy OK
Track  8
     Filename E:\EACrips\Suicide Commando - Implements Of Hell (flac)\08 - Suicide Commando - Come Down With Me.wav
     Pre-gap length  0:00:01.00
     Peak level 98.1 %
     Track quality 100.0 %
     Test CRC 370A42C3
     Copy CRC 370A42C3
     Cannot be verified as accurate (confidence 2)  [9A239C99], AccurateRip returned [685644E9]
     Copy OK
Track  9
     Filename E:\EACrips\Suicide Commando - Implements Of Hell (flac)\09 - Suicide Commando - Severed Head.wav
     Pre-gap length  0:00:01.00
     Peak level 96.4 %
     Track quality 100.0 %
     Test CRC BE3B733D
     Copy CRC BE3B733D
     Cannot be verified as accurate (confidence 2)  [51CC1F4A], AccurateRip returned [11335D8A]
     Copy OK
Track 10
     Filename E:\EACrips\Suicide Commando - Implements Of Hell (flac)\10 - Suicide Commando - The Perils Of Indifference.wav
     Pre-gap length  0:00:01.00
     Peak level 100.0 %
     Track quality 100.0 %
     Test CRC 9492395A
     Copy CRC 9492395A
     Cannot be verified as accurate (confidence 2)  [6236CBAA], AccurateRip returned [F56C6342]
     Copy OK
Track 11
     Filename E:\EACrips\Suicide Commando - Implements Of Hell (flac)\11 - Suicide Commando - Until We Die (Album Edit).wav
     Pre-gap length  0:00:01.00
     Peak level 96.4 %
     Track quality 100.0 %
     Test CRC 83DEA9B0
     Copy CRC 83DEA9B0
     Accurately ripped (confidence 3)  [CB54709E]
     Copy OK
 4 track(s) accurately ripped
 7 track(s) could not be verified as accurate
Some tracks could not be verified as accurate
No errors occurred
End of status report
Код:
Exact Audio Copy V0.99 prebeta 5 from 4. May 2009
EAC extraction logfile from 16. March 2010, 8:49
Suicide Commando / Implements Of Hell
Used drive  : ASUS    DVD-E616P   Adapter: 3  ID: 1
Read mode               : Secure
Utilize accurate stream : Yes
Defeat audio cache      : Yes
Make use of C2 pointers : No
Read offset correction                      : 102
Overread into Lead-In and Lead-Out          : No
Fill up missing offset samples with silence : Yes
Delete leading and trailing silent blocks   : No
Null samples used in CRC calculations       : Yes
Used interface                              : Native Win32 interface for Win NT & 2000
Gap handling                                : Appended to previous track
Used output format              : User Defined Encoder
Selected bitrate                : 128 kBit/s
Quality                         : High
Add ID3 tag                     : No
Command line compressor         : C:\Program Files\FLAC\flac.exe
Additional command line options : -V -8 -T "artist=%a" -T "title=%t" -T "album=%g" -T "date=%y" -T "tracknumber=%n" -T "genre=%m" %s
TOC of the extracted CD
     Track |   Start  |  Length  | Start sector | End sector
    ---------------------------------------------------------
        1  |  0:01.00 |  4:27.47 |        75    |    20146
        2  |  4:28.47 |  6:35.32 |     20147    |    49803
        3  | 11:04.04 |  5:44.56 |     49804    |    75659
        4  | 16:48.60 |  5:16.23 |     75660    |    99382
        5  | 22:05.08 |  4:37.06 |     99383    |   120163
        6  | 26:42.14 |  5:50.58 |    120164    |   146471
        7  | 32:32.72 |  4:11.69 |    146472    |   165365
        8  | 36:44.66 |  5:13.74 |    165366    |   188914
        9  | 41:58.65 |  5:33.10 |    188915    |   213899
       10  | 47:32.00 |  4:25.53 |    213900    |   233827
       11  | 51:57.53 |  4:45.22 |    233828    |   255224
       12  | 59:15.00 |  6:26.06 |    266625    |   295580
Track  1
     Filename E:\EACrips\Suicide Commando - Implements Of Hell (flac)\01 - Suicide Commando - Severed Head (Heads Of State Mix by Komor Kommando).wav
     Pre-gap length  0:00:03.00
     Peak level 95.5 %
     Track quality 99.9 %
     Test CRC 3E697B02
     Copy CRC 3E697B02
     Accurately ripped (confidence 1)  [57E61ECF]
     Copy OK
Track  2
     Filename E:\EACrips\Suicide Commando - Implements Of Hell (flac)\02 - Suicide Commando - Die Motherfucker Die (Modulate Remix).wav
     Pre-gap length  0:00:01.00
     Peak level 100.0 %
     Track quality 100.0 %
     Test CRC C848A782
     Copy CRC C848A782
     Accurately ripped (confidence 1)  [84EBD39A]
     Copy OK
Track  3
     Filename E:\EACrips\Suicide Commando - Implements Of Hell (flac)\03 - Suicide Commando - Cause Of Death- Suicide (Final Count 2009).wav
     Pre-gap length  0:00:01.00
     Peak level 100.0 %
     Track quality 100.0 %
     Test CRC C02249B1
     Copy CRC C02249B1
     Accurately ripped (confidence 1)  [FF485378]
     Copy OK
Track  4
     Filename E:\EACrips\Suicide Commando - Implements Of Hell (flac)\04 - Suicide Commando - The Perils Of Indifference (Remixed by JH from Centhron).wav
     Pre-gap length  0:00:01.00
     Peak level 100.0 %
     Track quality 100.0 %
     Test CRC 0069E767
     Copy CRC 0069E767
     Accurately ripped (confidence 1)  [A116A61F]
     Copy OK
Track  5
     Filename E:\EACrips\Suicide Commando - Implements Of Hell (flac)\05 - Suicide Commando - Hate Me (Leaether Strip Remix).wav
     Pre-gap length  0:00:01.00
     Peak level 99.9 %
     Track quality 100.0 %
     Test CRC 8DC776A2
     Copy CRC 8DC776A2
     Accurately ripped (confidence 1)  [8FF10235]
     Copy OK
Track  6
     Filename E:\EACrips\Suicide Commando - Implements Of Hell (flac)\06 - Suicide Commando - Die Motherfucker Die (Nurzery Rhymes vs Betamorphose Remix).wav
     Pre-gap length  0:00:01.00
     Peak level 100.0 %
     Track quality 100.0 %
     Test CRC 962E8FF6
     Copy CRC 962E8FF6
     Accurately ripped (confidence 1)  [1D0A80AE]
     Copy OK
Track  7
     Filename E:\EACrips\Suicide Commando - Implements Of Hell (flac)\07 - Suicide Commando - The Perils Of Indifference (Xotox Remix).wav
     Pre-gap length  0:00:01.00
     Peak level 100.0 %
     Track quality 100.0 %
     Test CRC FE81DB0F
     Copy CRC FE81DB0F
     Accurately ripped (confidence 1)  [B36E170A]
     Copy OK
Track  8
     Filename E:\EACrips\Suicide Commando - Implements Of Hell (flac)\08 - Suicide Commando - Hate Me (Original Version).wav
     Pre-gap length  0:00:01.00
     Peak level 99.9 %
     Track quality 100.0 %
     Test CRC 9FF5BAF3
     Copy CRC 9FF5BAF3
     Accurately ripped (confidence 1)  [4AE461EB]
     Copy OK
Track  9
     Filename E:\EACrips\Suicide Commando - Implements Of Hell (flac)\09 - Suicide Commando - Severed Head (Beheaded Mix by Schattenschlag).wav
     Pre-gap length  0:00:01.00
     Peak level 96.7 %
     Track quality 100.0 %
     Test CRC 5690C3CD
     Copy CRC 5690C3CD
     Accurately ripped (confidence 1)  [ED4FAA19]
     Copy OK
Track 10
     Filename E:\EACrips\Suicide Commando - Implements Of Hell (flac)\10 - Suicide Commando - Die Motherfucker Die (Apology Not Accepted Remix by FПX8-SЛD8).wav
     Pre-gap length  0:00:01.00
     Peak level 99.9 %
     Track quality 100.0 %
     Test CRC 175F72CF
     Copy CRC 175F72CF
     Accurately ripped (confidence 1)  [3EB0B9EE]
     Copy OK
Track 11
     Filename E:\EACrips\Suicide Commando - Implements Of Hell (flac)\11 - Suicide Commando - Until We Die (Winter Version).wav
     Pre-gap length  0:00:01.00
     Peak level 96.4 %
     Track quality 100.0 %
     Test CRC 9E2AE78C
     Copy CRC 9E2AE78C
     Accurately ripped (confidence 2)  [0211DC1A]
     Copy OK
All tracks accurately ripped
No errors occurred
End of status report
Код:
REM GENRE Industrial
REM DATE 2010
REM DISCID A00C7B0B
REM COMMENT "ExactAudioCopy v0.99pb5"
FILE "Suicide Commando - Implements Of Hell (flac)\01 - Suicide Commando - Intro.wav" WAVE
  TRACK 01 AUDIO
    FLAGS DCP
    INDEX 01 00:00:00
FILE "Suicide Commando - Implements Of Hell (flac)\02 - Suicide Commando - The Pleasures Of Sin.wav" WAVE
  TRACK 02 AUDIO
    FLAGS DCP
    INDEX 01 00:00:00
FILE "Suicide Commando - Implements Of Hell (flac)\03 - Suicide Commando - The Dying Breed.wav" WAVE
  TRACK 03 AUDIO
    FLAGS DCP
    INDEX 01 00:00:00
  TRACK 04 AUDIO
    FLAGS DCP
    INDEX 00 04:42:50
FILE "Suicide Commando - Implements Of Hell (flac)\04 - Suicide Commando - Die Motherfucker Die.wav" WAVE
    INDEX 01 00:00:00
  TRACK 05 AUDIO
    FLAGS DCP
    INDEX 00 06:09:19
FILE "Suicide Commando - Implements Of Hell (flac)\05 - Suicide Commando - Death Cures All Pain.wav" WAVE
    INDEX 01 00:00:00
  TRACK 06 AUDIO
    FLAGS DCP
    INDEX 00 06:01:27
FILE "Suicide Commando - Implements Of Hell (flac)\06 - Suicide Commando - God Is In The Rain.wav" WAVE
    INDEX 01 00:00:00
  TRACK 07 AUDIO
    FLAGS DCP
    INDEX 00 05:27:35
FILE "Suicide Commando - Implements Of Hell (flac)\07 - Suicide Commando - Hate Me (Retaliate V1.0).wav" WAVE
    INDEX 01 00:00:00
  TRACK 08 AUDIO
    FLAGS DCP
    INDEX 00 05:10:28
FILE "Suicide Commando - Implements Of Hell (flac)\08 - Suicide Commando - Come Down With Me.wav" WAVE
    INDEX 01 00:00:00
  TRACK 09 AUDIO
    FLAGS DCP
    INDEX 00 06:16:34
FILE "Suicide Commando - Implements Of Hell (flac)\09 - Suicide Commando - Severed Head.wav" WAVE
    INDEX 01 00:00:00
  TRACK 10 AUDIO
    FLAGS DCP
    INDEX 00 04:06:33
FILE "Suicide Commando - Implements Of Hell (flac)\10 - Suicide Commando - The Perils Of Indifference.wav" WAVE
    INDEX 01 00:00:00
  TRACK 11 AUDIO
    FLAGS DCP
    INDEX 00 04:15:20
FILE "Suicide Commando - Implements Of Hell (flac)\11 - Suicide Commando - Until We Die (Album Edit).wav" WAVE
    INDEX 01 00:00:00
Код:
REM GENRE Industrial
REM DATE 2010
REM DISCID 930F640C
REM COMMENT "ExactAudioCopy v0.99pb5"
FILE "Suicide Commando - Implements Of Hell (flac)\01 - Suicide Commando - Severed Head (Heads Of State Mix by Komor Kommando).wav" WAVE
  TRACK 01 AUDIO
    FLAGS DCP
    PREGAP 00:01:00
    INDEX 01 00:00:00
  TRACK 02 AUDIO
    FLAGS DCP
    INDEX 00 04:26:47
FILE "Suicide Commando - Implements Of Hell (flac)\02 - Suicide Commando - Die Motherfucker Die (Modulate Remix).wav" WAVE
    INDEX 01 00:00:00
  TRACK 03 AUDIO
    FLAGS DCP
    INDEX 00 06:34:32
FILE "Suicide Commando - Implements Of Hell (flac)\03 - Suicide Commando - Cause Of Death- Suicide (Final Count 2009).wav" WAVE
    INDEX 01 00:00:00
  TRACK 04 AUDIO
    FLAGS DCP
    INDEX 00 05:43:56
FILE "Suicide Commando - Implements Of Hell (flac)\04 - Suicide Commando - The Perils Of Indifference (Remixed by JH from Centhron).wav" WAVE
    INDEX 01 00:00:00
  TRACK 05 AUDIO
    FLAGS DCP
    INDEX 00 05:15:23
FILE "Suicide Commando - Implements Of Hell (flac)\05 - Suicide Commando - Hate Me (Leaether Strip Remix).wav" WAVE
    INDEX 01 00:00:00
  TRACK 06 AUDIO
    FLAGS DCP
    INDEX 00 04:36:06
FILE "Suicide Commando - Implements Of Hell (flac)\06 - Suicide Commando - Die Motherfucker Die (Nurzery Rhymes vs Betamorphose Remix).wav" WAVE
    INDEX 01 00:00:00
  TRACK 07 AUDIO
    FLAGS DCP
    INDEX 00 05:49:58
FILE "Suicide Commando - Implements Of Hell (flac)\07 - Suicide Commando - The Perils Of Indifference (Xotox Remix).wav" WAVE
    INDEX 01 00:00:00
  TRACK 08 AUDIO
    FLAGS DCP
    INDEX 00 04:10:69
FILE "Suicide Commando - Implements Of Hell (flac)\08 - Suicide Commando - Hate Me (Original Version).wav" WAVE
    INDEX 01 00:00:00
  TRACK 09 AUDIO
    FLAGS DCP
    INDEX 00 05:12:74
FILE "Suicide Commando - Implements Of Hell (flac)\09 - Suicide Commando - Severed Head (Beheaded Mix by Schattenschlag).wav" WAVE
    INDEX 01 00:00:00
  TRACK 10 AUDIO
    FLAGS DCP
    INDEX 00 05:32:10
FILE "Suicide Commando - Implements Of Hell (flac)\10 - Suicide Commando - Die Motherfucker Die (Apology Not Accepted Remix by FПX8-SЛD8).wav" WAVE
    INDEX 01 00:00:00
  TRACK 11 AUDIO
    FLAGS DCP
    INDEX 00 04:24:53
FILE "Suicide Commando - Implements Of Hell (flac)\11 - Suicide Commando - Until We Die (Winter Version).wav" WAVE
    INDEX 01 00:00:00
  TRACK 12 MODEx/2xxx
    FLAGS DCP
    INDEX 00 04:45:22

Цитата:
Цитата:
«Implements Of Hell» — музыкальный альбом группы Suicide Commando, вышедший в конце января 2010 года. Он стал одиннадцатым студийным альбомом, выпущенным за всю историю группы. Объявление о завершении записи альбома было сделано 10 октября 2009 года на официальном сайте Suicide Commando.
Альбом выпущен в трех различных изданиях: 2xCD и 3xCD издания с ограниченным тиражом в 2000 и 1000 экземпляров соотвественно, а также регулярное издание с одним диском. Ограниченные издания альбома включают в себя бонусный диск с ремиксами, а 3xCD версия, изданная специально для фанатов, включает в себя бонусный сингл «God Is In The Rain», футболку, набор наклеек и сертификат владельца с порядковым номером.
(c) wiki

Цитата:
Цитата:
Johan Van Roy начал эксперименты с электронной музыкой под именем Suicide Commando в 1986 году. Два года спустя вышла первая (из 9-ти) кассета Suicide Commando и первая песня на виниловом сборнике «Electronic».
В 1993 году состоялось первое концертное выступление Suicide Commando, а также 4 песни попали в сборник «Induktion, Varianz und deren folgen».
В следующем году на лейбле Off Beat вышел дебютный альбом Suicide Commando - «Critical Stage», песни с которого стали клубными хитами. Следующие альбомы - «Stored Images» (1995), «Contamination» (1996), «State Of Emergency» (1997) и «Construct-Destruct» (1998) также оказались мрачно-танцевальными, с обилием хитов.
В 1999 году вышел сборник старых (с 1998 по 1994) и неизданных песен «Chromdioxyde». Дальше последовали очень успешное европейское концертное турне (с Velvet Acid Christ) и новые релизы: альбом «Mind Strip» (2000), и синглы: «Comatose Delusion» и «Hellraiser» - самый знаменитый хит Suicide Commando. В 2001 году вышел EP «Love Breeds Suicide». В 2003 году состоялся американский дебют Suicide Commando - альбом «Axis of Evil».
На всех своих релизах Suicide Commando остаются постоянными. Меняются технологии и синтезаторы, но саунд Suicide Commando всегда узнаваем: агрессивный EBM, злой вокал, скрежещущие мелодии и ритмы.
(c) last.fm




Правила, инструкции, FAQ!!!
Торрент  Добавлен [26 июн 2020, 20:39] Скачать торрент Магнет ссылка
Скачать торрент
[ Размер 19.66 КБ / Просмотров 11 ]

Статус
Проверен 
 
Размер  819.93 МБ
Приватный: Нет (DHT включён)
.torrent скачан  1
 


     Отправить личное сообщение
   
Страница 1 из 1
Показать сообщения за:  Поле сортировки  
Начать новую тему Ответить на тему


Сейчас этот форум просматривают: нет зарегистрированных пользователей и гости: 0


Вы не можете начинать темы
Вы не можете отвечать на сообщения
Вы не можете редактировать свои сообщения
Вы не можете удалять свои сообщения
Вы не можете добавлять вложения

Перейти:  
cron