Начать новую тему Ответить на тему
Статистика раздачи
Размер: 1.73 ГБ | Добавлен: 26 июн 2020, 17:46 | Скачали: 1
Сидеров: 31  [0 байт/сек]    Личеров: 0  [0 байт/сек]
Пред. тема | След. тема 

Автор
Сообщение

СообщениеДобавлено: 26 июн 2020, 17:46 

Ответить с цитатой 

Painbastard - 4 CD
Жанр: Dark Electro / EBM
Год выпуска диска: 2003-2006
Страна: Germany
Аудио кодек: FLAC
Тип рипа: image+.cue
Битрейт аудио: lossless
Продолжительность: 4 CD
Состав: Alex P.
#777Продолжительность: 50:23
Трэклист:
01. Disappointment
02. Damned to Suffer
03. Skin on Fire [V.02]
04. All Rights reserved
05. Obituary
06. Der Untertan
07. Now I Fall
08. All I regret
09. Silence cleans my Soul
10. They simulate
11. Wishful thinking [V.02]
12. Outro
Код:
Exact Audio Copy V0.99 prebeta 4 from 23. January 2008
EAC extraction logfile from 28. March 2009, 0:48
Painbastard / Skin On Fire
Used drive  : PLEXTOR DVDR   PX-810SA   Adapter: 2  ID: 0
Read mode               : Secure
Utilize accurate stream : Yes
Defeat audio cache      : Yes
Make use of C2 pointers : No
Read offset correction                      : 48
Overread into Lead-In and Lead-Out          : No
Fill up missing offset samples with silence : Yes
Delete leading and trailing silent blocks   : No
Null samples used in CRC calculations       : Yes
Used interface                              : Installed external ASPI interface
Used output format : Internal WAV Routines
Sample format      : 44.100 Hz; 16 Bit; Stereo
TOC of the extracted CD
     Track |   Start  |  Length  | Start sector | End sector
    ---------------------------------------------------------
        1  |  0:00.00 |  4:58.37 |         0    |    22386
        2  |  4:58.37 |  4:42.56 |     22387    |    43592
        3  |  9:41.18 |  3:49.14 |     43593    |    60781
        4  | 13:30.32 |  3:22.53 |     60782    |    75984
        5  | 16:53.10 |  4:19.65 |     75985    |    95474
        6  | 21:13.00 |  4:45.17 |     95475    |   116866
        7  | 25:58.17 |  5:28.15 |    116867    |   141481
        8  | 31:26.32 |  3:41.12 |    141482    |   158068
        9  | 35:07.44 |  3:36.60 |    158069    |   174328
       10  | 38:44.29 |  3:41.61 |    174329    |   190964
       11  | 42:26.15 |  5:29.60 |    190965    |   215699
       12  | 47:56.00 |  2:27.53 |    215700    |   226777
Range status and errors
Selected range
     Filename E:\Documents and Settings\Rolands\Desktop\Painbastard   Skin On Fire (2003)\Painbastard - Skin On Fire.wav
     Peak level 98.7 %
     Range quality 100.0 %
     Copy CRC 749794E5
     Copy OK
No errors occurred
AccurateRip summary
Track  1  accurately ripped (confidence 2)  [9C6AFD5E]
Track  2  accurately ripped (confidence 2)  [5CF85C82]
Track  3  accurately ripped (confidence 2)  [1D285D35]
Track  4  accurately ripped (confidence 2)  [AF5F0033]
Track  5  accurately ripped (confidence 2)  [BA8E4DF9]
Track  6  not present in database
Track  7  not present in database
Track  8  not present in database
Track  9  not present in database
Track 10  not present in database
Track 11  not present in database
Track 12  not present in database
 5 track(s) accurately ripped
 7 track(s) not present in the AccurateRip database
Some tracks could not be verified as accurate
End of status report
#777Продолжительность: 67:42
Трэклист:
01. Eternity
02. Nervenkrieg
03. Common Wealth
04. Todesengel
05. System Failed
06. The Face Of War
07. A Short Moment Of Love
08. Final Day (v.03 – 2005)
09. Wenn Die Zeit Still Steht (v.04. – 2005)
10. Innocence
11. Victims (They're Dead)
12. 23.55 Uhr
13. When All Is Said …
Код:
Exact Audio Copy V0.99 prebeta 4 from 23. January 2008
EAC extraction logfile from 28. March 2009, 1:53
Painbastard / Overkill
Used drive  : PLEXTOR DVDR   PX-810SA   Adapter: 2  ID: 0
Read mode               : Secure
Utilize accurate stream : Yes
Defeat audio cache      : Yes
Make use of C2 pointers : No
Read offset correction                      : 48
Overread into Lead-In and Lead-Out          : No
Fill up missing offset samples with silence : Yes
Delete leading and trailing silent blocks   : No
Null samples used in CRC calculations       : Yes
Used interface                              : Installed external ASPI interface
Used output format : Internal WAV Routines
Sample format      : 44.100 Hz; 16 Bit; Stereo
TOC of the extracted CD
     Track |   Start  |  Length  | Start sector | End sector
    ---------------------------------------------------------
        1  |  0:00.00 |  4:54.74 |         0    |    22123
        2  |  4:54.74 |  5:00.74 |     22124    |    44697
        3  |  9:55.73 |  3:35.21 |     44698    |    60843
        4  | 13:31.19 |  4:53.61 |     60844    |    82879
        5  | 18:25.05 |  6:23.68 |     82880    |   111672
        6  | 24:48.73 |  3:25.28 |    111673    |   127075
        7  | 28:14.26 |  7:39.41 |    127076    |   161541
        8  | 35:53.67 |  5:49.45 |    161542    |   187761
        9  | 41:43.37 |  6:55.09 |    187762    |   218895
       10  | 48:38.46 |  5:04.70 |    218896    |   241765
       11  | 53:43.41 |  5:20.36 |    241766    |   265801
       12  | 59:04.02 |  4:00.68 |    265802    |   283869
       13  | 63:04.70 |  4:37.68 |    283870    |   304712
Range status and errors
Selected range
     Filename E:\Documents and Settings\Rolands\Desktop\Painbastard - Overkill (2005)\Painbastard - Overkill.wav
     Peak level 100.0 %
     Range quality 100.0 %
     Copy CRC A609A60B
     Copy OK
No errors occurred
AccurateRip summary
Track  1  accurately ripped (confidence 2)  [12A14934]
Track  2  accurately ripped (confidence 2)  [9B29EE93]
Track  3  accurately ripped (confidence 2)  [F30B8090]
Track  4  accurately ripped (confidence 2)  [28A0A9C2]
Track  5  accurately ripped (confidence 2)  [FD4914BE]
Track  6  not present in database
Track  7  not present in database
Track  8  not present in database
Track  9  not present in database
Track 10  not present in database
Track 11  not present in database
Track 12  not present in database
Track 13  not present in database
 5 track(s) accurately ripped
 8 track(s) not present in the AccurateRip database
Some tracks could not be verified as accurate
End of status report
#777Продолжительность: 47:03
Трэклист:
01. Hidden game of the devil
02. A kingdom for a life
03. Nervenkrieg [LIGHTS OF EUPHORIA–MIX]
04. Breakdown
05. Nervenkrieg [REAPER–MIX]
06. Todesengel [ARMAGEDDON RMX by [:SITD:]]
07. Don’t ask me „Why?“!
08. Nervenkrieg [CONETIK–MIX]
09. Nervenkrieg [PEOPLE ARE EVIL RMX]
Код:
Exact Audio Copy V0.99 prebeta 4 from 23. January 2008
EAC extraction logfile from 28. March 2009, 16:28
Painbastard / Storm of Impermanence
Used drive  : PLEXTOR DVDR   PX-810SA   Adapter: 2  ID: 0
Read mode               : Secure
Utilize accurate stream : Yes
Defeat audio cache      : Yes
Make use of C2 pointers : No
Read offset correction                      : 48
Overread into Lead-In and Lead-Out          : No
Fill up missing offset samples with silence : Yes
Delete leading and trailing silent blocks   : No
Null samples used in CRC calculations       : Yes
Used interface                              : Installed external ASPI interface
Used output format : Internal WAV Routines
Sample format      : 44.100 Hz; 16 Bit; Stereo
TOC of the extracted CD
     Track |   Start  |  Length  | Start sector | End sector
    ---------------------------------------------------------
        1  |  0:00.00 |  5:16.67 |         0    |    23766
        2  |  5:16.67 |  5:33.70 |     23767    |    48811
        3  | 10:50.62 |  5:17.47 |     48812    |    72633
        4  | 16:08.34 |  6:57.57 |     72634    |   103965
        5  | 23:06.16 |  5:12.72 |    103966    |   127437
        6  | 28:19.13 |  5:37.58 |    127438    |   152770
        7  | 33:56.71 |  4:24.70 |    152771    |   172640
        8  | 38:21.66 |  3:40.74 |    172641    |   189214
        9  | 42:02.65 |  5:00.68 |    189215    |   211782
Range status and errors
Selected range
     Filename E:\Documents and Settings\Rolands\Desktop\Painbastard - Storm Of Impermanence (EP) (2005)\Painbastard - Storm of Impermanence.wav
     Peak level 100.0 %
     Range quality 100.0 %
     Copy CRC 55BFF1EA
     Copy OK
No errors occurred
AccurateRip summary
Track  1  not present in database
Track  2  not present in database
Track  3  not present in database
Track  4  not present in database
Track  5  not present in database
Track  6  not present in database
Track  7  not present in database
Track  8  not present in database
Track  9  not present in database
None of the tracks are present in the AccurateRip database
End of status report
#777Продолжительность: 74:37
Трэклист:
01. No need to worry - Intro
02. When the rats desert the sinking ship
03. Sternentanz
04. Poison for your soul
05. Lebe Deinen Traum
06. Self (De) Termination
07. Kinky species
08. The way
09. Tear apart
10. Mother
11. Torn (feat. Torben Wendt / Diorama)
12. The time is ripe!
13. No need to worry? - Outro
14. Sternentanz - remixed by Feindflug
15. Poison for your soul - rmx by Christer H./ S.P.O.C.K.
Код:
Exact Audio Copy V0.99 prebeta 4 from 23. January 2008
EAC extraction logfile from 28. March 2009, 13:22
Painbastard / No Need To Worry
Used drive  : PLEXTOR DVDR   PX-810SA   Adapter: 2  ID: 0
Read mode               : Secure
Utilize accurate stream : Yes
Defeat audio cache      : Yes
Make use of C2 pointers : No
Read offset correction                      : 48
Overread into Lead-In and Lead-Out          : No
Fill up missing offset samples with silence : Yes
Delete leading and trailing silent blocks   : No
Null samples used in CRC calculations       : Yes
Used interface                              : Installed external ASPI interface
Used output format : Internal WAV Routines
Sample format      : 44.100 Hz; 16 Bit; Stereo
TOC of the extracted CD
     Track |   Start  |  Length  | Start sector | End sector
    ---------------------------------------------------------
        1  |  0:00.00 |  6:08.17 |         0    |    27616
        2  |  6:08.17 |  4:56.15 |     27617    |    49831
        3  | 11:04.32 |  5:33.52 |     49832    |    74858
        4  | 16:38.09 |  6:08.59 |     74859    |   102517
        5  | 22:46.68 |  4:53.74 |    102518    |   124566
        6  | 27:40.67 |  4:14.20 |    124567    |   143636
        7  | 31:55.12 |  4:52.73 |    143637    |   165609
        8  | 36:48.10 |  4:58.17 |    165610    |   187976
        9  | 41:46.27 |  4:49.53 |    187977    |   209704
       10  | 46:36.05 |  4:17.24 |    209705    |   229003
       11  | 50:53.29 |  6:33.59 |    229004    |   258537
       12  | 57:27.13 |  4:12.26 |    258538    |   277463
       13  | 61:39.39 |  3:21.01 |    277464    |   292539
       14  | 65:00.40 |  5:26.47 |    292540    |   317036
       15  | 70:27.12 |  4:10.62 |    317037    |   335848
Range status and errors
Selected range
     Filename E:\Documents and Settings\Rolands\Desktop\Painbastard - No Need To Worry (2006)\Painbastard - No Need To Worry.wav
     Peak level 96.5 %
     Range quality 100.0 %
     Copy CRC 5DEBB612
     Copy OK
No errors occurred
AccurateRip summary
Track  1  not present in database
Track  2  not present in database
Track  3  not present in database
Track  4  not present in database
Track  5  not present in database
Track  6  not present in database
Track  7  not present in database
Track  8  not present in database
Track  9  not present in database
Track 10  not present in database
Track 11  not present in database
Track 12  not present in database
Track 13  not present in database
Track 14  not present in database
Track 15  not present in database
None of the tracks are present in the AccurateRip database
End of status report



Музыкальное творчество Алекса П. началось ещё в далёком 1991 году, однако в электронную музыку он пришёл лишь в 1995. До этого — кто бы мог подумать! — Алекс играл на электрогитаре и увлекался блек- и дет-металлом. Но так и не собрав группу, отчасти из-за отсутствия хороших музыкантов, желающих присоединиться, отчасти из-за склонности к сольному творчеству, он оставляет это направление. В ноябре 1995 с покупкой своего первого синтезатора Алекс делает первые шаги к сцене темного электро. Тогда же он понимает, что своим детищем будет заниматься только в одиночку, творя желаемую музыку без необходимости искать компромисс с другими участниками. После некоторых колебаний, новый проект, до этого называемый то «Frost», то «Black dressed», то «Affinity of souls», в 1998 году получает финальное название PAINBASTARD как отражение смятения, боли и поиска своего пути для молодого музыканта, стремящегося узнать себе цену.
В 1999 Алекс записывает на своей растущей домашней студии три диска нового материала, тогда и формируется музыкальная концепция PAINBASTARD. В этом же году он впервые выступает вживую на публике, и положительные отзывы вдохновляют его на продолжение развития своего творчества в электронном направлении. 2000 год, тяжелый для Алекса, но весьма продуктивный для его музыкальной карьеры. Он выступает наряду с такими группами, как Dance Or Die, Tanzwut и Blind Passenger на фестивале Electro-Attack в Лейпциге. В этом году начинается дружба Алекса с проектом Coinside, который помещает его песню «Enter [My] New World» на сборник «Neue Welten». Летом этого же года из треков 1998—2000 годов составляется первый альбом «Just Like Dying». Параллельно Алекс начинает свой танцевально-ориентированный проект Xceed. В декабре готовится обновленная версия «Just Like Dying — First Blood Edition», на которой пять треков были заменены на новые песни и ремиксы.
В 2001 году Алекс выходит на качественно новый уровень музыки, выпуская диск «Mindevolution». Трагический инцидент 11 сентября 2001 года проходит красной нитью по тематике песен. Завершена работа над первым полноформатным диском Xceed и положено начало очередному, на сей раз техно-сайд-проекту Prototype. В декабре Алекс сыграл свой первый совместный концерт с Coinside в Хойерсверда, а в феврале 2002 выступил в поддержку Coinside и других признанных исполнителей на фестивале в Рабене. Тогда же выходит новый альбом «Skin on Fire», куда входят треки с «Mindevolution». Уже летом PAINBASTARD попадает в поле пристального внимания Accession Records, и вот контракт уже у Алекса в кармане. Начинается тяжелая работа над переизданием «Skin on Fire», и все возможные препятствия встают на пути Алекса. Наводнение, отрезавшее его от студии, поломки и неполадки аппаратуры заставляют его то надолго задерживать материал, то несколько раз начинать работу с самого начала. И только к концу августа Алекс вышел победителем из ожесточенной схватки с обстоятельствами, и альбом был официально издан на Accession.
Полтора года спустя в свет выходит второй официальный диск «Overkill», сводить который Алексу помогал Кришан из Rotersand. Мрачный и напряженный в противовес резкому и ритмичному «Skin on Fire», он получился более прочувствованным и личным для музыканта. Сам Алекс называет «Skin on Fir»e не совсем типичным для PAINBASTARD, и «Overkill» для него намного ближе по состоянию души. Альбом насквозь пропитан лирикой негативных настроений, намертво въевшихся в современное общество. Социальная тематика сближает PAINBASTARD с его основным вдохновителем Клаусом Ларсеном (Leaether Strip), хотя сам Алекс старается не останавливаться на каких-либо излюбленных источниках вдохновения, и черпает стимул для творчества во всем, что его окружает.
Осенью 2006 выпущен третий альбом «No Need to Worry», продолжающий развитие насыщенной и атмосферной музыки PAINBASTARD. Ничто не стоит на месте, но самое главное для Алекса неизменно — неискоренимый идеализм и бунтарский дух заставляют его стремиться к новым высотам, не останавливаясь на достигнутом.
--------------------------------------------------------------------------------
(* — на основе пресс-релиза Russian Gothic Project к московскому концерту Painbastard)
Правила, инструкции, FAQ!!!
Торрент  Добавлен [26 июн 2020, 17:46] Скачать торрент Магнет ссылка
Скачать торрент
[ Размер 38.83 КБ / Просмотров 15 ]

Статус
Проверен 
 
Размер  1.73 ГБ
Приватный: Нет (DHT включён)
.torrent скачан  1
 


     Отправить личное сообщение
   
Страница 1 из 1
Показать сообщения за:  Поле сортировки  
Начать новую тему Ответить на тему


Сейчас этот форум просматривают: нет зарегистрированных пользователей и гости: 0


Вы не можете начинать темы
Вы не можете отвечать на сообщения
Вы не можете редактировать свои сообщения
Вы не можете удалять свои сообщения
Вы не можете добавлять вложения

Перейти:  
cron