Начать новую тему Ответить на тему
Статистика раздачи
Размер: 563 МБ | Добавлен: 26 июн 2020, 20:15 | Скачали: 0
Сидеров: 2  [0 байт/сек]    Личеров: 0  [0 байт/сек]
Пред. тема | След. тема 

Автор
Сообщение

СообщениеДобавлено: 26 июн 2020, 20:15 

Ответить с цитатой 

Mordacious / Suicide Club
#777Жанр: dark electro / EBM
Страна-производитель диска: Germany
Год издания: 2012
Издатель (лейбл): Infacted Recordings
Номер по каталогу: FACT 3202
Аудиокодек: FLAC (*.flac)
Тип рипа: image+.cue
Битрейт аудио: lossless
Продолжительность: 1:12:16.54
Источник (релизер): Физический носитель
Наличие сканов в содержимом раздачи: да
Треклист:
01. Penetrate [4:40]
02. DTF [4:39]
03. Tragic Doll [4:58]
04. Until Death [4:45]
05. Born To Fail [4:27]
06. Suicide Club [4:53]
07. Lost Souls [5:14]
08. Deadbeat [4:22]
09. Execute [4:55]
10. Facefuck [4:51]
11. Morbid Curiosity [4:45]
12. Suicide Club (Alien Vampires remix) [5:01]
13. Born To Fail (FGFC820 remix) [5:33]
14. Suicide Club (C-Lekktor remix) [4:04]
15. Tragic Doll (Assemblage 23 remix) [5:10]
Код:
Exact Audio Copy V1.0 beta 3 from 29. August 2011
Отчёт EAC об извлечении, выполненном 15. июля 2012, 19:06
Mordacious / Suicide Club
Дисковод: PIONEER DVD-RW  DVR-XD10   Adapter: 3  ID: 0
Режим чтения                 : Достоверность
Использование точного потока : Да
Отключение кэша аудио        : Да
Использование указателей C2  : Нет
Коррекция смещения при чтении                     : 96
Способность читать области Lead-in и Lead-out     : Нет
Заполнение пропущенных сэмплов тишиной            : Да
Удаление блоков с тишиной в начале и конце        : Нет
При вычислениях CRC использовались нулевые сэмплы : Да
Интерфейс                                         : Встроенный Win32-интерфейс для Win NT/2000
Выходной формат          : Пользовательский кодировщик
Выбранный битрейт        : 1024 kBit/s
Качество                 : Высокий
Добавление ID3-тега      : Нет
Утилита сжатия           : C:\Program Files\Exact Audio Copy\FLAC\FLAC.EXE
Дополнительные параметры : -6 -V -T "Date=%year%" -T "Genre=%genre%" %source%
TOC извлечённого CD
     Трек |   Старт  | Длительность | Начальный сектор | Конечный сектор
    ---------------------------------------------------------------------
       1  |  0:00.00 |    4:40.00   |           0      |      20999
       2  |  4:40.00 |    4:39.20   |       21000      |      41944
       3  |  9:19.20 |    4:57.52   |       41945      |      64271
       4  | 14:16.72 |    4:45.22   |       64272      |      85668
       5  | 19:02.19 |    4:27.34   |       85669      |     105727
       6  | 23:29.53 |    4:53.02   |      105728      |     127704
       7  | 28:22.55 |    5:13.53   |      127705      |     151232
       8  | 33:36.33 |    4:22.04   |      151233      |     170886
       9  | 37:58.37 |    4:54.74   |      170887      |     193010
      10  | 42:53.36 |    4:50.50   |      193011      |     214810
      11  | 47:44.11 |    4:45.07   |      214811      |     236192
      12  | 52:29.18 |    5:00.41   |      236193      |     258733
      13  | 57:29.59 |    5:32.55   |      258734      |     283688
      14  | 63:02.39 |    4:03.69   |      283689      |     301982
      15  | 67:06.33 |    5:10.21   |      301983      |     325253
Характеристики диапазона извлечения и сообщения об ошибках
Выбранный диапазон
     Имя файла C:\Documents and Settings\Наташка\Рабочий стол\Mordacious - Suicide Club.wav
     Пиковый уровень 100.0 %
     Скорость извлечения 4.1 X
     Качество диапазона 100.0 %
     CRC теста 5DB6F5C8
     CRC копии 5DB6F5C8
     Копирование... OK
Ошибок не произошло
AccurateRip: сводка
Трек  1  отсутствует в базе данных
Трек  2  отсутствует в базе данных
Трек  3  отсутствует в базе данных
Трек  4  отсутствует в базе данных
Трек  5  отсутствует в базе данных
Трек  6  отсутствует в базе данных
Трек  7  отсутствует в базе данных
Трек  8  отсутствует в базе данных
Трек  9  отсутствует в базе данных
Трек 10  отсутствует в базе данных
Трек 11  отсутствует в базе данных
Трек 12  отсутствует в базе данных
Трек 13  отсутствует в базе данных
Трек 14  отсутствует в базе данных
Трек 15  отсутствует в базе данных
Ни одного трека нет в базе AccurateRip
Конец отчёта
==== Контрольная сумма отчёта D405982B9C17337A1B0B358448EA48D633731EA3A9079F09E1CB8DF5E6FB21D6 ====
Правила, инструкции, FAQ!!!
Торрент  Добавлен [26 июн 2020, 20:15] Скачать торрент Магнет ссылка
Скачать торрент
[ Размер 11.9 КБ / Просмотров 15 ]

Статус
Проверен 
 
Размер  563 МБ
Приватный: Нет (DHT включён)
.torrent скачан  0
 


     Отправить личное сообщение
   
Страница 1 из 1
Показать сообщения за:  Поле сортировки  
Начать новую тему Ответить на тему


Сейчас этот форум просматривают: нет зарегистрированных пользователей и гости: 0


Вы не можете начинать темы
Вы не можете отвечать на сообщения
Вы не можете редактировать свои сообщения
Вы не можете удалять свои сообщения
Вы не можете добавлять вложения

Перейти:  
cron