Начать новую тему Ответить на тему
Статистика раздачи
Размер: 375.07 МБ | Добавлен: 26 июн 2020, 21:01 | Скачали: 0
Сидеров: 1  [0 байт/сек]    Личеров: 0  [0 байт/сек]
Пред. тема | След. тема 

Автор
Сообщение

СообщениеДобавлено: 26 июн 2020, 21:01 

Ответить с цитатой 

Invisible Devastation - Тринадцатый Апостол




• Жанр: Dark Electro | EBM
• Носитель: WEB
• Год издания: 2015
• Издатель (лейбл) skyQode
• Номер по каталогу: SQD18
• Страна-производитель релиза: Germany | Russia
• Страна исполнителя (группы): Russia
• Аудиокодек: FLAC (*.flac)
• Тип рипа: tracks
• Продолжительность: 00:48:31
• Источник (релизер):NTDMMANIAC ®
• WEB релиз: bandcamp
• Наличие сканов: front

01 - Вторжение (00:04:11)
02 - Мать Героина (00:05:22)
03 - Я Ублюдок (00:04:33)
04 - Бесконечность (00:04:49)
05 - Тринадцатый Апостол (00:05:11)
06 - Дьявол (00:04:48)
07 - Красное Братство (00:04:37)
08 - Эпитафия (00:04:09)
09 - Наследие (00:04:14)
10 - Покаяние (00:06:33)

foobar2000 1.2.5 / Замер динамического диапазона (DR) 1.1.1
Дата отчёта: 2018-05-01 22:01:09
--------------------------------------------------------------------------------
Анализ: Invisible Devastation / Тринадцатый Апостол
--------------------------------------------------------------------------------
DR Пики RMS Продолжительность трека
--------------------------------------------------------------------------------
DR6 0.00 дБ -6.74 дБ 4:12 01-Вторжение
DR6 0.00 дБ -6.83 дБ 5:22 02-Мать Героина
DR6 0.00 дБ -7.36 дБ 4:33 03-Я Ублюдок
DR6 0.00 дБ -8.04 дБ 4:49 04-Бесконечность
DR6 0.00 дБ -7.04 дБ 5:12 05-Тринадцатый Апостол
DR6 0.00 дБ -6.59 дБ 4:48 06-Дьявол
DR5 -0.30 дБ -6.15 дБ 4:38 07-Красное Братство
DR6 0.00 дБ -7.58 дБ 4:09 08-Эпитафия
DR6 0.00 дБ -6.69 дБ 4:14 09-Наследие
DR6 0.00 дБ -7.19 дБ 6:34 10-Покаяние
--------------------------------------------------------------------------------
Количество треков: 10
Реальные значения DR: DR6
Частота: 44100 Гц
Каналов: 2
Разрядность: 16
Битрейт: 1066 кбит/с
Кодек: FLAC
================================================================================

Код:
-----------------------
DON'T MODIFY THIS FILE
-----------------------
PERFORMER: auCDtect Task Manager, ver. 1.5.1RC3 build 1.5.1.4
Copyright (c) 2008-2010 y-soft. All rights reserved
[url=http://y-soft.org]http://y-soft.org[/url]
ANALYZER: auCDtect: CD records authenticity detector, version 0.8.2
Copyright (c) 2004 Oleg Berngardt. All rights reserved.
Copyright (c) 2004 Alexander Djourik. All rights reserved.
FILE: 10 - Покаяние.flac
  Size: 52542613 Hash: 7F0B6879A2685CFC45B6ADE57749E98C Accuracy: -m0
  Conclusion: CDDA 100%
  Signature: 68AA25DEB12AD128583C4F0F151D8E1BE951CE4E
FILE: 09 - Наследие.flac
  Size: 34665518 Hash: 9D0BA5DBBA67EFCC66D31E0298E60DEB Accuracy: -m0
  Conclusion: CDDA 100%
  Signature: B3C018ADF1E5E0DCBC8FBC73B5A696E90BE0F37D
FILE: 08 - Эпитафия.flac
  Size: 33289277 Hash: 5993499C13ADC3177D91C3F5EBB89074 Accuracy: -m0
  Conclusion: CDDA 100%
  Signature: E7CA9E02BEB15B51EDF7F30BCBA484B643FE3FDA
FILE: 07 - Красное Братство.flac
  Size: 37670219 Hash: F7722F4A56819E2A6B653DC5D9299A17 Accuracy: -m0
  Conclusion: CDDA 100%
  Signature: 79A26192A1A305C1AB0B20B143F68AD60C3F1D8D
FILE: 06 - Дьявол.flac
  Size: 37631441 Hash: C29219FFE61D20EBACE63AEA3EEFA2CD Accuracy: -m0
  Conclusion: CDDA 100%
  Signature: 58EE5CDDB67D718CE84E2BA172C72A4F766E835E
FILE: 05 - Тринадцатый Апостол.flac
  Size: 41347724 Hash: B9EDC748C4C7EC22F0DED7F9045AF9B2 Accuracy: -m0
  Conclusion: CDDA 100%
  Signature: 17D1A1AFA294DB136B4096FAD05663425FECCC9E
FILE: 04 - Бесконечность.flac
  Size: 38282442 Hash: ACC3D2B68FD5F280C63D598BAE0C9382 Accuracy: -m0
  Conclusion: CDDA 100%
  Signature: F1409D2346CD73266FABB45DD7CD0EDD45DBA2A1
FILE: 03 - Я Ублюдок.flac
  Size: 37353560 Hash: 2ACEAF65A2C2DA3F717888361AD1F51A Accuracy: -m0
  Conclusion: CDDA 100%
  Signature: 89890686E9AA630668CBF53D2748875239AAF6B4
FILE: 02 - Мать Героина.flac
  Size: 45006542 Hash: E261529D59BDED10C75E2A2C9E1BAEDD Accuracy: -m0
  Conclusion: CDDA 100%
  Signature: 06ED7F61C49CDB5351CEB0EC374B2BF17C757751
FILE: 01 - Вторжение.flac
  Size: 34639408 Hash: 079257F1D298093A27C209A309A32E1F Accuracy: -m0
  Conclusion: CDDA 100%
  Signature: 70822BAAE821F9A5150F2FD2263528BA9304DB5D


Правила, инструкции, FAQ!!!
Торрент  Добавлен [26 июн 2020, 21:01] Скачать торрент Магнет ссылка
Скачать торрент
[ Размер 15.83 КБ / Просмотров 9 ]

Статус
Проверен 
 
Размер  375.07 МБ
Приватный: Нет (DHT включён)
.torrent скачан  0
 


     Отправить личное сообщение
   
Страница 1 из 1
Показать сообщения за:  Поле сортировки  
Начать новую тему Ответить на тему


Сейчас этот форум просматривают: нет зарегистрированных пользователей и гости: 0


Вы не можете начинать темы
Вы не можете отвечать на сообщения
Вы не можете редактировать свои сообщения
Вы не можете удалять свои сообщения
Вы не можете добавлять вложения

Перейти:  
cron