Начать новую тему Ответить на тему
Статистика раздачи
Размер: 358.48 МБ | Добавлен: 26 июн 2020, 20:14 | Скачали: 0
Сидеров: 0  [0 байт/сек]    Личеров: 0  [0 байт/сек]
Пред. тема | След. тема 

Автор
Сообщение

СообщениеДобавлено: 26 июн 2020, 20:14 

Ответить с цитатой 

Wumpscut - Embryodead
Страна: Germany
Жанр: Dark-electro/EBM/Industrial
Год выпуска: 1997
Формат: APE (tracks+.cue)
Битрейт аудио: lossless
Продолжительность: 50:13
Трэклист:
01. Golgotha 6:28
02. Embryodead 5:26
03. Down Where We Belong 3:38
04. Slave To Evil 4:22
05. War 4:43
06. Is It You 5:18
07. Pest 4:38
08. Womb 4:53
09. Angel 4:25
10. Stillbirth 6:21
Доп. информация: https://rutracker.org/forum/viewtopic.php?t=335324
Exact Audio Copy V0.99 prebeta 1 from 25. May 2007
Отчёт EAC об извлечении, выполненном 30. августа 2007, 1:16
Wumpscut / Embryodead
Дисковод: HL-DT-STDVDRAM GSA-4160B Adapter: 3 ID: 1
Режим чтения : Достоверность
Использование точного потока : Да
Отключение кэша аудио : Да
Использование указателей C2 : Нет
Комбинированное смещение чтения/записи : 0
Способность читать области Lead-in и Lead-out : Нет
Заполнение пропущенных сэмплов тишиной : Да
Удаление блоков с тишиной в начале и конце : Нет
Интерфейс : Установленный внешний ASPI-интерфейс
Обработка зазоров : Добавлено к предыдущему треку
Выходной формат : Monkey's Audio Lossless Encoder v3.99 DLL
Формат сэмплов : Normal Lossless Compression
TOC извлечённого CD
Трек | Старт | Длительность | Начальный сектор | Конечный сектор
---------------------------------------------------------------------
1 | 0:00.01 | 6:26.46 | 1 | 28996
2 | 6:26.47 | 5:27.12 | 28997 | 53533
3 | 11:53.59 | 3:38.35 | 53534 | 69918
4 | 15:32.19 | 4:22.72 | 69919 | 89640
5 | 19:55.16 | 4:43.51 | 89641 | 110916
6 | 24:38.67 | 5:18.14 | 110917 | 134780
7 | 29:57.06 | 4:38.50 | 134781 | 155680
8 | 34:35.56 | 4:53.39 | 155681 | 177694
9 | 39:29.20 | 4:25.34 | 177695 | 197603
10 | 43:54.54 | 6:23.62 | 197604 | 226390
Трек 1
Имя файла F:\E\Downlded\Distributive\Wumpscut - Embryodead\01 - Golgotha.ape
Длина предзазора 0:00:02.01
Пиковый уровень 100.0 %
Качество трека 100.0 %
CRC копии 26643FE3
Копирование... OK
Трек 2
Имя файла F:\E\Downlded\Distributive\Wumpscut - Embryodead\02 - Embryodead.ape
Пиковый уровень 99.4 %
Качество трека 100.0 %
CRC копии 938F914D
Копирование... OK
Трек 3
Имя файла F:\E\Downlded\Distributive\Wumpscut - Embryodead\03 - Down Where We Belong.ape
Пиковый уровень 99.4 %
Качество трека 100.0 %
CRC копии DBDE8BF2
Копирование... OK
Трек 4
Имя файла F:\E\Downlded\Distributive\Wumpscut - Embryodead\04 - Slave To Evil.ape
Пиковый уровень 99.0 %
Качество трека 100.0 %
CRC копии C1AD21F1
Копирование... OK
Трек 5
Имя файла F:\E\Downlded\Distributive\Wumpscut - Embryodead\05 - War.ape
Пиковый уровень 99.4 %
Качество трека 100.0 %
CRC копии 6D2C29F5
Копирование... OK
Трек 6
Имя файла F:\E\Downlded\Distributive\Wumpscut - Embryodead\06 - Is It You.ape
Пиковый уровень 99.1 %
Качество трека 100.0 %
CRC копии 552A37F6
Копирование... OK
Трек 7
Имя файла F:\E\Downlded\Distributive\Wumpscut - Embryodead\07 - Pest.ape
Пиковый уровень 99.3 %
Качество трека 100.0 %
CRC копии 90FF7415
Копирование... OK
Трек 8
Имя файла F:\E\Downlded\Distributive\Wumpscut - Embryodead\08 - Womb.ape
Пиковый уровень 99.4 %
Качество трека 99.9 %
CRC копии 55DAA1EB
Копирование... OK
Трек 9
Имя файла F:\E\Downlded\Distributive\Wumpscut - Embryodead\09 - Angel.ape
Пиковый уровень 99.1 %
Качество трека 100.0 %
CRC копии 63ACC9E6
Копирование... OK
Трек 10
Имя файла F:\E\Downlded\Distributive\Wumpscut - Embryodead\10 - Stillbirth.ape
Пиковый уровень 99.1 %
Качество трека 100.0 %
CRC копии 8F4579F3
Копирование... OK
Ошибок не произошло
Конец отчёта
Правила, инструкции, FAQ!!!
Торрент  Добавлен [26 июн 2020, 20:14] Скачать торрент Магнет ссылка
Скачать торрент
[ Размер 14.94 КБ / Просмотров 5 ]

Статус
Проверен 
 
Размер  358.48 МБ
Приватный: Нет (DHT включён)
.torrent скачан  0
 


     Отправить личное сообщение
   
Страница 1 из 1
Показать сообщения за:  Поле сортировки  
Начать новую тему Ответить на тему


Сейчас этот форум просматривают: нет зарегистрированных пользователей и гости: 0


Вы не можете начинать темы
Вы не можете отвечать на сообщения
Вы не можете редактировать свои сообщения
Вы не можете удалять свои сообщения
Вы не можете добавлять вложения

Перейти:  
cron