Начать новую тему Ответить на тему
Статистика раздачи
Размер: 381.77 МБ | Добавлен: 26 июн 2020, 18:00 | Скачали: 0
Сидеров: 0  [0 байт/сек]    Личеров: 0  [0 байт/сек]
Пред. тема | След. тема 

Автор
Сообщение

СообщениеДобавлено: 26 июн 2020, 18:00 

Ответить с цитатой 

Wumpscut - Boeses Junges Fleisch
Страна: Germany
Жанр: Dark-electro/EBM/Industrial
Год выпуска: 1999
Формат: APE (tracks)
Битрейт аудио: lossless
Продолжительность: 54:59
Трэклист:
01. Wolf 5:40
02. Totmacher 4:23
03. Ich Will Dich 6:43
04. Flucht 4:26
05. Zerstörte Träume 4:13
06. Hexentanz 3:14
07. Draußen 4:36
08. Ewig 5:49
09. Vergib Mir 5:43
10. Sag Es Jetzt 5:20
11. Sehnsucht 4:52
Доп. информация: https://rutracker.org/forum/viewtopic.php?t=335324
Exact Audio Copy V0.99 prebeta 1 from 25. May 2007
Отчёт EAC об извлечении, выполненном 30. августа 2007, 1:09
Wumpscut / Boeses Junges Fleisch
Дисковод: HL-DT-STDVDRAM GSA-4160B Adapter: 3 ID: 1
Режим чтения : Достоверность
Использование точного потока : Да
Отключение кэша аудио : Да
Использование указателей C2 : Нет
Комбинированное смещение чтения/записи : 0
Способность читать области Lead-in и Lead-out : Нет
Заполнение пропущенных сэмплов тишиной : Да
Удаление блоков с тишиной в начале и конце : Нет
Интерфейс : Установленный внешний ASPI-интерфейс
Обработка зазоров : Добавлено к предыдущему треку
Выходной формат : Monkey's Audio Lossless Encoder v3.99 DLL
Формат сэмплов : Normal Lossless Compression
TOC извлечённого CD
Трек | Старт | Длительность | Начальный сектор | Конечный сектор
---------------------------------------------------------------------
1 | 0:00.00 | 5:40.17 | 0 | 25516
2 | 5:40.17 | 4:23.60 | 25517 | 45301
3 | 10:04.02 | 6:43.10 | 45302 | 75536
4 | 16:47.12 | 4:26.40 | 75537 | 95526
5 | 21:13.52 | 4:13.38 | 95527 | 114539
6 | 25:27.15 | 3:14.67 | 114540 | 129156
7 | 28:42.07 | 4:36.25 | 129157 | 149881
8 | 33:18.32 | 5:49.40 | 149882 | 176096
9 | 39:07.72 | 5:43.70 | 176097 | 201891
10 | 44:51.67 | 5:20.55 | 201892 | 225946
11 | 50:12.47 | 4:52.47 | 225947 | 247893
Трек 1
Имя файла F:\E\Downlded\Distributive\Wumpscut - Boeses Junges Fleisch\01 - Wolf.ape
Длина предзазора 0:00:02.00
Пиковый уровень 83.1 %
Качество трека 100.0 %
CRC копии 38FAE576
Копирование... OK
Трек 2
Имя файла F:\E\Downlded\Distributive\Wumpscut - Boeses Junges Fleisch\02 - Totmacher.ape
Пиковый уровень 98.8 %
Качество трека 100.0 %
CRC копии 8B3E601B
Копирование... OK
Трек 3
Имя файла F:\E\Downlded\Distributive\Wumpscut - Boeses Junges Fleisch\03 - Ich Will Dich.ape
Пиковый уровень 98.8 %
Качество трека 99.9 %
CRC копии 7AB5DE4A
Копирование... OK
Трек 4
Имя файла F:\E\Downlded\Distributive\Wumpscut - Boeses Junges Fleisch\04 - Flucht.ape
Пиковый уровень 80.9 %
Качество трека 100.0 %
CRC копии 637DE14D
Копирование... OK
Трек 5
Имя файла F:\E\Downlded\Distributive\Wumpscut - Boeses Junges Fleisch\05 - Zerstoerte Traeume.ape
Пиковый уровень 94.2 %
Качество трека 100.0 %
CRC копии 7AD2C577
Копирование... OK
Трек 6
Имя файла F:\E\Downlded\Distributive\Wumpscut - Boeses Junges Fleisch\06 - Hexentanz.ape
Пиковый уровень 95.2 %
Качество трека 100.0 %
CRC копии D553A10F
Копирование... OK
Трек 7
Имя файла F:\E\Downlded\Distributive\Wumpscut - Boeses Junges Fleisch\07 - Draussen.ape
Пиковый уровень 98.8 %
Качество трека 100.0 %
CRC копии 3C124A09
Копирование... OK
Трек 8
Имя файла F:\E\Downlded\Distributive\Wumpscut - Boeses Junges Fleisch\08 - Ewig.ape
Пиковый уровень 96.0 %
Качество трека 100.0 %
CRC копии C2BC7A73
Копирование... OK
Трек 9
Имя файла F:\E\Downlded\Distributive\Wumpscut - Boeses Junges Fleisch\09 - Vergib Mir.ape
Пиковый уровень 98.8 %
Качество трека 100.0 %
CRC копии 4C58B0C4
Копирование... OK
Трек 10
Имя файла F:\E\Downlded\Distributive\Wumpscut - Boeses Junges Fleisch\10 - Sag Es Jetzt.ape
Пиковый уровень 98.8 %
Качество трека 100.0 %
CRC копии 603B7CC9
Копирование... OK
Трек 11
Имя файла F:\E\Downlded\Distributive\Wumpscut - Boeses Junges Fleisch\11 - Sehnsucht.ape
Пиковый уровень 81.6 %
Качество трека 100.0 %
CRC копии F238B4C2
Копирование... OK
Ошибок не произошло
Конец отчёта
REM GENRE Industrial
REM DATE 1999
REM DISCID 7F0CE90B
REM COMMENT "ExactAudioCopy v0.99pb1"
PERFORMER "Wumpscut"
TITLE "Boeses Junges Fleisch"
FILE "01 - Wolf.wav" WAVE
TRACK 01 AUDIO
TITLE "Wolf"
PERFORMER "Wumpscut"
FLAGS DCP
INDEX 01 00:00:00
TRACK 02 AUDIO
TITLE "Totmacher"
PERFORMER "Wumpscut"
FLAGS DCP
INDEX 00 05:38:13
FILE "02 - Totmacher.wav" WAVE
INDEX 01 00:00:00
TRACK 03 AUDIO
TITLE "Ich Will Dich"
PERFORMER "Wumpscut"
FLAGS DCP
INDEX 00 04:21:45
FILE "03 - Ich Will Dich.wav" WAVE
INDEX 01 00:00:00
TRACK 04 AUDIO
TITLE "Flucht"
PERFORMER "Wumpscut"
FLAGS DCP
INDEX 00 06:41:01
FILE "04 - Flucht.wav" WAVE
INDEX 01 00:00:00
TRACK 05 AUDIO
TITLE "Zerstoerte Traeume"
PERFORMER "Wumpscut"
FLAGS DCP
INDEX 00 04:24:18
FILE "05 - Zerstoerte Traeume.wav" WAVE
INDEX 01 00:00:00
TRACK 06 AUDIO
TITLE "Hexentanz"
PERFORMER "Wumpscut"
FLAGS DCP
INDEX 00 04:11:42
FILE "06 - Hexentanz.wav" WAVE
INDEX 01 00:00:00
TRACK 07 AUDIO
TITLE "Draussen"
PERFORMER "Wumpscut"
FLAGS DCP
INDEX 00 03:12:37
FILE "07 - Draussen.wav" WAVE
INDEX 01 00:00:00
TRACK 08 AUDIO
TITLE "Ewig"
PERFORMER "Wumpscut"
FLAGS DCP
INDEX 00 04:34:06
FILE "08 - Ewig.wav" WAVE
INDEX 01 00:00:00
TRACK 09 AUDIO
TITLE "Vergib Mir"
PERFORMER "Wumpscut"
FLAGS DCP
INDEX 00 05:47:38
FILE "09 - Vergib Mir.wav" WAVE
INDEX 01 00:00:00
TRACK 10 AUDIO
TITLE "Sag Es Jetzt"
PERFORMER "Wumpscut"
FLAGS DCP
INDEX 00 05:41:16
FILE "10 - Sag Es Jetzt.wav" WAVE
INDEX 01 00:00:00
TRACK 11 AUDIO
TITLE "Sehnsucht"
PERFORMER "Wumpscut"
FLAGS DCP
INDEX 00 05:18:53
FILE "11 - Sehnsucht.wav" WAVE
INDEX 01 00:00:00
Сборник видеоклипов Leather Strip, Cubanate и др.
Правила, инструкции, FAQ!!!
Торрент  Добавлен [26 июн 2020, 18:00] Скачать торрент Магнет ссылка
Скачать торрент
[ Размер 15.93 КБ / Просмотров 11 ]

Статус
Проверен 
 
Размер  381.77 МБ
Приватный: Нет (DHT включён)
.torrent скачан  0
 


     Отправить личное сообщение
   
Страница 1 из 1
Показать сообщения за:  Поле сортировки  
Начать новую тему Ответить на тему


Сейчас этот форум просматривают: нет зарегистрированных пользователей и гости: 0


Вы не можете начинать темы
Вы не можете отвечать на сообщения
Вы не можете редактировать свои сообщения
Вы не можете удалять свои сообщения
Вы не можете добавлять вложения

Перейти:  
cron