Начать новую тему Ответить на тему
Статистика раздачи
Размер: 2.13 ГБ | Добавлен: 26 июн 2020, 19:47 | Скачали: 0
Сидеров: 0  [0 байт/сек]    Личеров: 0  [0 байт/сек]
Пред. тема | След. тема 

Автор
Сообщение

СообщениеДобавлено: 26 июн 2020, 19:47 

Ответить с цитатой 

Suicide Commando / The Suicide Sessions
Жанр: Dark Electro / EBM / Industrial
Страна-производитель диска: Germany
Год издания диска: 2011
Издатель (лейбл): Out Of Line
Номер по каталогу: 491 - 496
Страна: Belgium
Аудиокодек: FLAC (*.flac)
Тип рипа: tracks+.cue
Битрейт аудио: lossless
Продолжительность: 05:10:44
Источник (релизер): собственные диски
Наличие сканов в содержимом раздачи: да
Треклист:
#777Продолжительность: 00:51:23
Треклист:
01 Critical Stage (4:19)
02 Sheer Horror (5:16)
03 Hiv+ (4:06)
04 Traumatize (3:42)
05 So Many Questions (4:27)
06 Time (4:16)
07 Fate (4:36)
08 Necrophilia (3:47)
09 Revenge (4:53)
10 Where Do We Go From Here (4:15)
11 Under God's Eye (4:53)
12 The Dreamhouse (2:53)
Exact Audio Copy V1.0 beta 2 from 29. April 2011
EAC extraction logfile from 5. September 2011, 12:34
Suicide Commando / The suicide sessions CD 1 - Critical Stage
Used drive : TEAC DV-W524GS Adapter: 0 ID: 0
Read mode : Secure
Utilize accurate stream : Yes
Defeat audio cache : Yes
Make use of C2 pointers : No
Read offset correction : 6
Overread into Lead-In and Lead-Out : No
Fill up missing offset samples with silence : Yes
Delete leading and trailing silent blocks : No
Null samples used in CRC calculations : Yes
Used interface : Native Win32 interface for Win NT & 2000
Gap handling : Appended to previous track
Used output format : User Defined Encoder
Selected bitrate : 768 kBit/s
Quality : High
Add ID3 tag : No
Command line compressor : C:\Program Files\Exact Audio Copy\FLAC\FLAC.EXE
Additional command line options : -V -8 -T "Genre=%genre%" -T "Artist=%artist%" -T "Title=%title%" -T "Album=%albumtitle%" -T "Date=%year%" -T "Tracknumber=%tracknr%" -T "Comment=%comment%" %source%
TOC of the extracted CD
Track | Start | Length | Start sector | End sector
---------------------------------------------------------
1 | 0:00.00 | 4:19.03 | 0 | 19427
2 | 4:19.03 | 5:16.33 | 19428 | 43160
3 | 9:35.36 | 4:05.74 | 43161 | 61609
4 | 13:41.35 | 3:41.43 | 61610 | 78227
5 | 17:23.03 | 4:27.11 | 78228 | 98263
6 | 21:50.14 | 4:15.38 | 98264 | 117426
7 | 26:05.52 | 4:36.06 | 117427 | 138132
8 | 30:41.58 | 3:47.35 | 138133 | 155192
9 | 34:29.18 | 4:53.33 | 155193 | 177200
10 | 39:22.51 | 4:14.45 | 177201 | 196295
11 | 43:37.21 | 4:52.42 | 196296 | 218237
12 | 48:29.63 | 2:53.12 | 218238 | 231224
Track 1
Filename C:\Users\Администратор\Desktop\The suicide sessions\The suicide sessions CD 1 - Critical Stage\01 Critical Stage.wav
Pre-gap length 0:00:02.00
Peak level 98.0 %
Extraction speed 5.2 X
Track quality 100.0 %
Test CRC 77966745
Copy CRC 77966745
Track not present in AccurateRip database
Copy OK
Track 2
Filename C:\Users\Администратор\Desktop\The suicide sessions\The suicide sessions CD 1 - Critical Stage\02 Sheer Horror.wav
Peak level 94.8 %
Extraction speed 6.0 X
Track quality 100.0 %
Test CRC 4F2836AA
Copy CRC 4F2836AA
Track not present in AccurateRip database
Copy OK
Track 3
Filename C:\Users\Администратор\Desktop\The suicide sessions\The suicide sessions CD 1 - Critical Stage\03 Hiv+.wav
Pre-gap length 0:05:16.33
Peak level 100.0 %
Extraction speed 5.2 X
Track quality 99.9 %
Test CRC 4116FA97
Copy CRC 4116FA97
Track not present in AccurateRip database
Copy OK
Track 4
Filename C:\Users\Администратор\Desktop\The suicide sessions\The suicide sessions CD 1 - Critical Stage\04 Traumatize.wav
Pre-gap length 0:09:22.32
Peak level 98.0 %
Extraction speed 6.6 X
Track quality 100.0 %
Test CRC F7A33296
Copy CRC F7A33296
Track not present in AccurateRip database
Copy OK
Track 5
Filename C:\Users\Администратор\Desktop\The suicide sessions\The suicide sessions CD 1 - Critical Stage\05 So Many Questions.wav
Pre-gap length 0:13:04.00
Peak level 98.0 %
Extraction speed 7.2 X
Track quality 100.0 %
Test CRC 7F501EE2
Copy CRC 7F501EE2
Track not present in AccurateRip database
Copy OK
Track 6
Filename C:\Users\Администратор\Desktop\The suicide sessions\The suicide sessions CD 1 - Critical Stage\06 Time.wav
Pre-gap length 0:17:31.11
Peak level 100.0 %
Extraction speed 7.6 X
Track quality 100.0 %
Test CRC 0DD845C4
Copy CRC 0DD845C4
Track not present in AccurateRip database
Copy OK
Track 7
Filename C:\Users\Администратор\Desktop\The suicide sessions\The suicide sessions CD 1 - Critical Stage\07 Fate.wav
Pre-gap length 0:21:46.49
Peak level 100.0 %
Extraction speed 8.1 X
Track quality 100.0 %
Test CRC 2C8643E5
Copy CRC 2C8643E5
Track not present in AccurateRip database
Copy OK
Track 8
Filename C:\Users\Администратор\Desktop\The suicide sessions\The suicide sessions CD 1 - Critical Stage\08 Necrophilia.wav
Pre-gap length 0:26:22.55
Peak level 100.0 %
Extraction speed 8.2 X
Track quality 100.0 %
Test CRC 7E7FB312
Copy CRC 7E7FB312
Track not present in AccurateRip database
Copy OK
Track 9
Filename C:\Users\Администратор\Desktop\The suicide sessions\The suicide sessions CD 1 - Critical Stage\09 Revenge.wav
Pre-gap length 0:30:10.15
Peak level 100.0 %
Extraction speed 7.3 X
Track quality 99.9 %
Test CRC D66900B3
Copy CRC D66900B3
Track not present in AccurateRip database
Copy OK
Track 10
Filename C:\Users\Администратор\Desktop\The suicide sessions\The suicide sessions CD 1 - Critical Stage\10 Where Do We Go From Here.wav
Pre-gap length 0:35:03.48
Peak level 100.0 %
Extraction speed 7.4 X
Track quality 99.9 %
Test CRC 43672AD3
Copy CRC 43672AD3
Track not present in AccurateRip database
Copy OK
Track 11
Filename C:\Users\Администратор\Desktop\The suicide sessions\The suicide sessions CD 1 - Critical Stage\11 Under God's Eye.wav
Pre-gap length 0:39:18.18
Peak level 98.0 %
Extraction speed 9.4 X
Track quality 100.0 %
Test CRC CCCDC9E4
Copy CRC CCCDC9E4
Track not present in AccurateRip database
Copy OK
Track 12
Filename C:\Users\Администратор\Desktop\The suicide sessions\The suicide sessions CD 1 - Critical Stage\12 The Dreamhouse.wav
Pre-gap length 0:44:10.60
Peak level 100.0 %
Extraction speed 9.0 X
Track quality 100.0 %
Test CRC 887CD13B
Copy CRC 887CD13B
Track not present in AccurateRip database
Copy OK
None of the tracks are present in the AccurateRip database
No errors occurred
End of status report
==== Log checksum A30BABC04FAF32355D306DAE7956F59160AE7F439FCDE0600C492D22FE4279CB ====
-----------------------
DON'T MODIFY THIS FILE
-----------------------
PERFORMER: auCDtect Task Manager, ver. 1.5.1RC3 build 1.5.1.4
Copyright (c) 2008-2010 y-soft. All rights reserved
http://y-soft.org
ANALYZER: auCDtect: CD records authenticity detector, version 0.8.2
Copyright (c) 2004 Oleg Berngardt. All rights reserved.
Copyright (c) 2004 Alexander Djourik. All rights reserved.
FILE: 12 The Dreamhouse.flac
Size: 23102416 Hash: 59F5F9A5632125292AE1F73AD6D0ED54 Accuracy: -m0
Conclusion: CDDA 100%
Signature: CD3B661CF34816AFDCF9BD889FB8CFFE60D295C4
FILE: 11 Under God's Eye.flac
Size: 35783381 Hash: C9A6B199F7303B06B4B1F895DC486DDE Accuracy: -m0
Conclusion: CDDA 100%
Signature: 6A9F5B087FD7BBB18C9DAC6030B42B7E1BE796CE
FILE: 10 Where Do We Go From Here.flac
Size: 31784505 Hash: 9B383EAC44D08241CB1549712CA31348 Accuracy: -m0
Conclusion: CDDA 100%
Signature: F217736C9FB93DA80BE04CAC72529B634684D781
FILE: 09 Revenge.flac
Size: 33127640 Hash: 2AAAEA0FC79A592AA43703BECA15DEF4 Accuracy: -m0
Conclusion: CDDA 100%
Signature: 4D503F96CCB313DE7FBE2316873A838DDDEEDBBF
FILE: 08 Necrophilia.flac
Size: 30112118 Hash: 765AA749A3AF2F425A969EC1334F3176 Accuracy: -m0
Conclusion: CDDA 100%
Signature: 472C6D485755A7FB7C458A97F65A9F4B091F6816
FILE: 07 Fate.flac
Size: 36073636 Hash: AA15EAC39A0E150D915A04CC6D05EE98 Accuracy: -m0
Conclusion: CDDA 100%
Signature: C06F2E1413B813674CDDAAB5BB87C8CFC319B60C
FILE: 06 Time.flac
Size: 30755867 Hash: 755632F693899FE1B8DD728EFA97EC69 Accuracy: -m0
Conclusion: CDDA 100%
Signature: 628EC57B454E15AF1E78806ECBC545E3C71AF9C8
FILE: 05 So Many Questions.flac
Size: 32325963 Hash: A0F7201AD4EF98EA7DF5523294ED5A65 Accuracy: -m0
Conclusion: CDDA 100%
Signature: 3D07C256CF1079127C3DBE399AB41E28F54DF466
FILE: 04 Traumatize.flac
Size: 27812256 Hash: 91A621162D5B6C78812CD7BBE20041DE Accuracy: -m0
Conclusion: CDDA 100%
Signature: 9F21E2C9957236407979EA01B24F5B28B28D686A
FILE: 03 Hiv+.flac
Size: 28127140 Hash: 690C099F0A150EB66A3F1123B38A7A68 Accuracy: -m0
Conclusion: CDDA 100%
Signature: B6B95A4F5AF4A60906EB50151C1A194F50B6CAAC
FILE: 02 Sheer Horror.flac
Size: 39157659 Hash: 8311F830417F376A39457AF89F819C30 Accuracy: -m0
Conclusion: CDDA 100%
Signature: 76C7EE354595EBEE3D90EFA24C0A43545BF47DF2
FILE: 01 Critical Stage.flac
Size: 32684357 Hash: 0ACFAF659B1755636CBFD93D87988BB0 Accuracy: -m0
Conclusion: CDDA 100%
Signature: 00756DE01A07427D85967D15D9B971A26B45E3B5
REM GENRE "Dark Electro / EBM / Industrial"
REM DATE 2011
REM DISCID 970C0B0C
REM COMMENT "ExactAudioCopy v1.0b2"
PERFORMER "Suicide Commando"
TITLE "The suicide sessions CD 1 - Critical Stage"
FILE "01 Critical Stage.wav" WAVE
TRACK 01 AUDIO
TITLE "Critical Stage"
PERFORMER "Suicide Commando"
ISRC DEBZ:1100570
FLAGS DCP
INDEX 01 00:00:00
FILE "02 Sheer Horror.wav" WAVE
TRACK 02 AUDIO
TITLE "Sheer Horror"
PERFORMER "Suicide Commando"
ISRC DEBZ:1100571
FLAGS DCP
INDEX 01 00:00:00
TRACK 03 AUDIO
TITLE "Hiv+"
PERFORMER "Suicide Commando"
ISRC DEBZ:1100572
FLAGS DCP
INDEX 00 00:00:00
FILE "03 Hiv+.wav" WAVE
INDEX 01 00:00:00
TRACK 04 AUDIO
TITLE "Traumatize"
PERFORMER "Suicide Commando"
ISRC DEBZ:1100573
FLAGS DCP
INDEX 00 05:44:42
FILE "04 Traumatize.wav" WAVE
INDEX 01 00:00:00
TRACK 05 AUDIO
TITLE "So Many Questions "
PERFORMER "Suicide Commando"
ISRC DEBZ:1100574
FLAGS DCP
INDEX 00 01:38:43
FILE "05 So Many Questions.wav" WAVE
INDEX 01 00:00:00
TRACK 06 AUDIO
TITLE "Time"
PERFORMER "Suicide Commando"
ISRC DEBZ:1100575
FLAGS DCP
INDEX 00 97:56:00
FILE "06 Time.wav" WAVE
INDEX 01 00:00:00
TRACK 07 AUDIO
TITLE "Fate"
PERFORMER "Suicide Commando"
ISRC DEBZ:1100576
FLAGS DCP
INDEX 00 93:29:64
FILE "07 Fate.wav" WAVE
INDEX 01 00:00:00
TRACK 08 AUDIO
TITLE "Necrophilia"
PERFORMER "Suicide Commando"
ISRC DEBZ:1100577
FLAGS DCP
INDEX 00 89:14:26
FILE "08 Necrophilia.wav" WAVE
INDEX 01 00:00:00
TRACK 09 AUDIO
TITLE "Revenge"
PERFORMER "Suicide Commando"
ISRC DEBZ:1100578
FLAGS DCP
INDEX 00 84:38:20
FILE "09 Revenge.wav" WAVE
INDEX 01 00:00:00
TRACK 10 AUDIO
TITLE "Where Do We Go From Here"
PERFORMER "Suicide Commando"
ISRC DEBZ:1100579
FLAGS DCP
INDEX 00 70:50:60
FILE "10 Where Do We Go From Here.wav" WAVE
INDEX 01 00:00:00
TRACK 11 AUDIO
TITLE "Under God's Eye "
PERFORMER "Suicide Commando"
ISRC DEBZ:1100580
FLAGS DCP
INDEX 00 75:57:27
FILE "11 Under God's Eye.wav" WAVE
INDEX 01 00:00:00
TRACK 12 AUDIO
TITLE "The Dreamhouse"
PERFORMER "Suicide Commando"
ISRC DEBZ:1100581
FLAGS DCP
INDEX 00 71:42:57
FILE "12 The Dreamhouse.wav" WAVE
INDEX 01 00:00:00
#777Продолжительность: 00:42:11
Треклист:
01 Take My God Away (4:49)
02 Never Get Out (4:26)
03 The Ultimate Machine (4:14)
04 Save Me (Original) (4:54)
05 Sweet Jesus (4:24)
06 Industrial Underground (2:41)
07 Waiting For The Gnomes (2:45)
08 autopsy (vivisection I) (3:23)
09 A Nos Morts (Aan Onze Dooden) (4:28)
10 Commando (4:58)
11 He Cut His Own Head (1:08)
Exact Audio Copy V1.0 beta 2 from 29. April 2011
EAC extraction logfile from 5. September 2011, 12:53
Suicide Commando / The suicide sessions CD 2 - Bonus CD 1
Used drive : TEAC DV-W524GS Adapter: 0 ID: 0
Read mode : Secure
Utilize accurate stream : Yes
Defeat audio cache : Yes
Make use of C2 pointers : No
Read offset correction : 6
Overread into Lead-In and Lead-Out : No
Fill up missing offset samples with silence : Yes
Delete leading and trailing silent blocks : No
Null samples used in CRC calculations : Yes
Used interface : Native Win32 interface for Win NT & 2000
Gap handling : Appended to previous track
Used output format : User Defined Encoder
Selected bitrate : 768 kBit/s
Quality : High
Add ID3 tag : No
Command line compressor : C:\Program Files\Exact Audio Copy\FLAC\FLAC.EXE
Additional command line options : -V -8 -T "Genre=%genre%" -T "Artist=%artist%" -T "Title=%title%" -T "Album=%albumtitle%" -T "Date=%year%" -T "Tracknumber=%tracknr%" -T "Comment=%comment%" %source%
TOC of the extracted CD
Track | Start | Length | Start sector | End sector
---------------------------------------------------------
1 | 0:00.00 | 4:48.55 | 0 | 21654
2 | 4:48.55 | 4:26.07 | 21655 | 41611
3 | 9:14.62 | 4:14.15 | 41612 | 60676
4 | 13:29.02 | 4:53.47 | 60677 | 82698
5 | 18:22.49 | 4:24.26 | 82699 | 102524
6 | 22:47.00 | 2:40.53 | 102525 | 114577
7 | 25:27.53 | 2:45.30 | 114578 | 126982
8 | 28:13.08 | 3:23.37 | 126983 | 142244
9 | 31:36.45 | 4:28.02 | 142245 | 162346
10 | 36:04.47 | 4:58.34 | 162347 | 184730
11 | 41:03.06 | 1:07.69 | 184731 | 189824
Track 1
Filename C:\Users\Администратор\Desktop\The suicide sessions\The suicide sessions CD 2 - Bonus CD 1\01 Take My God Away.wav
Pre-gap length 0:00:02.00
Peak level 97.1 %
Extraction speed 5.3 X
Track quality 100.0 %
Test CRC 010B51B5
Copy CRC 010B51B5
Track not present in AccurateRip database
Copy OK
Track 2
Filename C:\Users\Администратор\Desktop\The suicide sessions\The suicide sessions CD 2 - Bonus CD 1\02 Never Get Out.wav
Peak level 95.2 %
Extraction speed 5.8 X
Track quality 100.0 %
Test CRC 888B4355
Copy CRC 888B4355
Track not present in AccurateRip database
Copy OK
Track 3
Filename C:\Users\Администратор\Desktop\The suicide sessions\The suicide sessions CD 2 - Bonus CD 1\03 The Ultimate Machine.wav
Pre-gap length 0:04:26.07
Peak level 98.0 %
Extraction speed 6.3 X
Track quality 100.0 %
Test CRC 68396D56
Copy CRC 68396D56
Track not present in AccurateRip database
Copy OK
Track 4
Filename C:\Users\Администратор\Desktop\The suicide sessions\The suicide sessions CD 2 - Bonus CD 1\04 Save Me (Original).wav
Pre-gap length 0:08:40.22
Peak level 95.9 %
Extraction speed 6.9 X
Track quality 100.0 %
Test CRC 0E73A967
Copy CRC 0E73A967
Track not present in AccurateRip database
Copy OK
Track 5
Filename C:\Users\Администратор\Desktop\The suicide sessions\The suicide sessions CD 2 - Bonus CD 1\05 Sweet Jesus.wav
Pre-gap length 0:13:33.69
Peak level 98.0 %
Extraction speed 7.4 X
Track quality 100.0 %
Test CRC 1A2EA290
Copy CRC 1A2EA290
Track not present in AccurateRip database
Copy OK
Track 6
Filename C:\Users\Администратор\Desktop\The suicide sessions\The suicide sessions CD 2 - Bonus CD 1\06 Industrial Underground.wav
Pre-gap length 0:17:58.20
Peak level 98.0 %
Extraction speed 7.0 X
Track quality 100.0 %
Test CRC 97302658
Copy CRC 97302658
Track not present in AccurateRip database
Copy OK
Track 7
Filename C:\Users\Администратор\Desktop\The suicide sessions\The suicide sessions CD 2 - Bonus CD 1\07 Waiting For The Gnomes.wav
Pre-gap length 0:20:38.73
Peak level 98.0 %
Extraction speed 7.4 X
Track quality 100.0 %
Test CRC 8FB533A3
Copy CRC 8FB533A3
Track not present in AccurateRip database
Copy OK
Track 8
Filename C:\Users\Администратор\Desktop\The suicide sessions\The suicide sessions CD 2 - Bonus CD 1\08 autopsy (vivisection I).wav
Pre-gap length 0:23:24.28
Peak level 98.0 %
Extraction speed 6.3 X
Track quality 99.9 %
Test CRC 61E3E373
Copy CRC 61E3E373
Track not present in AccurateRip database
Copy OK
Track 9
Filename C:\Users\Администратор\Desktop\The suicide sessions\The suicide sessions CD 2 - Bonus CD 1\09 A Nos Morts (Aan Onze Dooden).wav
Pre-gap length 0:26:47.65
Peak level 76.8 %
Extraction speed 8.5 X
Track quality 100.0 %
Test CRC 2127C5F2
Copy CRC 2127C5F2
Track not present in AccurateRip database
Copy OK
Track 10
Filename C:\Users\Администратор\Desktop\The suicide sessions\The suicide sessions CD 2 - Bonus CD 1\10 Commando.wav
Pre-gap length 0:31:15.67
Peak level 95.6 %
Extraction speed 7.1 X
Track quality 99.9 %
Test CRC C97E36F5
Copy CRC C97E36F5
Track not present in AccurateRip database
Copy OK
Track 11
Filename C:\Users\Администратор\Desktop\The suicide sessions\The suicide sessions CD 2 - Bonus CD 1\11 He Cut His Own Head.wav
Pre-gap length 0:36:14.26
Peak level 90.5 %
Extraction speed 6.6 X
Track quality 100.0 %
Test CRC 4F3C8631
Copy CRC 4F3C8631
Track not present in AccurateRip database
Copy OK
None of the tracks are present in the AccurateRip database
No errors occurred
End of status report
==== Log checksum 5A118732A23F645142E7EA4B99590FCCC003F08AB207F0EFF866F2B6288A68EE ====
-----------------------
DON'T MODIFY THIS FILE
-----------------------
PERFORMER: auCDtect Task Manager, ver. 1.5.1RC3 build 1.5.1.4
Copyright (c) 2008-2010 y-soft. All rights reserved
http://y-soft.org
ANALYZER: auCDtect: CD records authenticity detector, version 0.8.2
Copyright (c) 2004 Oleg Berngardt. All rights reserved.
Copyright (c) 2004 Alexander Djourik. All rights reserved.
FILE: 11 He Cut His Own Head.flac
Size: 8815147 Hash: 2522FC3ADB7BB022E758D74CCE171647 Accuracy: -m0
Conclusion: CDDA 42%
Signature: 4CA16B29F8433D0083631649D381B46B745B2AAA
FILE: 10 Commando.flac
Size: 35228451 Hash: 80D1FD931B38F3267B2A390AF99FE78C Accuracy: -m0
Conclusion: CDDA 100%
Signature: 84E67C88275782C26A2E1E5E518F4716E1072346
FILE: 09 A Nos Morts (Aan Onze Dooden).flac
Size: 30960707 Hash: 33A29DF1B54C901DAAC3A0BB52240FC7 Accuracy: -m0
Conclusion: MPEG 89%
Signature: 0153F617674A64204B4B5F2210FA565EFAC55F97
FILE: 08 autopsy (vivisection I).flac
Size: 21855743 Hash: 8E422C05655ACC2619E737113A2D3F83 Accuracy: -m0
Conclusion: CDDA 58%
Signature: E1A94B7F3336A6CDDC224D76934A92AC34AF32EA
FILE: 07 Waiting For The Gnomes.flac
Size: 15742710 Hash: 0BF4541806AA7BA87E30EF8AF8FBF95F Accuracy: -m0
Conclusion: MPEG 92%
Signature: CFE810C24D1D081DA72BC276D223E63F0C8180BF
FILE: 06 Industrial Underground.flac
Size: 15604117 Hash: DEABC36A0BC27BE1D990ECDCD3EF3A0F Accuracy: -m0
Conclusion: CDDA 100%
Signature: A4594D118B3A9A915BF756CDFA187F8A40B7404A
FILE: 05 Sweet Jesus.flac
Size: 34324458 Hash: 4106E74F6E69FCA66568A0B5AE82119F Accuracy: -m0
Conclusion: CDDA 100%
Signature: BA1A6DCEC3B216587B391BAD0C760D9FB5A0D6F0
FILE: 04 Save Me (Original).flac
Size: 34179428 Hash: 9920475B40BEE4DCBC6341FA5DE084B7 Accuracy: -m0
Conclusion: CDDA 100%
Signature: 020700910622249BB55FD4D5D038D5360440D8FA
FILE: 03 The Ultimate Machine.flac
Size: 32027286 Hash: F8DD6273819AD18D2493F0FDC083E2B8 Accuracy: -m0
Conclusion: CDDA 99%
Signature: 08D750BD283548E7D63876E59D6209DB25410B0D
FILE: 02 Never Get Out.flac
Size: 34829372 Hash: 33F44A26FF98A378439C4F885A40822B Accuracy: -m0
Conclusion: CDDA 100%
Signature: 1509443A3389329A5DC2FF1224F82B60A411539A
FILE: 01 Take My God Away.flac
Size: 33923235 Hash: 163C32B93A91486E519CD9F51F5C20DD Accuracy: -m0
Conclusion: CDDA 100%
Signature: 58147634169589C2F70DD600F82CFDA9B295B703
REM GENRE "Dark Electro / EBM / Industrial"
REM DATE 2011
REM DISCID A009E30B
REM COMMENT "ExactAudioCopy v1.0b2"
PERFORMER "Suicide Commando"
TITLE "The suicide sessions CD 2 - Bonus CD 1"
FILE "01 Take My God Away.wav" WAVE
TRACK 01 AUDIO
TITLE "Take My God Away"
PERFORMER "Suicide Commando"
ISRC DEBZ:1100582
FLAGS DCP
INDEX 01 00:00:00
FILE "02 Never Get Out.wav" WAVE
TRACK 02 AUDIO
TITLE "Never Get Out"
PERFORMER "Suicide Commando"
ISRC DEBZ:1100583
FLAGS DCP
INDEX 01 00:00:00
TRACK 03 AUDIO
TITLE "The Ultimate Machine"
PERFORMER "Suicide Commando"
ISRC DEBZ:1100584
FLAGS DCP
INDEX 00 00:00:00
FILE "03 The Ultimate Machine.wav" WAVE
INDEX 01 00:00:00
TRACK 04 AUDIO
TITLE "Save Me (Original)"
PERFORMER "Suicide Commando"
ISRC DEBZ:1100585
FLAGS DCP
INDEX 00 06:34:68
FILE "04 Save Me (Original).wav" WAVE
INDEX 01 00:00:00
TRACK 05 AUDIO
TITLE "Sweet Jesus"
PERFORMER "Suicide Commando"
ISRC DEBZ:1100586
FLAGS DCP
INDEX 00 02:20:53
FILE "05 Sweet Jesus.wav" WAVE
INDEX 01 00:00:00
TRACK 06 AUDIO
TITLE "Industrial Underground"
PERFORMER "Suicide Commando"
ISRC DEBZ:1100587
FLAGS DCP
INDEX 00 97:27:06
FILE "06 Industrial Underground.wav" WAVE
INDEX 01 00:00:00
TRACK 07 AUDIO
TITLE "Waiting For The Gnomes"
PERFORMER "Suicide Commando"
ISRC DEBZ:1100588
FLAGS DCP
INDEX 00 93:02:55
FILE "07 Waiting For The Gnomes.wav" WAVE
INDEX 01 00:00:00
TRACK 08 AUDIO
TITLE "autopsy (vivisection I)"
PERFORMER "Suicide Commando"
ISRC DEBZ:1100589
FLAGS DCP
INDEX 00 80:22:02
FILE "08 autopsy (vivisection I).wav" WAVE
INDEX 01 00:00:00
TRACK 09 AUDIO
TITLE "A Nos Morts (Aan Onze Dooden) "
PERFORMER "Suicide Commando"
ISRC DEBZ:1100590
FLAGS DCP
INDEX 00 87:36:47
FILE "09 A Nos Morts (Aan Onze Dooden).wav" WAVE
INDEX 01 00:00:00
TRACK 10 AUDIO
TITLE "Commando"
PERFORMER "Suicide Commando"
ISRC DEBZ:1100591
FLAGS DCP
INDEX 00 84:13:10
FILE "10 Commando.wav" WAVE
INDEX 01 00:00:00
TRACK 11 AUDIO
TITLE "He Cut His Own Head"
PERFORMER "Suicide Commando"
ISRC DEBZ:1100592
FLAGS DCP
INDEX 00 79:45:08
FILE "11 He Cut His Own Head.wav" WAVE
INDEX 01 00:00:00
#777Продолжительность: 00:50:26
Треклист:
01 Murder (5:48)
02 The Exit (5:04)
03 Save Me (Remix) (5:44)
04 The Human Disgrace (2:36)
05 intercourse (reloaded II) (3:59)
06 Dying Inside (5:22)
07 mortal combat (final act I) (4:00)
08 The End Of Your Life (3:47)
09 Actions Of The Mind (5:43)
10 T.V.-Obsession (4:45)
11 See You In Hell ! (3:39)
Exact Audio Copy V1.0 beta 2 from 29. April 2011
EAC extraction logfile from 5. September 2011, 14:22
Suicide Commando / The suicide sessions CD 3 - Stored Images
Used drive : TEAC DV-W524GS Adapter: 0 ID: 0
Read mode : Secure
Utilize accurate stream : Yes
Defeat audio cache : Yes
Make use of C2 pointers : No
Read offset correction : 6
Overread into Lead-In and Lead-Out : No
Fill up missing offset samples with silence : Yes
Delete leading and trailing silent blocks : No
Null samples used in CRC calculations : Yes
Used interface : Native Win32 interface for Win NT & 2000
Gap handling : Appended to previous track
Used output format : User Defined Encoder
Selected bitrate : 768 kBit/s
Quality : High
Add ID3 tag : No
Command line compressor : C:\Program Files\Exact Audio Copy\FLAC\FLAC.EXE
Additional command line options : -V -8 -T "Genre=%genre%" -T "Artist=%artist%" -T "Title=%title%" -T "Album=%albumtitle%" -T "Date=%year%" -T "Tracknumber=%tracknr%" -T "Comment=%comment%" %source%
TOC of the extracted CD
Track | Start | Length | Start sector | End sector
---------------------------------------------------------
1 | 0:00.00 | 5:47.39 | 0 | 26063
2 | 5:47.39 | 5:03.61 | 26064 | 48849
3 | 10:51.25 | 5:43.64 | 48850 | 74638
4 | 16:35.14 | 2:36.22 | 74639 | 86360
5 | 19:11.36 | 3:58.59 | 86361 | 104269
6 | 23:10.20 | 5:21.49 | 104270 | 128393
7 | 28:31.69 | 3:59.71 | 128394 | 146389
8 | 32:31.65 | 3:46.46 | 146390 | 163385
9 | 36:18.36 | 5:43.03 | 163386 | 189113
10 | 42:01.39 | 4:45.07 | 189114 | 210495
11 | 46:46.46 | 3:39.29 | 210496 | 226949
Track 1
Filename C:\Users\Администратор\Desktop\The suicide sessions\The suicide sessions CD 3 - Stored Images\01 Murder.wav
Pre-gap length 0:00:02.00
Peak level 85.9 %
Extraction speed 5.5 X
Track quality 100.0 %
Test CRC 34DDEB37
Copy CRC 34DDEB37
Track not present in AccurateRip database
Copy OK
Track 2
Filename C:\Users\Администратор\Desktop\The suicide sessions\The suicide sessions CD 3 - Stored Images\02 The Exit.wav
Peak level 97.9 %
Extraction speed 6.1 X
Track quality 100.0 %
Test CRC B7E89F5F
Copy CRC B7E89F5F
Track not present in AccurateRip database
Copy OK
Track 3
Filename C:\Users\Администратор\Desktop\The suicide sessions\The suicide sessions CD 3 - Stored Images\03 Save Me (Remix).wav
Pre-gap length 0:05:03.61
Peak level 97.9 %
Extraction speed 6.8 X
Track quality 100.0 %
Test CRC 57A1CF51
Copy CRC 57A1CF51
Track not present in AccurateRip database
Copy OK
Track 4
Filename C:\Users\Администратор\Desktop\The suicide sessions\The suicide sessions CD 3 - Stored Images\04 The Human Disgrace.wav
Pre-gap length 0:10:47.50
Peak level 97.9 %
Extraction speed 6.5 X
Track quality 100.0 %
Test CRC B63626E7
Copy CRC B63626E7
Track not present in AccurateRip database
Copy OK
Track 5
Filename C:\Users\Администратор\Desktop\The suicide sessions\The suicide sessions CD 3 - Stored Images\05 intercourse (reloaded II).wav
Pre-gap length 0:13:23.72
Peak level 97.9 %
Extraction speed 7.3 X
Track quality 100.0 %
Test CRC D81669F3
Copy CRC D81669F3
Track not present in AccurateRip database
Copy OK
Track 6
Filename C:\Users\Администратор\Desktop\The suicide sessions\The suicide sessions CD 3 - Stored Images\06 Dying Inside.wav
Pre-gap length 0:17:22.56
Peak level 97.9 %
Extraction speed 8.0 X
Track quality 100.0 %
Test CRC EE0134A3
Copy CRC EE0134A3
Track not present in AccurateRip database
Copy OK
Track 7
Filename C:\Users\Администратор\Desktop\The suicide sessions\The suicide sessions CD 3 - Stored Images\07 mortal combat (final act I).wav
Pre-gap length 0:22:44.30
Peak level 97.9 %
Extraction speed 8.1 X
Track quality 100.0 %
Test CRC 24E512DF
Copy CRC 24E512DF
Track not present in AccurateRip database
Copy OK
Track 8
Filename C:\Users\Администратор\Desktop\The suicide sessions\The suicide sessions CD 3 - Stored Images\08 The End Of Your Life.wav
Pre-gap length 0:26:44.26
Peak level 97.9 %
Extraction speed 8.4 X
Track quality 100.0 %
Test CRC EE2E26C7
Copy CRC EE2E26C7
Track not present in AccurateRip database
Copy OK
Track 9
Filename C:\Users\Администратор\Desktop\The suicide sessions\The suicide sessions CD 3 - Stored Images\09 Actions Of The Mind.wav
Pre-gap length 0:30:30.72
Peak level 97.9 %
Extraction speed 9.2 X
Track quality 100.0 %
Test CRC 102B92DC
Copy CRC 102B92DC
Track not present in AccurateRip database
Copy OK
Track 10
Filename C:\Users\Администратор\Desktop\The suicide sessions\The suicide sessions CD 3 - Stored Images\10 T.V.-Obsession.wav
Pre-gap length 0:36:14.00
Peak level 97.9 %
Extraction speed 9.4 X
Track quality 100.0 %
Test CRC 10B5E877
Copy CRC 10B5E877
Track not present in AccurateRip database
Copy OK
Track 11
Filename C:\Users\Администратор\Desktop\The suicide sessions\The suicide sessions CD 3 - Stored Images\11 See You In Hell !.wav
Pre-gap length 0:40:59.07
Peak level 97.9 %
Extraction speed 9.4 X
Track quality 100.0 %
Test CRC BEC39B42
Copy CRC BEC39B42
Track not present in AccurateRip database
Copy OK
None of the tracks are present in the AccurateRip database
No errors occurred
End of status report
==== Log checksum AA08A1D3BD525BD95607426598179E2CF561A87F0639C3D89E79ECFC36BE4D49 ====
-----------------------
DON'T MODIFY THIS FILE
-----------------------
PERFORMER: auCDtect Task Manager, ver. 1.5.1RC3 build 1.5.1.4
Copyright (c) 2008-2010 y-soft. All rights reserved
http://y-soft.org
ANALYZER: auCDtect: CD records authenticity detector, version 0.8.2
Copyright (c) 2004 Oleg Berngardt. All rights reserved.
Copyright (c) 2004 Alexander Djourik. All rights reserved.
FILE: 11 See You In Hell !.flac
Size: 27353081 Hash: BA55242DE76F331E386C79C907437EA7 Accuracy: -m0
Conclusion: CDDA 100%
Signature: C4082A0748117FEA96C69B4E25EFFEF6D22F946E
FILE: 10 T.V.-Obsession.flac
Size: 36193996 Hash: AA529A8C367C8CF45379FEEDAE8520FB Accuracy: -m0
Conclusion: CDDA 100%
Signature: A26C3CE92B2ECCAE55AC249B8FF5646BCF55EBEF
FILE: 09 Actions Of The Mind.flac
Size: 44474486 Hash: FB050D70FBC6B85AB8D30CFF4C651071 Accuracy: -m0
Conclusion: CDDA 100%
Signature: 39F54C05559E7551E4C151F524153E9653C4BB65
FILE: 08 The End Of Your Life.flac
Size: 28525695 Hash: DEF8F1CF0B570B640354FAA3DA1A482B Accuracy: -m0
Conclusion: CDDA 100%
Signature: 54ADB4D60595A139CFD1E1A2C78F40CD5231D5CB
FILE: 07 mortal combat (final act I).flac
Size: 28999775 Hash: 3FBE147BEC04B4D60E8C9254477C7F48 Accuracy: -m0
Conclusion: CDDA 100%
Signature: 5E51796080BBA8C94D8B1CE0E4D2DDD9A62FD996
FILE: 06 Dying Inside.flac
Size: 40561534 Hash: F7609AC23A6AB843E5D9F5E76F60527C Accuracy: -m0
Conclusion: CDDA 100%
Signature: BC3E0B7D8A311099264B59967F2DCC8B76D472A9
FILE: 05 intercourse (reloaded II).flac
Size: 27731373 Hash: 03CF7787D42100D3606E3754E9EF74D6 Accuracy: -m0
Conclusion: CDDA 100%
Signature: A6C11DC74134BFF66E2B51B849BC0B81A89672E8
FILE: 04 The Human Disgrace.flac
Size: 20860122 Hash: DBECEF3187346AC6591C62B3CF569AA5 Accuracy: -m0
Conclusion: CDDA 100%
Signature: 4B3DEAF2C4CD883A03AC9AB7E2DA5741CE97DE3A
FILE: 03 Save Me (Remix).flac
Size: 44215783 Hash: 63509C82E9AF53AB7765264B3C5073EF Accuracy: -m0
Conclusion: CDDA 100%
Signature: 0DE9D443F6566EA7DA391334A29B4887B3CCFC81
FILE: 02 The Exit.flac
Size: 36565004 Hash: E9947B65920A3E9AD959B90D0A8C1603 Accuracy: -m0
Conclusion: CDDA 100%
Signature: 3640C3CD117B8F973E0F566F0A19D2B24F94685D
FILE: 01 Murder.flac
Size: 48140847 Hash: D3CC4BD103ACE4236EAE6886FDCD1E70 Accuracy: -m0
Conclusion: CDDA 100%
Signature: D7CEB2037BCA0EA0400B7260060D44CC6A23ED83
REM GENRE "Dark Electro / EBM / Industrial"
REM DATE 2011
REM DISCID 990BD20B
REM COMMENT "ExactAudioCopy v1.0b2"
PERFORMER "Suicide Commando"
TITLE "The suicide sessions CD 3 - Stored Images"
FILE "01 Murder.wav" WAVE
TRACK 01 AUDIO
TITLE "Murder"
PERFORMER "Suicide Commando"
ISRC DEBZ:1100593
FLAGS DCP
INDEX 01 00:00:00
FILE "02 The Exit.wav" WAVE
TRACK 02 AUDIO
TITLE "The Exit"
PERFORMER "Suicide Commando"
ISRC DEBZ:1100594
FLAGS DCP
INDEX 01 00:00:00
TRACK 03 AUDIO
TITLE "Save Me (Remix)"
PERFORMER "Suicide Commando"
ISRC DEBZ:1100595
FLAGS DCP
INDEX 00 00:00:00
FILE "03 Save Me (Remix).wav" WAVE
INDEX 01 00:00:00
TRACK 04 AUDIO
TITLE "The Human Disgrace"
PERFORMER "Suicide Commando"
ISRC DEBZ:1100596
FLAGS DCP
INDEX 00 05:57:14
FILE "04 The Human Disgrace.wav" WAVE
INDEX 01 00:00:00
TRACK 05 AUDIO
TITLE "intercourse (reloaded II)"
PERFORMER "Suicide Commando"
ISRC DEBZ:1100597
FLAGS DCP
INDEX 00 90:13:25
FILE "05 intercourse (reloaded II).wav" WAVE
INDEX 01 00:00:00
TRACK 06 AUDIO
TITLE "Dying Inside"
PERFORMER "Suicide Commando"
ISRC DEBZ:1100598
FLAGS DCP
INDEX 00 97:37:03
FILE "06 Dying Inside.wav" WAVE
INDEX 01 00:00:00
TRACK 07 AUDIO
TITLE "mortal combat (final act I)"
PERFORMER "Suicide Commando"
ISRC DEBZ:1100599
FLAGS DCP
INDEX 00 93:38:19
FILE "07 mortal combat (final act I).wav" WAVE
INDEX 01 00:00:00
TRACK 08 AUDIO
TITLE "The End Of Your Life"
PERFORMER "Suicide Commando"
ISRC DEBZ:1100600
FLAGS DCP
INDEX 00 88:16:45
FILE "08 The End Of Your Life.wav" WAVE
INDEX 01 00:00:00
TRACK 09 AUDIO
TITLE "Actions Of The Mind"
PERFORMER "Suicide Commando"
ISRC DEBZ:1100601
FLAGS DCP
INDEX 00 84:16:49
FILE "09 Actions Of The Mind.wav" WAVE
INDEX 01 00:00:00
TRACK 10 AUDIO
TITLE "T.V.-Obsession"
PERFORMER "Suicide Commando"
ISRC DEBZ:1100602
FLAGS DCP
INDEX 00 70:30:03
FILE "10 T.V.-Obsession.wav" WAVE
INDEX 01 00:00:00
TRACK 11 AUDIO
TITLE "See You In Hell !"
PERFORMER "Suicide Commando"
ISRC DEBZ:1100603
FLAGS DCP
INDEX 00 74:46:00
FILE "11 See You In Hell !.wav" WAVE
INDEX 01 00:00:00
#777Продолжительность: 00:59:04
Тип рипа:
Треклист:
01 Fall Away (6:15)
02 See You In Hell (Part 1 & 2 - Extended Mix) (8:04)
03 Head Down (4:33)
04 Delusion (5:09)
05 The Face Of God (6:07)
06 Traumatize (Clubmix) (5:04)
07 see you in hell (remake by Monolith) (3:40)
08 Burn Baby Burn (3:59)
09 Last Decision (4:58)
10 Murder (Extended) (6:54)
11 see you in hell (live in Bielefeld) (4:22)
Exact Audio Copy V1.0 beta 2 from 29. April 2011
EAC extraction logfile from 5. September 2011, 14:05
Suicide Commando / The suicide sessions CD 4 - Bonus CD 2
Used drive : TEAC DV-W524GS Adapter: 0 ID: 0
Read mode : Secure
Utilize accurate stream : Yes
Defeat audio cache : Yes
Make use of C2 pointers : No
Read offset correction : 6
Overread into Lead-In and Lead-Out : No
Fill up missing offset samples with silence : Yes
Delete leading and trailing silent blocks : No
Null samples used in CRC calculations : Yes
Used interface : Native Win32 interface for Win NT & 2000
Gap handling : Appended to previous track
Used output format : User Defined Encoder
Selected bitrate : 768 kBit/s
Quality : High
Add ID3 tag : No
Command line compressor : C:\Program Files\Exact Audio Copy\FLAC\FLAC.EXE
Additional command line options : -V -8 -T "Genre=%genre%" -T "Artist=%artist%" -T "Title=%title%" -T "Album=%albumtitle%" -T "Date=%year%" -T "Tracknumber=%tracknr%" -T "Comment=%comment%" %source%
TOC of the extracted CD
Track | Start | Length | Start sector | End sector
---------------------------------------------------------
1 | 0:00.00 | 6:14.58 | 0 | 28107
2 | 6:14.58 | 8:03.71 | 28108 | 64403
3 | 14:18.54 | 4:33.01 | 64404 | 84879
4 | 18:51.55 | 5:09.19 | 84880 | 108073
5 | 24:00.74 | 6:06.41 | 108074 | 135564
6 | 30:07.40 | 5:04.11 | 135565 | 158375
7 | 35:11.51 | 3:40.19 | 158376 | 174894
8 | 38:51.70 | 3:58.50 | 174895 | 192794
9 | 42:50.45 | 4:58.10 | 192795 | 215154
10 | 47:48.55 | 6:53.52 | 215155 | 246181
11 | 54:42.32 | 4:21.56 | 246182 | 265812
Track 1
Filename C:\Users\Администратор\Desktop\The suicide sessions\The suicide sessions CD 4 - Bonus CD 2\01 Fall Away.wav
Pre-gap length 0:00:02.00
Peak level 98.0 %
Extraction speed 2.0 X
Track quality 100.0 %
Test CRC 59836027
Copy CRC 59836027
Track not present in AccurateRip database
Copy OK
Track 2
Filename C:\Users\Администратор\Desktop\The suicide sessions\The suicide sessions CD 4 - Bonus CD 2\02 See You In Hell (Part 1 & 2 - Extended Mix).wav
Peak level 98.0 %
Extraction speed 2.4 X
Track quality 100.0 %
Test CRC 99FF405A
Copy CRC 99FF405A
Track not present in AccurateRip database
Copy OK
Track 3
Filename C:\Users\Администратор\Desktop\The suicide sessions\The suicide sessions CD 4 - Bonus CD 2\03 Head Down.wav
Pre-gap length 0:08:03.71
Peak level 98.0 %
Extraction speed 2.5 X
Track quality 100.0 %
Test CRC EB391E05
Copy CRC EB391E05
Track not present in AccurateRip database
Copy OK
Track 4
Filename C:\Users\Администратор\Desktop\The suicide sessions\The suicide sessions CD 4 - Bonus CD 2\04 Delusion.wav
Pre-gap length 0:12:36.72
Peak level 97.7 %
Extraction speed 2.8 X
Track quality 100.0 %
Test CRC 0FC8E1ED
Copy CRC 0FC8E1ED
Track not present in AccurateRip database
Copy OK
Track 5
Filename C:\Users\Администратор\Desktop\The suicide sessions\The suicide sessions CD 4 - Bonus CD 2\05 The Face Of God.wav
Pre-gap length 0:17:46.16
Peak level 97.2 %
Extraction speed 3.0 X
Track quality 100.0 %
Test CRC EA6C9BCA
Copy CRC EA6C9BCA
Track not present in AccurateRip database
Copy OK
Track 6
Filename C:\Users\Администратор\Desktop\The suicide sessions\The suicide sessions CD 4 - Bonus CD 2\06 Traumatize (Clubmix).wav
Pre-gap length 0:23:52.57
Peak level 98.0 %
Extraction speed 3.1 X
Track quality 100.0 %
Test CRC BDA9D90F
Copy CRC BDA9D90F
Track not present in AccurateRip database
Copy OK
Track 7
Filename C:\Users\Администратор\Desktop\The suicide sessions\The suicide sessions CD 4 - Bonus CD 2\07 see you in hell (remake by Monolith).wav
Pre-gap length 0:28:56.68
Peak level 98.0 %
Extraction speed 3.1 X
Track quality 100.0 %
Test CRC 9651EB0A
Copy CRC 9651EB0A
Track not present in AccurateRip database
Copy OK
Track 8
Filename C:\Users\Администратор\Desktop\The suicide sessions\The suicide sessions CD 4 - Bonus CD 2\08 Burn Baby Burn.wav
Pre-gap length 0:32:37.12
Peak level 98.0 %
Extraction speed 0.2 X
Track quality 100.0 %
Test CRC 26F95164
Copy CRC 26F95164
Track not present in AccurateRip database
Copy OK
Track 9
Filename C:\Users\Администратор\Desktop\The suicide sessions\The suicide sessions CD 4 - Bonus CD 2\09 Last Decision.wav
Pre-gap length 0:36:35.62
Peak level 98.0 %
Extraction speed 2.7 X
Track quality 99.9 %
Test CRC A2B0AF0E
Copy CRC A2B0AF0E
Track not present in AccurateRip database
Copy OK
Track 10
Filename C:\Users\Администратор\Desktop\The suicide sessions\The suicide sessions CD 4 - Bonus CD 2\10 Murder (Extended).wav
Pre-gap length 0:41:33.72
Peak level 98.0 %
Extraction speed 3.8 X
Track quality 100.0 %
Test CRC 026D5868
Copy CRC 026D5868
Track not present in AccurateRip database
Copy OK
Track 11
Filename C:\Users\Администратор\Desktop\The suicide sessions\The suicide sessions CD 4 - Bonus CD 2\11 see you in hell (live in Bielefeld).wav
Pre-gap length 0:48:27.49
Peak level 98.0 %
Extraction speed 3.8 X
Track quality 100.0 %
Test CRC 5AC6C559
Copy CRC 5AC6C559
Track not present in AccurateRip database
Copy OK
None of the tracks are present in the AccurateRip database
No errors occurred
End of status report
==== Log checksum 70806C08D98CD86BB5DE579EBA264E035FB68B2C90ED8C69777F74FFC20DD3D5 ====
-----------------------
DON'T MODIFY THIS FILE
-----------------------
PERFORMER: auCDtect Task Manager, ver. 1.5.1RC3 build 1.5.1.4
Copyright (c) 2008-2010 y-soft. All rights reserved
http://y-soft.org
ANALYZER: auCDtect: CD records authenticity detector, version 0.8.2
Copyright (c) 2004 Oleg Berngardt. All rights reserved.
Copyright (c) 2004 Alexander Djourik. All rights reserved.
FILE: 11 see you in hell (live in Bielefeld).flac
Size: 33535119 Hash: 6DBC75C9BF5E2051040FC8598A4AAC03 Accuracy: -m0
Conclusion: CDDA 100%
Signature: A7242560FF9E3F3CDF7B7884B00E46630D60D89A
FILE: 10 Murder (Extended).flac
Size: 49947657 Hash: F9B502B807CA263A487838DF7FE9F1DA Accuracy: -m0
Conclusion: CDDA 100%
Signature: 293D491A50D6E066DA3E11EFB8D6BC4BBC784A0A
FILE: 09 Last Decision.flac
Size: 35711211 Hash: 7DF80900F5022AAED5185015C4EC1BDA Accuracy: -m0
Conclusion: CDDA 100%
Signature: 4F43276482EBCABCFB7D233F2FA8113A56B71016
FILE: 08 Burn Baby Burn.flac
Size: 27036471 Hash: 898D3A3B787DA1169CD3DEDC31A0B0C8 Accuracy: -m0
Conclusion: CDDA 100%
Signature: 27F74EDBD960D7CB6280C970E3AE9C71F85A1313
FILE: 07 see you in hell (remake by Monolith).flac
Size: 29957940 Hash: 41FA5247D6D6B2F7BDF7227F506CCEF6 Accuracy: -m0
Conclusion: CDDA 100%
Signature: 5B401B037550FFB23C25F1EC70C4DCEE69E8A180
FILE: 06 Traumatize (Clubmix).flac
Size: 32745123 Hash: 89A0407FFF7ACFD48B42F2F57F04E26A Accuracy: -m0
Conclusion: CDDA 99%
Signature: BC5E0A98FB52332C6072CC1F9BC5DAC81959A24E
FILE: 05 The Face Of God.flac
Size: 39548392 Hash: D68B1B916EC4FF99D718FD2E03504164 Accuracy: -m0
Conclusion: CDDA 100%
Signature: 04BE068A6B97F16F34D48C1D733B0920FB2B2DB1
FILE: 04 Delusion.flac
Size: 37468334 Hash: 1C80254C757D4208C717300218DAEA5B Accuracy: -m0
Conclusion: CDDA 100%
Signature: 9B6C72C615B41F23927B3DEC22608FD351CF6BE0
FILE: 03 Head Down.flac
Size: 28516653 Hash: 81E762C72D7CE5E401338920B0721EEE Accuracy: -m0
Conclusion: CDDA 100%
Signature: AE48865438391EBF9ACF5C8916ED717684FFB399
FILE: 02 See You In Hell (Part 1 & 2 - Extended Mix).flac
Size: 51831387 Hash: 3E8F1523CEDFA07EEAD2231FF410171D Accuracy: -m0
Conclusion: CDDA 100%
Signature: 900D0A397DA17497B653E0BA52E52944A8EA01D9
FILE: 01 Fall Away.flac
Size: 44640055 Hash: 9797074C4AD810F3F4DD620744CBC02D Accuracy: -m0
Conclusion: CDDA 100%
Signature: EB2F9472CD2BB8E924A7C0AAC81F4383CB18EF61
REM GENRE "Dark Electro / EBM / Industrial"
REM DATE 2011
REM DISCID 890DD80B
REM COMMENT "ExactAudioCopy v1.0b2"
PERFORMER "Suicide Commando"
TITLE "The suicide sessions CD 4 - Bonus CD 2"
FILE "01 Fall Away.wav" WAVE
TRACK 01 AUDIO
TITLE "Fall Away"
PERFORMER "Suicide Commando"
ISRC DEBZ:1100604
FLAGS DCP
INDEX 01 00:00:00
FILE "02 See You In Hell (Part 1 & 2 - Extended Mix).wav" WAVE
TRACK 02 AUDIO
TITLE "See You In Hell (Part 1 & 2 - Extended Mix)"
PERFORMER "Suicide Commando"
ISRC DEBZ:1100605
FLAGS DCP
INDEX 01 00:00:00
TRACK 03 AUDIO
TITLE "Head Down"
PERFORMER "Suicide Commando"
ISRC DEBZ:1100606
FLAGS DCP
INDEX 00 00:00:00
FILE "03 Head Down.wav" WAVE
INDEX 01 00:00:00
TRACK 04 AUDIO
TITLE "Delusion"
PERFORMER "Suicide Commando"
ISRC DEBZ:1100607
FLAGS DCP
INDEX 00 02:57:04
FILE "04 Delusion.wav" WAVE
INDEX 01 00:00:00
TRACK 05 AUDIO
TITLE "The Face Of God"
PERFORMER "Suicide Commando"
ISRC DEBZ:1100608
FLAGS DCP
INDEX 00 98:24:03
FILE "05 The Face Of God.wav" WAVE
INDEX 01 00:00:00
TRACK 06 AUDIO
TITLE "Traumatize (Clubmix)"
PERFORMER "Suicide Commando"
ISRC DEBZ:1100609
FLAGS DCP
INDEX 00 93:14:59
FILE "06 Traumatize (Clubmix).wav" WAVE
INDEX 01 00:00:00
TRACK 07 AUDIO
TITLE "see you in hell (remake by Monolith) "
PERFORMER "Suicide Commando"
ISRC DEBZ:1100610
FLAGS DCP
INDEX 00 87:08:18
FILE "07 see you in hell (remake by Monolith).wav" WAVE
INDEX 01 00:00:00
TRACK 08 AUDIO
TITLE "Burn Baby Burn"
PERFORMER "Suicide Commando"
ISRC DEBZ:1100611
FLAGS DCP
INDEX 00 82:04:07
FILE "08 Burn Baby Burn.wav" WAVE
INDEX 01 00:00:00
TRACK 09 AUDIO
TITLE "Last Decision"
PERFORMER "Suicide Commando"
ISRC DEBZ:1100612
FLAGS DCP
INDEX 00 78:23:63
FILE "09 Last Decision.wav" WAVE
INDEX 01 00:00:00
TRACK 10 AUDIO
TITLE "Murder (Extended) "
PERFORMER "Suicide Commando"
ISRC DEBZ:1100613
FLAGS DCP
INDEX 00 74:25:13
FILE "10 Murder (Extended).wav" WAVE
INDEX 01 00:00:00
TRACK 11 AUDIO
TITLE "see you in hell (live in Bielefeld)"
PERFORMER "Suicide Commando"
ISRC DEBZ:1100614
FLAGS DCP
INDEX 00 69:27:03
FILE "11 see you in hell (live in Bielefeld).wav" WAVE
INDEX 01 00:00:00
#777Продолжительность: 00:54:24
Треклист:
01 Acid Bath (5:56)
02 Better Off Dead (6:22)
03 Putrefaction Process (5:15)
04 Desire (4:43)
05 Somnambulist (4:09)
06 Come To Me (V2.0) (5:24)
07 the mirror (reMASTERed) (3:07)
08 Pesticide (3:47)
09 Massacre (5:14)
10 Ignorance (4:22)
11 Euthanasia (6:03)
Exact Audio Copy V1.0 beta 2 from 29. April 2011
EAC extraction logfile from 5. September 2011, 14:41
Suicide Commando / The suicide sessions CD 5 - Construct - Destruct
Used drive : TEAC DV-W524GS Adapter: 0 ID: 0
Read mode : Secure
Utilize accurate stream : Yes
Defeat audio cache : Yes
Make use of C2 pointers : No
Read offset correction : 6
Overread into Lead-In and Lead-Out : No
Fill up missing offset samples with silence : Yes
Delete leading and trailing silent blocks : No
Null samples used in CRC calculations : Yes
Used interface : Native Win32 interface for Win NT & 2000
Gap handling : Appended to previous track
Used output format : User Defined Encoder
Selected bitrate : 768 kBit/s
Quality : High
Add ID3 tag : No
Command line compressor : C:\Program Files\Exact Audio Copy\FLAC\FLAC.EXE
Additional command line options : -V -8 -T "Genre=%genre%" -T "Artist=%artist%" -T "Title=%title%" -T "Album=%albumtitle%" -T "Date=%year%" -T "Tracknumber=%tracknr%" -T "Comment=%comment%" %source%
TOC of the extracted CD
Track | Start | Length | Start sector | End sector
---------------------------------------------------------
1 | 0:00.00 | 5:55.57 | 0 | 26681
2 | 5:55.57 | 6:22.28 | 26682 | 55359
3 | 12:18.10 | 5:15.03 | 55360 | 78987
4 | 17:33.13 | 4:43.35 | 78988 | 100247
5 | 22:16.48 | 4:09.21 | 100248 | 118943
6 | 26:25.69 | 5:24.27 | 118944 | 143270
7 | 31:50.21 | 3:07.28 | 143271 | 157323
8 | 34:57.49 | 3:47.19 | 157324 | 174367
9 | 38:44.68 | 5:14.02 | 174368 | 197919
10 | 43:58.70 | 4:21.74 | 197920 | 217568
11 | 48:20.69 | 6:03.06 | 217569 | 244799
Track 1
Filename C:\Users\Администратор\Desktop\The suicide sessions\The suicide sessions CD 5 - Construct - Destruct\01 Acid Bath.wav
Pre-gap length 0:00:02.00
Peak level 98.0 %
Extraction speed 5.5 X
Track quality 100.0 %
Test CRC C24F80A5
Copy CRC C24F80A5
Track not present in AccurateRip database
Copy OK
Track 2
Filename C:\Users\Администратор\Desktop\The suicide sessions\The suicide sessions CD 5 - Construct - Destruct\02 Better Off Dead.wav
Peak level 92.8 %
Extraction speed 6.4 X
Track quality 100.0 %
Test CRC 4FDB3CF0
Copy CRC 4FDB3CF0
Track not present in AccurateRip database
Copy OK
Track 3
Filename C:\Users\Администратор\Desktop\The suicide sessions\The suicide sessions CD 5 - Construct - Destruct\03 Putrefaction Process.wav
Pre-gap length 0:06:22.28
Peak level 98.0 %
Extraction speed 5.9 X
Track quality 99.9 %
Test CRC E6553675
Copy CRC E6553675
Track not present in AccurateRip database
Copy OK
Track 4
Filename C:\Users\Администратор\Desktop\The suicide sessions\The suicide sessions CD 5 - Construct - Destruct\04 Desire.wav
Pre-gap length 0:11:37.31
Peak level 98.0 %
Extraction speed 7.3 X
Track quality 100.0 %
Test CRC 27C7096D
Copy CRC 27C7096D
Track not present in AccurateRip database
Copy OK
Track 5
Filename C:\Users\Администратор\Desktop\The suicide sessions\The suicide sessions CD 5 - Construct - Destruct\05 Somnambulist.wav
Pre-gap length 0:16:20.66
Peak level 94.4 %
Extraction speed 7.6 X
Track quality 100.0 %
Test CRC 35974F11
Copy CRC 35974F11
Track not present in AccurateRip database
Copy OK
Track 6
Filename C:\Users\Администратор\Desktop\The suicide sessions\The suicide sessions CD 5 - Construct - Destruct\06 Come To Me (V2.0).wav
Pre-gap length 0:20:30.12
Peak level 95.4 %
Extraction speed 7.1 X
Track quality 99.9 %
Test CRC 8A18C8F6
Copy CRC 8A18C8F6
Track not present in AccurateRip database
Copy OK
Track 7
Filename C:\Users\Администратор\Desktop\The suicide sessions\The suicide sessions CD 5 - Construct - Destruct\07 the mirror (reMASTERed).wav
Pre-gap length 0:25:54.39
Peak level 98.0 %
Extraction speed 8.1 X
Track quality 100.0 %
Test CRC A67A3142
Copy CRC A67A3142
Track not present in AccurateRip database
Copy OK
Track 8
Filename C:\Users\Администратор\Desktop\The suicide sessions\The suicide sessions CD 5 - Construct - Destruct\08 Pesticide.wav
Pre-gap length 0:29:01.67
Peak level 98.0 %
Extraction speed 8.6 X
Track quality 100.0 %
Test CRC F0D510DB
Copy CRC F0D510DB
Track not present in AccurateRip database
Copy OK
Track 9
Filename C:\Users\Администратор\Desktop\The suicide sessions\The suicide sessions CD 5 - Construct - Destruct\09 Massacre.wav
Pre-gap length 0:32:49.11
Peak level 98.0 %
Extraction speed 7.8 X
Track quality 99.9 %
Test CRC A2CBD2E8
Copy CRC A2CBD2E8
Track not present in AccurateRip database
Copy OK
Track 10
Filename C:\Users\Администратор\Desktop\The suicide sessions\The suicide sessions CD 5 - Construct - Destruct\10 Ignorance.wav
Pre-gap length 0:38:03.13
Peak level 98.0 %
Extraction speed 9.5 X
Track quality 100.0 %
Test CRC 7614D805
Copy CRC 7614D805
Track not present in AccurateRip database
Copy OK
Track 11
Filename C:\Users\Администратор\Desktop\The suicide sessions\The suicide sessions CD 5 - Construct - Destruct\11 Euthanasia.wav
Pre-gap length 0:42:25.12
Peak level 98.0 %
Extraction speed 10.3 X
Track quality 100.0 %
Test CRC DDB01C31
Copy CRC DDB01C31
Track not present in AccurateRip database
Copy OK
None of the tracks are present in the AccurateRip database
No errors occurred
End of status report
==== Log checksum 6594AD21989AEEDEF16873FCF81ECDC0C41F8FF89D09C417074ABE3196AF3D48 ====
-----------------------
DON'T MODIFY THIS FILE
-----------------------
PERFORMER: auCDtect Task Manager, ver. 1.5.1RC3 build 1.5.1.4
Copyright (c) 2008-2010 y-soft. All rights reserved
http://y-soft.org
ANALYZER: auCDtect: CD records authenticity detector, version 0.8.2
Copyright (c) 2004 Oleg Berngardt. All rights reserved.
Copyright (c) 2004 Alexander Djourik. All rights reserved.
FILE: 11 Euthanasia.flac
Size: 38109408 Hash: 4B1D86E9217A231DB308BFE50C2462E7 Accuracy: -m0
Conclusion: MPEG 89%
Signature: 931949D5623532306733CC92B077D9204867B637
FILE: 10 Ignorance.flac
Size: 32464336 Hash: 20E12A1806C6032A38D2C227514C4E36 Accuracy: -m0
Conclusion: CDDA 100%
Signature: F0C5770979891226B88396E709C54D4A1816301D
FILE: 09 Massacre.flac
Size: 39321016 Hash: B8D652519246E42CAB76ABEC0F250D64 Accuracy: -m0
Conclusion: ???
Signature: 81C47EDAAF50084B1CDF2591D789A79BA961E513
FILE: 08 Pesticide.flac
Size: 28547285 Hash: BF81583E3FF5DC09046CA282DB72744D Accuracy: -m0
Conclusion: CDDA 100%
Signature: E1858F88EF59B55DB19F98BF864F2791A72A2BF0
FILE: 07 the mirror (reMASTERed).flac
Size: 21030630 Hash: 18CD430DD51E396529E1A66991E2F006 Accuracy: -m0
Conclusion: CDDA 100%
Signature: A0B410F055AC8BC4A72B31F389A2CC0475D1E9B3
FILE: 06 Come To Me (V2.0).flac
Size: 43177332 Hash: 7D43DCC91C98B551EE279044186184CE Accuracy: -m0
Conclusion: CDDA 54%
Signature: AFB64240C9CB7F1C7D196C47C101B2F7C8D033CA
FILE: 05 Somnambulist.flac
Size: 31011046 Hash: 61335CF1330DED6F444A938CD457C0F1 Accuracy: -m0
Conclusion: CDDA 100%
Signature: 27E525674723167383FA0E02E027E6E0DC35C3AD
FILE: 04 Desire.flac
Size: 35888441 Hash: C1AB495D17B0FE20FF2E37C81D58957F Accuracy: -m0
Conclusion: MPEG 99%
Signature: 0C64388E5524D4F0014081AC305CE9FC6869FDF9
FILE: 03 Putrefaction Process.flac
Size: 38859668 Hash: 97D21A5524053D3C6A27B4B8EB4070A3 Accuracy: -m0
Conclusion: CDDA 100%
Signature: 6C06D0B4516748117B7180041BE417DB4747588A
FILE: 02 Better Off Dead.flac
Size: 50024311 Hash: 320CB2C399AE7CB902CCA62D9EFD3E16 Accuracy: -m0
Conclusion: CDDA 99%
Signature: 994F83670989336EDDE2F9C98C571E56256DBBFE
FILE: 01 Acid Bath.flac
Size: 46522351 Hash: 6B031A780E5FFF9AA23A4ED94BB455A0 Accuracy: -m0
Conclusion: ???
Signature: AA5EC7BE2A42960BEF755ACC50E08857AC3D8463
REM GENRE "Dark Electro / EBM / Industrial"
REM DATE 2011
REM DISCID 920CC00B
REM COMMENT "ExactAudioCopy v1.0b2"
PERFORMER "Suicide Commando"
TITLE "The suicide sessions CD 5 - Construct - Destruct"
FILE "01 Acid Bath.wav" WAVE
TRACK 01 AUDIO
TITLE "Acid Bath"
PERFORMER "Suicide Commando"
ISRC DEBZ:1100615
FLAGS DCP
INDEX 01 00:00:00
FILE "02 Better Off Dead.wav" WAVE
TRACK 02 AUDIO
TITLE "Better Off Dead "
PERFORMER "Suicide Commando"
ISRC DEBZ:1100616
FLAGS DCP
INDEX 01 00:00:00
TRACK 03 AUDIO
TITLE "Putrefaction Process"
PERFORMER "Suicide Commando"
ISRC DEBZ:1100617
FLAGS DCP
INDEX 00 00:00:00
FILE "03 Putrefaction Process.wav" WAVE
INDEX 01 00:00:00
TRACK 04 AUDIO
TITLE "Desire"
PERFORMER "Suicide Commando"
ISRC DEBZ:1100618
FLAGS DCP
INDEX 00 04:38:47
FILE "04 Desire.wav" WAVE
INDEX 01 00:00:00
TRACK 05 AUDIO
TITLE "Somnambulist"
PERFORMER "Suicide Commando"
ISRC DEBZ:1100619
FLAGS DCP
INDEX 00 99:23:44
FILE "05 Somnambulist.wav" WAVE
INDEX 01 00:00:00
TRACK 06 AUDIO
TITLE "Come To Me (V2.0) "
PERFORMER "Suicide Commando"
ISRC DEBZ:1100620
FLAGS DCP
INDEX 00 94:40:09
FILE "06 Come To Me (V2.0).wav" WAVE
INDEX 01 00:00:00
TRACK 07 AUDIO
TITLE "the mirror (reMASTERed)"
PERFORMER "Suicide Commando"
ISRC DEBZ:1100621
FLAGS DCP
INDEX 00 80:30:63
FILE "07 the mirror (reMASTERed).wav" WAVE
INDEX 01 00:00:00
TRACK 08 AUDIO
TITLE "Pesticide"
PERFORMER "Suicide Commando"
ISRC DEBZ:1100622
FLAGS DCP
INDEX 00 85:06:36
FILE "08 Pesticide.wav" WAVE
INDEX 01 00:00:00
TRACK 09 AUDIO
TITLE "Massacre"
PERFORMER "Suicide Commando"
ISRC DEBZ:1100623
FLAGS DCP
INDEX 00 81:59:08
FILE "09 Massacre.wav" WAVE
INDEX 01 00:00:00
TRACK 10 AUDIO
TITLE "Ignorance"
PERFORMER "Suicide Commando"
ISRC DEBZ:1100624
FLAGS DCP
INDEX 00 78:11:64
FILE "10 Ignorance.wav" WAVE
INDEX 01 00:00:00
TRACK 11 AUDIO
TITLE "Euthanasia"
PERFORMER "Suicide Commando"
ISRC DEBZ:1100625
FLAGS DCP
INDEX 00 72:57:62
FILE "11 Euthanasia.wav" WAVE
INDEX 01 00:00:00
#777Продолжительность: 00:53:16
Треклист:
01 Decoder (Instrumental Version) (3:27)
02 better off dead (remixed by Dive) (4:17)
03 Desire (Sc Dna Swab - Remixed By :Wumpscut:) (4:19)
04 Violator (4:32)
05 massacre (exterminate - remixed by Plastic Noise Experience) (4:48)
06 better off dead (remixed by Pierrepoint) (6:08)
07 Final Suicide (5:03)
08 Last Breath (5:09)
09 State Of Emergency (4:51)
10 Desire For Dead Bodies (Slow) (4:35)
11 Narcotica (6:08)
Exact Audio Copy V1.0 beta 2 from 29. April 2011
EAC extraction logfile from 5. September 2011, 15:01
Suicide Commando / The suicide sessions CD 6 - Bonus CD 3
Used drive : TEAC DV-W524GS Adapter: 0 ID: 0
Read mode : Secure
Utilize accurate stream : Yes
Defeat audio cache : Yes
Make use of C2 pointers : No
Read offset correction : 6
Overread into Lead-In and Lead-Out : No
Fill up missing offset samples with silence : Yes
Delete leading and trailing silent blocks : No
Null samples used in CRC calculations : Yes
Used interface : Native Win32 interface for Win NT & 2000
Gap handling : Appended to previous track
Used output format : User Defined Encoder
Selected bitrate : 768 kBit/s
Quality : High
Add ID3 tag : No
Command line compressor : C:\Program Files\Exact Audio Copy\FLAC\FLAC.EXE
Additional command line options : -V -8 -T "Genre=%genre%" -T "Artist=%artist%" -T "Title=%title%" -T "Album=%albumtitle%" -T "Date=%year%" -T "Tracknumber=%tracknr%" -T "Comment=%comment%" %source%
TOC of the extracted CD
Track | Start | Length | Start sector | End sector
---------------------------------------------------------
1 | 0:00.00 | 3:27.25 | 0 | 15549
2 | 3:27.25 | 4:17.24 | 15550 | 34848
3 | 7:44.49 | 4:19.29 | 34849 | 54302
4 | 12:04.03 | 4:31.50 | 54303 | 74677
5 | 16:35.53 | 4:47.60 | 74678 | 96262
6 | 21:23.38 | 6:08.06 | 96263 | 123868
7 | 27:31.44 | 5:03.04 | 123869 | 146597
8 | 32:34.48 | 5:08.38 | 146598 | 169735
9 | 37:43.11 | 4:50.43 | 169736 | 191528
10 | 42:33.54 | 4:34.56 | 191529 | 212134
11 | 47:08.35 | 6:07.40 | 212135 | 239699
Track 1
Filename C:\Users\Администратор\Desktop\The suicide sessions\The suicide sessions CD 6 - Bonus CD 3\01 Decoder (Instrumental Version).wav
Pre-gap length 0:00:02.00
Peak level 98.0 %
Extraction speed 4.9 X
Track quality 100.0 %
Test CRC 43211FA5
Copy CRC 43211FA5
Track not present in AccurateRip database
Copy OK
Track 2
Filename C:\Users\Администратор\Desktop\The suicide sessions\The suicide sessions CD 6 - Bonus CD 3\02 better off dead (remixed by Dive).wav
Peak level 98.0 %
Extraction speed 4.7 X
Track quality 99.9 %
Test CRC 4317EC07
Copy CRC 4317EC07
Track not present in AccurateRip database
Copy OK
Track 3
Filename C:\Users\Администратор\Desktop\The suicide sessions\The suicide sessions CD 6 - Bonus CD 3\03 Desire (Sc Dna Swab - Remixed By -Wumpscut-).wav
Pre-gap length 0:04:17.24
Peak level 98.0 %
Extraction speed 6.2 X
Track quality 100.0 %
Test CRC 61D0A6E3
Copy CRC 61D0A6E3
Track not present in AccurateRip database
Copy OK
Track 4
Filename C:\Users\Администратор\Desktop\The suicide sessions\The suicide sessions CD 6 - Bonus CD 3\04 Violator.wav
Pre-gap length 0:08:36.53
Peak level 98.0 %
Extraction speed 6.8 X
Track quality 100.0 %
Test CRC F152F1D1
Copy CRC F152F1D1
Track not present in AccurateRip database
Copy OK
Track 5
Filename C:\Users\Администратор\Desktop\The suicide sessions\The suicide sessions CD 6 - Bonus CD 3\05 massacre (exterminate - remixed by Plastic Noise Experience).wav
Pre-gap length 0:13:08.28
Peak level 98.0 %
Extraction speed 6.0 X
Track quality 99.9 %
Test CRC 12C59A9A
Copy CRC 12C59A9A
Track not present in AccurateRip database
Copy OK
Track 6
Filename C:\Users\Администратор\Desktop\The suicide sessions\The suicide sessions CD 6 - Bonus CD 3\06 better off dead (remixed by Pierrepoint).wav
Pre-gap length 0:17:56.13
Peak level 98.0 %
Extraction speed 8.0 X
Track quality 100.0 %
Test CRC 410AF3C4
Copy CRC 410AF3C4
Track not present in AccurateRip database
Copy OK
Track 7
Filename C:\Users\Администратор\Desktop\The suicide sessions\The suicide sessions CD 6 - Bonus CD 3\07 Final Suicide.wav
Pre-gap length 0:24:04.19
Peak level 98.0 %
Extraction speed 8.3 X
Track quality 100.0 %
Test CRC 391A0569
Copy CRC 391A0569
Track not present in AccurateRip database
Copy OK
Track 8
Filename C:\Users\Администратор\Desktop\The suicide sessions\The suicide sessions CD 6 - Bonus CD 3\08 Last Breath.wav
Pre-gap length 0:29:07.23
Peak level 98.0 %
Extraction speed 8.8 X
Track quality 100.0 %
Test CRC DF60AE33
Copy CRC DF60AE33
Track not present in AccurateRip database
Copy OK
Track 9
Filename C:\Users\Администратор\Desktop\The suicide sessions\The suicide sessions CD 6 - Bonus CD 3\09 State Of Emergency.wav
Pre-gap length 0:34:15.61
Peak level 98.0 %
Extraction speed 9.1 X
Track quality 100.0 %
Test CRC 7FCD6BD6
Copy CRC 7FCD6BD6
Track not present in AccurateRip database
Copy OK
Track 10
Filename C:\Users\Администратор\Desktop\The suicide sessions\The suicide sessions CD 6 - Bonus CD 3\10 Desire For Dead Bodies (Slow).wav
Pre-gap length 0:39:06.29
Peak level 98.0 %
Extraction speed 9.2 X
Track quality 100.0 %
Test CRC C0EC4DA5
Copy CRC C0EC4DA5
Track not present in AccurateRip database
Copy OK
Track 11
Filename C:\Users\Администратор\Desktop\The suicide sessions\The suicide sessions CD 6 - Bonus CD 3\11 Narcotica.wav
Pre-gap length 0:43:41.10
Peak level 98.0 %
Extraction speed 8.6 X
Track quality 99.9 %
Test CRC E88A6A6A
Copy CRC E88A6A6A
Track not present in AccurateRip database
Copy OK
None of the tracks are present in the AccurateRip database
No errors occurred
End of status report
==== Log checksum 043F46F6304F250AE6ED8FD26D70E0845BC1464506CFD332EE8B4C1E2BB0B17A ====
-----------------------
DON'T MODIFY THIS FILE
-----------------------
PERFORMER: auCDtect Task Manager, ver. 1.5.1RC3 build 1.5.1.4
Copyright (c) 2008-2010 y-soft. All rights reserved
http://y-soft.org
ANALYZER: auCDtect: CD records authenticity detector, version 0.8.2
Copyright (c) 2004 Oleg Berngardt. All rights reserved.
Copyright (c) 2004 Alexander Djourik. All rights reserved.
FILE: 11 Narcotica.flac
Size: 39643951 Hash: 3F14C93060FD986AA32438CF56314235 Accuracy: -m0
Conclusion: CDDA 100%
Signature: 5EDCB2EE017A5B699B8F4E4E7469BB3BD972D662
FILE: 10 Desire For Dead Bodies (Slow).flac
Size: 31752639 Hash: 77A6A03A359FE8A45B481D11C42BA644 Accuracy: -m0
Conclusion: CDDA 42%
Signature: 50F9DCA7663DD9FA213E676F9CF4B8BE049593CC
FILE: 09 State Of Emergency.flac
Size: 33464604 Hash: 8C3527D6750DD9C59B17C1D0F41358C3 Accuracy: -m0
Conclusion: MPEG 95%
Signature: F05CA878D2E91FF0597BE843D187DAEFF5A077CF
FILE: 08 Last Breath.flac
Size: 38533784 Hash: ED0B91A9455726597FF35BE404C4729A Accuracy: -m0
Conclusion: MPEG 80%
Signature: 8A4FD0800E09FB5EE3F0F11720729BC0553CACF9
FILE: 07 Final Suicide.flac
Size: 32142296 Hash: B4C775B839045F80241BC0E1355CE815 Accuracy: -m0
Conclusion: CDDA 92%
Signature: 6E83D6D8F8157E62E8CFFEAF2F9A0B43637200A3
FILE: 06 better off dead (remixed by Pierrepoint).flac
Size: 45832601 Hash: 9780072F3A524508AA1FB062D90F6203 Accuracy: -m0
Conclusion: MPEG 80%
Signature: CD719637F40D76DCE3F7C84E675565D1B53EABB6
FILE: 05 massacre (exterminate - remixed by Plastic Noise Experience).flac
Size: 36465697 Hash: F4C23490BB94169D394CE48BDADEA745 Accuracy: -m0
Conclusion: CDDA 100%
Signature: 68BBFEA129DD032ED4C049C392540E6A19E6E7F0
FILE: 04 Violator.flac
Size: 38026444 Hash: 55786914602BD9D3DDB593E6034CD3CF Accuracy: -m0
Conclusion: CDDA 100%
Signature: A59825A03D3CFF37AA748C736D9B94BF6C48B6F7
FILE: 03 Desire (Sc Dna Swab - Remixed By -Wumpscut-).flac
Size: 33799954 Hash: 3B881975A7DF52EEB219B3CE2E74C56C Accuracy: -m0
Conclusion: CDDA 100%
Signature: 933F7E7E4C6A34E7D86A5C7487DAD30B6BC3C56D
FILE: 02 better off dead (remixed by Dive).flac
Size: 33930413 Hash: 4AB069EF39D5C70ABB33ECFB4C14EB11 Accuracy: -m0
Conclusion: CDDA 100%
Signature: 4E9E60F2ED6BE4A23758D061988A313F023AAA41
FILE: 01 Decoder (Instrumental Version).flac
Size: 21546256 Hash: DC3F446ADC941755C0505CD699AA2DF5 Accuracy: -m0
Conclusion: CDDA 100%
Signature: BD0D8ED14E7A9573B6F5D75515995AE128BF3FB2
REM GENRE "Dark Electro / EBM / Industrial"
REM DATE 2011
REM DISCID A60C7C0B
REM COMMENT "ExactAudioCopy v1.0b2"
PERFORMER "Suicide Commando"
TITLE "The suicide sessions CD 6 - Bonus CD 3"
FILE "01 Decoder (Instrumental Version).wav" WAVE
TRACK 01 AUDIO
TITLE "Decoder (Instrumental Version)"
PERFORMER "Suicide Commando"
ISRC DEBZ:1100626
FLAGS DCP
INDEX 01 00:00:00
FILE "02 better off dead (remixed by Dive).wav" WAVE
TRACK 02 AUDIO
TITLE "better off dead (remixed by Dive)"
PERFORMER "Suicide Commando"
ISRC DEBZ:1100627
FLAGS DCP
INDEX 01 00:00:00
TRACK 03 AUDIO
TITLE "Desire (Sc Dna Swab - Remixed By :Wumpscut:)"
PERFORMER "Suicide Commando"
ISRC DEBZ:1100628
FLAGS DCP
INDEX 00 00:00:00
FILE "03 Desire (Sc Dna Swab - Remixed By -Wumpscut-).wav" WAVE
INDEX 01 00:00:00
TRACK 04 AUDIO
TITLE "Violator"
PERFORMER "Suicide Commando"
ISRC DEBZ:1100629
FLAGS DCP
INDEX 00 06:43:51
FILE "04 Violator.wav" WAVE
INDEX 01 00:00:00
TRACK 05 AUDIO
TITLE "massacre (exterminate - remixed by Plastic Noise Experience)"
PERFORMER "Suicide Commando"
ISRC DEBZ:1100630
FLAGS DCP
INDEX 00 02:24:22
FILE "05 massacre (exterminate - remixed by Plastic Noise Experience).wav" WAVE
INDEX 01 00:00:00
TRACK 06 AUDIO
TITLE "better off dead (remixed by Pierrepoint)"
PERFORMER "Suicide Commando"
ISRC DEBZ:1100631
FLAGS DCP
INDEX 00 97:52:47
FILE "06 better off dead (remixed by Pierrepoint).wav" WAVE
INDEX 01 00:00:00
TRACK 07 AUDIO
TITLE "Final Suicide"
PERFORMER "Suicide Commando"
ISRC DEBZ:1100632
FLAGS DCP
INDEX 00 93:04:62
FILE "07 Final Suicide.wav" WAVE
INDEX 01 00:00:00
TRACK 08 AUDIO
TITLE "Last Breath"
PERFORMER "Suicide Commando"
ISRC DEBZ:1100633
FLAGS DCP
INDEX 00 86:56:56
FILE "08 Last Breath.wav" WAVE
INDEX 01 00:00:00
TRACK 09 AUDIO
TITLE "State Of Emergency"
PERFORMER "Suicide Commando"
ISRC DEBZ:1100634
FLAGS DCP
INDEX 00 81:53:52
FILE "09 State Of Emergency.wav" WAVE
INDEX 01 00:00:00
TRACK 10 AUDIO
TITLE "Desire For Dead Bodies (Slow)"
PERFORMER "Suicide Commando"
ISRC DEBZ:1100635
FLAGS DCP
INDEX 00 76:45:14
FILE "10 Desire For Dead Bodies (Slow).wav" WAVE
INDEX 01 00:00:00
TRACK 11 AUDIO
TITLE "Narcotica"
PERFORMER "Suicide Commando"
ISRC DEBZ:1100636
FLAGS DCP
INDEX 00 71:54:46
FILE "11 Narcotica.wav" WAVE
INDEX 01 00:00:00
Правила, инструкции, FAQ!!!
Торрент  Добавлен [26 июн 2020, 19:47] Скачать торрент Магнет ссылка
Скачать торрент
[ Размер 24.61 КБ / Просмотров 8 ]

Статус
Проверен 
 
Размер  2.13 ГБ
Приватный: Нет (DHT включён)
.torrent скачан  0
 


     Отправить личное сообщение
   
Страница 1 из 1
Показать сообщения за:  Поле сортировки  
Начать новую тему Ответить на тему


Сейчас этот форум просматривают: нет зарегистрированных пользователей и гости: 0


Вы не можете начинать темы
Вы не можете отвечать на сообщения
Вы не можете редактировать свои сообщения
Вы не можете удалять свои сообщения
Вы не можете добавлять вложения

Перейти:  
cron