Начать новую тему Ответить на тему
Статистика раздачи
Размер: 467.12 МБ | Добавлен: 26 июн 2020, 20:20 | Скачали: 0
Сидеров: 0  [0 байт/сек]    Личеров: 0  [0 байт/сек]
Пред. тема | След. тема 

Автор
Сообщение

СообщениеДобавлено: 26 июн 2020, 20:20 

Ответить с цитатой 

Ruinizer - Mechanical Exhumation Of The Antichrist


Жанр: Dark Electro | EBM | Industrial
Носитель: CD
Год издания: 2014
Издатель (лейбл): DeathWatch Asia
Номер по каталогу: DWA 300
Страна исполнителя (группы): UK
Аудиокодек: FLAC (*.flac)
Тип рипа: image+.cue
Битрейт аудио: lossless
Продолжительность: 01:01:41
Источник (релизер): kergarn
Наличие сканов: да
Треклист:
01. Upon An Armoured Beast (feat. E.S.A.) [00:05:41]
02. Technoprisoners [00:03:39]
03. Creatures Of The Arkane [00:04:14]
04. Forsaken (feat. Cryogenic Echelon) [00:05:45]
05. Fall (The Death Imperative) [00:04:34]
06. Soulgrinder [00:04:42]
07. All My Demons (feat. Panic Lift) [00:05:38]
08. Cerberus [00:05:09]
09. Goliath (feat. Cease2Xist) [00:04:14]
10. The Primary Objective [00:04:20]
11. Technoprisoners (Infested by Alien Vampires) [bonus track] [00:05:01]
12. Fall (VProjekt Version) [bonus track] [00:03:54]
13. The Primary Objective (Die Sektor remix) [bonus track] [00:04:24]


Код:
Exact Audio Copy V1.0 beta 3 from 29. August 2011
Отчёт EAC об извлечении, выполненном 1. июля 2014, 11:11
Ruinizer / Mechanical Exhumation Of The Antichrist
Дисковод: Optiarc DVD RW AD-5280S   Adapter: 0  ID: 0
Режим чтения                 : Достоверность
Использование точного потока : Да
Отключение кэша аудио        : Да
Использование указателей C2  : Нет
Коррекция смещения при чтении                     : 48
Способность читать области Lead-in и Lead-out     : Нет
Заполнение пропущенных сэмплов тишиной            : Да
Удаление блоков с тишиной в начале и конце        : Нет
При вычислениях CRC использовались нулевые сэмплы : Да
Интерфейс                                         : Встроенный Win32-интерфейс для Win NT/2000
Выходной формат          : Пользовательский кодировщик
Выбранный битрейт        : 1024 kBit/s
Качество                 : Высокий
Добавление ID3-тега      : Нет
Утилита сжатия           : C:\Program Files\Exact Audio Copy\Flac\flac.exe
Дополнительные параметры : -6 -V -s -T "Date=%year%" -T "Genre=%genre%" %source%
TOC извлечённого CD
     Трек |   Старт  | Длительность | Начальный сектор | Конечный сектор
    ---------------------------------------------------------------------
       1  |  0:00.00 |    5:41.68   |           0      |      25642
       2  |  5:41.68 |    3:41.49   |       25643      |      42266
       3  |  9:23.42 |    4:15.52   |       42267      |      61443
       4  | 13:39.19 |    5:46.26   |       61444      |      87419
       5  | 19:25.45 |    4:36.01   |       87420      |     108120
       6  | 24:01.46 |    4:43.40   |      108121      |     129385
       7  | 28:45.11 |    5:40.37   |      129386      |     154922
       8  | 34:25.48 |    5:10.15   |      154923      |     178187
       9  | 39:35.63 |    4:16.07   |      178188      |     197394
      10  | 43:51.70 |    4:22.33   |      197395      |     217077
      11  | 48:14.28 |    5:03.43   |      217078      |     239845
      12  | 53:17.71 |    3:56.65   |      239846      |     257610
      13  | 57:14.61 |    4:26.43   |      257611      |     277603
Характеристики диапазона извлечения и сообщения об ошибках
Выбранный диапазон
     Имя файла I:\Ruinizer - Mechanical Exhumation Of The Antichrist.wav
     Пиковый уровень 97.1 %
     Скорость извлечения 5.9 X
     Качество диапазона 99.9 %
     CRC теста 49341377
     CRC копии 49341377
     Копирование... OK
Ошибок не произошло
AccurateRip: сводка
Трек  1  отсутствует в базе данных
Трек  2  отсутствует в базе данных
Трек  3  отсутствует в базе данных
Трек  4  отсутствует в базе данных
Трек  5  отсутствует в базе данных
Трек  6  отсутствует в базе данных
Трек  7  отсутствует в базе данных
Трек  8  отсутствует в базе данных
Трек  9  отсутствует в базе данных
Трек 10  отсутствует в базе данных
Трек 11  отсутствует в базе данных
Трек 12  отсутствует в базе данных
Трек 13  отсутствует в базе данных
Ни одного трека нет в базе AccurateRip
Конец отчёта
---- CUETools DB Plugin V2.1.4
[CTDB TOCID: SMUTvc3CTeDeHf3rgz6wpJRQ_FU-] disk not present in database
Submit result: SMUTvc3CTeDeHf3rgz6wpJRQ_FU- has been uploaded
==== Контрольная сумма отчёта CB277AE007473C4BFE17C4648600653D29AC9D05F430AA9BA0A3F1A8E44FA27E ====
Код:
REM GENRE "EBM / industrial"
REM DATE 2014
REM DISCID C20E750D
REM COMMENT "ExactAudioCopy v1.0b3"
PERFORMER "Ruinizer"
TITLE "Mechanical Exhumation Of The Antichrist"
FILE "Ruinizer - Mechanical Exhumation Of The Antichrist.flac" WAVE
  TRACK 01 AUDIO
    TITLE "Upon An Armoured Beast (feat. E.S.A.)"
    PERFORMER "Ruinizer"
    INDEX 01 00:00:00
  TRACK 02 AUDIO
    TITLE "Technoprisoners"
    PERFORMER "Ruinizer"
    INDEX 00 05:41:42
    INDEX 01 05:41:68
  TRACK 03 AUDIO
    TITLE "Creatures Of The Arkane"
    PERFORMER "Ruinizer"
    INDEX 00 09:21:43
    INDEX 01 09:23:42
  TRACK 04 AUDIO
    TITLE "Forsaken (feat. Cryogenic Echelon)"
    PERFORMER "Ruinizer"
    INDEX 00 13:38:14
    INDEX 01 13:39:19
  TRACK 05 AUDIO
    TITLE "Fall (The Death Imperative) "
    PERFORMER "Ruinizer"
    INDEX 00 19:24:41
    INDEX 01 19:25:45
  TRACK 06 AUDIO
    TITLE "Soulgrinder"
    PERFORMER "Ruinizer"
    INDEX 00 24:00:42
    INDEX 01 24:01:46
  TRACK 07 AUDIO
    TITLE "All My Demons (feat. Panic Lift)"
    PERFORMER "Ruinizer"
    INDEX 00 28:43:67
    INDEX 01 28:45:11
  TRACK 08 AUDIO
    TITLE "Cerberus"
    PERFORMER "Ruinizer"
    INDEX 00 34:23:49
    INDEX 01 34:25:48
  TRACK 09 AUDIO
    TITLE "Goliath (feat. Cease2Xist)"
    PERFORMER "Ruinizer"
    INDEX 00 39:34:59
    INDEX 01 39:35:63
  TRACK 10 AUDIO
    TITLE "The Primary Objective"
    PERFORMER "Ruinizer"
    INDEX 00 43:50:38
    INDEX 01 43:51:70
  TRACK 11 AUDIO
    TITLE "Technoprisoners (Infested by Alien Vampires) [bonus track]"
    PERFORMER "Ruinizer"
    INDEX 00 48:12:29
    INDEX 01 48:14:28
  TRACK 12 AUDIO
    TITLE "Fall (VProjekt Version) [bonus track]"
    PERFORMER "Ruinizer"
    INDEX 00 53:15:72
    INDEX 01 53:17:71
  TRACK 13 AUDIO
    TITLE "The Primary Objective (Die Sektor remix) [bonus track]"
    PERFORMER "Ruinizer"
    INDEX 00 57:12:62
    INDEX 01 57:14:61
Код:
-----------------------
DON'T MODIFY THIS FILE
-----------------------
PERFORMER: auCDtect Task Manager, ver. 1.5.1RC6 build 1.5.1.7
Copyright (c) 2008-2010 y-soft. All rights reserved
[url=http://y-soft.org]http://y-soft.org[/url]
ANALYZER: auCDtect: CD records authenticity detector, version 0.8.2
Copyright (c) 2004 Oleg Berngardt. All rights reserved.
Copyright (c) 2004 Alexander Djourik. All rights reserved.
FILE: Ruinizer - Mechanical Exhumation Of The Antichrist.flac
  Size: 456148976 Hash: 7A7BF154FD04CA7297FE913D66626A01 Accuracy: -m0
  Conclusion: CDDA 100%
  Signature: 34D0F1DE2E9675D41250D96C3E63C453865C8FB5
Правила, инструкции, FAQ!!!
Торрент  Добавлен [26 июн 2020, 20:20] Скачать торрент Магнет ссылка
Скачать торрент
[ Размер 19.33 КБ / Просмотров 8 ]

Статус
Проверен 
 
Размер  467.12 МБ
Приватный: Нет (DHT включён)
.torrent скачан  0
 


     Отправить личное сообщение
   
Страница 1 из 1
Показать сообщения за:  Поле сортировки  
Начать новую тему Ответить на тему


Сейчас этот форум просматривают: нет зарегистрированных пользователей и гости: 0


Вы не можете начинать темы
Вы не можете отвечать на сообщения
Вы не можете редактировать свои сообщения
Вы не можете удалять свои сообщения
Вы не можете добавлять вложения

Перейти:  
cron