Начать новую тему Ответить на тему
Статистика раздачи
Размер: 590.5 МБ | Добавлен: 26 июн 2020, 20:20 | Скачали: 0
Сидеров: 0  [0 байт/сек]    Личеров: 0  [0 байт/сек]
Пред. тема | След. тема 

Автор
Сообщение

СообщениеДобавлено: 26 июн 2020, 20:20 

Ответить с цитатой 

Hydroxie - Seelenfresser


Жанр: Dark Electro | EBM | Industrial
Носитель: CD
Год издания: 2014
Издатель (лейбл): Equinoxe Records
Номер по каталогу: NX084
Страна исполнителя (группы): Germany
Аудиокодек: FLAC (*.flac)
Тип рипа: image+.cue
Битрейт аудио: lossless
Продолжительность: 01:18:37
Источник (релизер): DmXpert
Наличие сканов: да
Треклист:
01. Seelenfresser [6:38]
02. In Sturm Der Lügen [6:00]
03. Hass [4:04]
04. Engel [4:48]
05. Skandal [4:34]
06. Schwarz [5:36]
07. Du Bist Kein Goth [4:39]
08. Miststück [4:20]
09. Suizid [4:46]
10. Stirb Noch Nicht [5:42]
11. Sterbehilfe [3:46]
12. Unter Verdacht [5:29]
13. Seelen Im Licht [4:30]
14. Circle Of Sadness (Bonus Track) [3:45]
15. Regret (Bonus Track) [3:08]
16 - 32. silence
33. No Title (Hidden Track) [5:42]


Код:
Exact Audio Copy V1.0 beta 3 from 29. August 2011
EAC extraction logfile from 18. December 2014, 17:58
Hydroxie / Seelenfresser
Used drive  : PLEXTOR BDDVDR PX-B320SA   Adapter: 6  ID: 1
Read mode               : Secure
Utilize accurate stream : Yes
Defeat audio cache      : Yes
Make use of C2 pointers : No
Read offset correction                      : 6
Overread into Lead-In and Lead-Out          : No
Fill up missing offset samples with silence : Yes
Delete leading and trailing silent blocks   : No
Null samples used in CRC calculations       : Yes
Used interface                              : Installed external ASPI interface
Used output format              : User Defined Encoder
Selected bitrate                : 1024 kBit/s
Quality                         : High
Add ID3 tag                     : No
Command line compressor         : C:\Program Files (x86)\FLAC\flac.exe
Additional command line options : -V -8 -T "Date=%year%" -T "Genre=%genre%" %source%
TOC of the extracted CD
     Track |   Start  |  Length  | Start sector | End sector
    ---------------------------------------------------------
        1  |  0:00.00 |  6:37.44 |         0    |    29818
        2  |  6:37.44 |  5:59.68 |     29819    |    56811
        3  | 12:37.37 |  4:04.00 |     56812    |    75111
        4  | 16:41.37 |  4:48.38 |     75112    |    96749
        5  | 21:30.00 |  4:34.34 |     96750    |   117333
        6  | 26:04.34 |  5:35.69 |    117334    |   142527
        7  | 31:40.28 |  4:39.02 |    142528    |   163454
        8  | 36:19.30 |  4:19.58 |    163455    |   182937
        9  | 40:39.13 |  4:45.67 |    182938    |   204379
       10  | 45:25.05 |  5:42.34 |    204380    |   230063
       11  | 51:07.39 |  3:46.37 |    230064    |   247050
       12  | 54:54.01 |  5:29.09 |    247051    |   271734
       13  | 60:23.10 |  4:29.68 |    271735    |   291977
       14  | 64:53.03 |  3:44.47 |    291978    |   308824
       15  | 68:37.50 |  3:07.59 |    308825    |   322908
       16  | 71:45.34 |  0:04.00 |    322909    |   323208
       17  | 71:49.34 |  0:04.00 |    323209    |   323508
       18  | 71:53.34 |  0:04.00 |    323509    |   323808
       19  | 71:57.34 |  0:04.00 |    323809    |   324108
       20  | 72:01.34 |  0:04.00 |    324109    |   324408
       21  | 72:05.34 |  0:04.00 |    324409    |   324708
       22  | 72:09.34 |  0:04.00 |    324709    |   325008
       23  | 72:13.34 |  0:04.00 |    325009    |   325308
       24  | 72:17.34 |  0:04.00 |    325309    |   325608
       25  | 72:21.34 |  0:04.00 |    325609    |   325908
       26  | 72:25.34 |  0:04.00 |    325909    |   326208
       27  | 72:29.34 |  0:04.00 |    326209    |   326508
       28  | 72:33.34 |  0:04.00 |    326509    |   326808
       29  | 72:37.34 |  0:04.00 |    326809    |   327108
       30  | 72:41.34 |  0:04.00 |    327109    |   327408
       31  | 72:45.34 |  0:04.00 |    327409    |   327708
       32  | 72:49.34 |  0:06.02 |    327709    |   328160
       33  | 72:55.36 |  5:41.43 |    328161    |   353778
Range status and errors
Selected range
     Filename D:\Hydroxie - Seelenfresser (2014)(# NX084)\Hydroxie - Seelenfresser.wav
     Peak level 96.4 %
     Extraction speed 8.6 X
     Range quality 99.9 %
     Test CRC BEC38B1A
     Copy CRC BEC38B1A
     Copy OK
No errors occurred
AccurateRip summary
Track  1  not present in database
Track  2  not present in database
Track  3  not present in database
Track  4  not present in database
Track  5  not present in database
Track  6  not present in database
Track  7  not present in database
Track  8  not present in database
Track  9  not present in database
Track 10  not present in database
Track 11  not present in database
Track 12  not present in database
Track 13  not present in database
Track 14  not present in database
Track 15  not present in database
Track 16  not present in database
Track 17  not present in database
Track 18  not present in database
Track 19  not present in database
Track 20  not present in database
Track 21  not present in database
Track 22  not present in database
Track 23  not present in database
Track 24  not present in database
Track 25  not present in database
Track 26  not present in database
Track 27  not present in database
Track 28  not present in database
Track 29  not present in database
Track 30  not present in database
Track 31  not present in database
Track 32  not present in database
Track 33  not present in database
None of the tracks are present in the AccurateRip database
End of status report
==== Log checksum 08582F1515F6935930D5E0B1164698C72B33840B7E35C87E4252284C01412F46 ====
Код:
REM GENRE Industrial
REM DATE 2014
REM DISCID FD126D21
REM COMMENT "ExactAudioCopy v1.0b3"
PERFORMER "Hydroxie"
TITLE "Seelenfresser"
FILE "Hydroxie - Seelenfresser.flac" WAVE
  TRACK 01 AUDIO
    TITLE "Seelenfresser"
    PERFORMER "Hydroxie"
    ISRC DEAR51400061
    INDEX 01 00:00:00
  TRACK 02 AUDIO
    TITLE "In Sturm Der Lugen"
    PERFORMER "Hydroxie"
    ISRC DEAR51400062
    INDEX 00 06:35:44
    INDEX 01 06:37:44
  TRACK 03 AUDIO
    TITLE "Hass"
    PERFORMER "Hydroxie"
    ISRC DEAR51400063
    INDEX 00 12:35:37
    INDEX 01 12:37:37
  TRACK 04 AUDIO
    TITLE "Engel"
    PERFORMER "Hydroxie"
    ISRC DEAR51400064
    INDEX 00 16:39:37
    INDEX 01 16:41:37
  TRACK 05 AUDIO
    TITLE "Skandal"
    PERFORMER "Hydroxie"
    ISRC DEAR51400065
    INDEX 00 21:28:00
    INDEX 01 21:30:00
  TRACK 06 AUDIO
    TITLE "Schwarz"
    PERFORMER "Hydroxie"
    ISRC DEAR51400066
    INDEX 00 26:02:34
    INDEX 01 26:04:34
  TRACK 07 AUDIO
    TITLE "Du Bist Kein Goth"
    PERFORMER "Hydroxie"
    ISRC DEAR51400067
    INDEX 00 31:38:28
    INDEX 01 31:40:28
  TRACK 08 AUDIO
    TITLE "Miststuck"
    PERFORMER "Hydroxie"
    ISRC DEAR51400068
    INDEX 00 36:17:30
    INDEX 01 36:19:30
  TRACK 09 AUDIO
    TITLE "Suizid"
    PERFORMER "Hydroxie"
    ISRC DEAR51400069
    INDEX 00 40:37:13
    INDEX 01 40:39:13
  TRACK 10 AUDIO
    TITLE "Stirb Noch Nicht"
    PERFORMER "Hydroxie"
    ISRC DEAR51400070
    INDEX 00 45:23:05
    INDEX 01 45:25:05
  TRACK 11 AUDIO
    TITLE "Sterbehilfe"
    PERFORMER "Hydroxie"
    ISRC DEAR51400071
    INDEX 00 51:05:39
    INDEX 01 51:07:39
  TRACK 12 AUDIO
    TITLE "Unter Verdacht"
    PERFORMER "Hydroxie"
    ISRC DEAR51400072
    INDEX 00 54:52:01
    INDEX 01 54:54:01
  TRACK 13 AUDIO
    TITLE "Seelen Im Licht"
    PERFORMER "Hydroxie"
    ISRC DEAR51400073
    INDEX 00 60:21:10
    INDEX 01 60:23:10
  TRACK 14 AUDIO
    TITLE "Circle Of Sadness (Bonus Track)"
    PERFORMER "Hydroxie"
    ISRC DEAR51400074
    INDEX 00 64:51:03
    INDEX 01 64:53:03
  TRACK 15 AUDIO
    TITLE "Regret (Bonus Track)"
    PERFORMER "Hydroxie"
    ISRC DEAR51400075
    INDEX 00 68:35:50
    INDEX 01 68:37:50
  TRACK 16 AUDIO
    TITLE "-"
    PERFORMER "Hydroxie"
    INDEX 01 71:45:34
  TRACK 17 AUDIO
    TITLE "-"
    PERFORMER "Hydroxie"
    INDEX 01 71:49:34
  TRACK 18 AUDIO
    TITLE "-"
    PERFORMER "Hydroxie"
    INDEX 01 71:53:34
  TRACK 19 AUDIO
    TITLE "-"
    PERFORMER "Hydroxie"
    INDEX 01 71:57:34
  TRACK 20 AUDIO
    TITLE "-"
    PERFORMER "Hydroxie"
    INDEX 01 72:01:34
  TRACK 21 AUDIO
    TITLE "-"
    PERFORMER "Hydroxie"
    INDEX 01 72:05:34
  TRACK 22 AUDIO
    TITLE "-"
    PERFORMER "Hydroxie"
    INDEX 01 72:09:34
  TRACK 23 AUDIO
    TITLE "-"
    PERFORMER "Hydroxie"
    INDEX 01 72:13:34
  TRACK 24 AUDIO
    TITLE "-"
    PERFORMER "Hydroxie"
    INDEX 01 72:17:34
  TRACK 25 AUDIO
    TITLE "-"
    PERFORMER "Hydroxie"
    INDEX 01 72:21:34
  TRACK 26 AUDIO
    TITLE "-"
    PERFORMER "Hydroxie"
    ISRC DEAR51400076
    INDEX 01 72:25:34
  TRACK 27 AUDIO
    TITLE "-"
    PERFORMER "Hydroxie"
    ISRC DEAR51400076
    INDEX 01 72:29:34
  TRACK 28 AUDIO
    TITLE "-"
    PERFORMER "Hydroxie"
    ISRC DEAR51400076
    INDEX 01 72:33:34
  TRACK 29 AUDIO
    TITLE "-"
    PERFORMER "Hydroxie"
    ISRC DEAR51400076
    INDEX 01 72:37:34
  TRACK 30 AUDIO
    TITLE "-"
    PERFORMER "Hydroxie"
    ISRC DEAR51400076
    INDEX 01 72:41:34
  TRACK 31 AUDIO
    TITLE "-"
    PERFORMER "Hydroxie"
    ISRC DEAR51400076
    INDEX 01 72:45:34
  TRACK 32 AUDIO
    TITLE "-"
    PERFORMER "Hydroxie"
    ISRC DEAR51400076
    INDEX 01 72:49:34
  TRACK 33 AUDIO
    TITLE "No Title (Hidden Track)"
    PERFORMER "Hydroxie"
    ISRC DEAR51400076
    INDEX 00 72:53:36
    INDEX 01 72:55:36
Код:
-----------------------
DON'T MODIFY THIS FILE
-----------------------
PERFORMER: auCDtect Task Manager, ver. 1.5.1RC6 build 1.5.1.7
Copyright (c) 2008-2010 y-soft. All rights reserved
[url=http://y-soft.org]http://y-soft.org[/url]
ANALYZER: auCDtect: CD records authenticity detector, version 0.8.2
Copyright (c) 2004 Oleg Berngardt. All rights reserved.
Copyright (c) 2004 Alexander Djourik. All rights reserved.
FILE: Hydroxie - Seelenfresser.flac
  Size: 592878133 Hash: 4A534094D50BC927C670AC107E30AD18 Accuracy: -m0
  Conclusion: CDDA 99%
  Signature: B891AE307B15985EB23BC8B25D56B838D1050032
Правила, инструкции, FAQ!!!
Торрент  Добавлен [26 июн 2020, 20:20] Скачать торрент Магнет ссылка
Скачать торрент
[ Размер 12.59 КБ / Просмотров 8 ]

Статус
Проверен 
 
Размер  590.5 МБ
Приватный: Нет (DHT включён)
.torrent скачан  0
 


     Отправить личное сообщение
   
Страница 1 из 1
Показать сообщения за:  Поле сортировки  
Начать новую тему Ответить на тему


Сейчас этот форум просматривают: нет зарегистрированных пользователей и гости: 0


Вы не можете начинать темы
Вы не можете отвечать на сообщения
Вы не можете редактировать свои сообщения
Вы не можете удалять свои сообщения
Вы не можете добавлять вложения

Перейти:  
cron