Начать новую тему Ответить на тему
Статистика раздачи
Размер: 492.36 МБ | Добавлен: 26 июн 2020, 17:12 | Скачали: 0
Сидеров: 0  [0 байт/сек]    Личеров: 0  [0 байт/сек]
Пред. тема | След. тема 

Автор
Сообщение

СообщениеДобавлено: 26 июн 2020, 17:12 

Ответить с цитатой 

Dolls Of Pain
The Last Conflict

Жанр: Dark Electro / EBM / Industrial
Страна-производитель диска: Hungary
Год издания: 2011
Издатель (лейбл): Advoxya
Номер по каталогу: AD-HUN-56-CD
Страна: France
Аудиокодек: FLAC (*.flac)
Тип рипа: image+.cue
Битрейт аудио: lossless
Продолжительность: 01hour 04min 02sec
Источник (релизер): Физический носитель (Собственный рип с оригинального CD).
Наличие сканов в содержимом раздачи: нет
Треклист:
01 The Begining Of The End
02 Strange Kiss
03 Are U Blind
04 Why Not
05 Don't Blame Me
06 Fading Lies
07 Stairs Of Glory
08 Hurt Me
09 Inside Your Soul
10 Like An Ass Bitch
11 Dechirure Nocturne
12 Stay Far Away From Me
13 With You (Feat. Dddmix of BAKXIII)
Код:
Exact Audio Copy V1.0 beta 3 from 29. August 2011
Отчёт EAC об извлечении, выполненном 1. сентября 2012, 5:02
Dolls Of Pain / The Last Conflict
Дисковод: TSSTcorpCDDVDW TS-L633C   Adapter: 0  ID: 0
Режим чтения                 : Достоверность
Использование точного потока : Да
Отключение кэша аудио        : Да
Использование указателей C2  : Нет
Коррекция смещения при чтении                     : 6
Способность читать области Lead-in и Lead-out     : Нет
Заполнение пропущенных сэмплов тишиной            : Да
Удаление блоков с тишиной в начале и конце        : Нет
При вычислениях CRC использовались нулевые сэмплы : Да
Нормализовать до                                  : 98 %
Интерфейс                                         : Встроенный Win32-интерфейс для Win NT/2000
Выходной формат          : Пользовательский кодировщик
Выбранный битрейт        : 128 kBit/s
Качество                 : Высокий
Добавление ID3-тега      : Нет
Утилита сжатия           : C:\Program Files\FLAC\flac.exe
Дополнительные параметры : -V -8 -T "Date=%year%" -T "Genre=%genre%" %source%
TOC извлечённого CD
     Трек |   Старт  | Длительность | Начальный сектор | Конечный сектор
    ---------------------------------------------------------------------
       1  |  0:00.00 |    3:43.72   |           0      |      16796
       2  |  3:43.72 |    5:07.19   |       16797      |      39840
       3  |  8:51.16 |    5:02.70   |       39841      |      62560
       4  | 13:54.11 |    4:06.28   |       62561      |      81038
       5  | 18:00.39 |    5:05.70   |       81039      |     103983
       6  | 23:06.34 |    5:26.40   |      103984      |     128473
       7  | 28:32.74 |    2:35.47   |      128474      |     140145
       8  | 31:08.46 |    6:32.49   |      140146      |     169594
       9  | 37:41.20 |    4:04.61   |      169595      |     187955
      10  | 41:46.06 |    5:48.18   |      187956      |     214073
      11  | 47:34.24 |    6:07.49   |      214074      |     241647
      12  | 53:41.73 |    4:43.73   |      241648      |     262945
      13  | 58:25.71 |    5:35.66   |      262946      |     288136
Характеристики диапазона извлечения и сообщения об ошибках
Выбранный диапазон
     Имя файла C:\Users\SODOM\Desktop\Dolls Of Pain - The Last Conflict.wav
     Пиковый уровень 100.0 %
     Скорость извлечения 3.0 X
     Качество диапазона 100.0 %
     CRC теста C75DB9E3
     CRC копии C75DB9E3
     Копирование... OK
Ошибок не произошло
AccurateRip: сводка
Трек  1  : извлечено точно (доверие 1)  [DEA6CB3E]  (AR v1)
Трек  2  : извлечено точно (доверие 1)  [4C48D8FB]  (AR v1)
Трек  3  : извлечено точно (доверие 1)  [35579898]  (AR v1)
Трек  4  : извлечено точно (доверие 1)  [2905CE32]  (AR v1)
Трек  5  : извлечено точно (доверие 1)  [9514857B]  (AR v1)
Трек  6  : извлечено точно (доверие 1)  [70864101]  (AR v1)
Трек  7  : извлечено точно (доверие 1)  [E1992FC6]  (AR v1)
Трек  8  : извлечено точно (доверие 1)  [3DF1AFE8]  (AR v1)
Трек  9  : извлечено точно (доверие 1)  [A57E5891]  (AR v1)
Трек 10  : извлечено точно (доверие 1)  [544AABCA]  (AR v1)
Трек 11  : извлечено точно (доверие 1)  [204C722D]  (AR v1)
Трек 12  : извлечено точно (доверие 1)  [D1719DC2]  (AR v1)
Трек 13  : извлечено точно (доверие 1)  [22327AAD]  (AR v1)
Все треки извлечены точно
Конец отчёта
==== Контрольная сумма отчёта 50250C6D03FB07D41F20C0F7BB99B35F65329A603CC1E084472927CC6389A409 ====
Правила, инструкции, FAQ!!!
Торрент  Добавлен [26 июн 2020, 17:12] Скачать торрент Магнет ссылка
Скачать торрент
[ Размер 19.99 КБ / Просмотров 6 ]

Статус
Проверен 
 
Размер  492.36 МБ
Приватный: Нет (DHT включён)
.torrent скачан  0
 


     Отправить личное сообщение
   
Страница 1 из 1
Показать сообщения за:  Поле сортировки  
Начать новую тему Ответить на тему


Сейчас этот форум просматривают: нет зарегистрированных пользователей и гости: 0


Вы не можете начинать темы
Вы не можете отвечать на сообщения
Вы не можете редактировать свои сообщения
Вы не можете удалять свои сообщения
Вы не можете добавлять вложения

Перейти:  
cron