Начать новую тему Ответить на тему
Статистика раздачи
Размер: 393.91 МБ | Добавлен: 26 июн 2020, 17:08 | Скачали: 0
Сидеров: 0  [0 байт/сек]    Личеров: 0  [0 байт/сек]
Пред. тема | След. тема 

Автор
Сообщение

СообщениеДобавлено: 26 июн 2020, 17:08 

Ответить с цитатой 

Dolls Of Pain
Strange Kiss [EP]

Жанр: Dark Electro / EBM / Industrial
Страна-производитель диска: Hungary
Год издания: 2010
Издатель (лейбл): Advoxya
Номер по каталогу: AD-HUN-51-EP
Страна: France
Аудиокодек: FLAC (*.flac)
Тип рипа: image+.cue
Битрейт аудио: lossless
Продолжительность: 49min 58sec
Источник (релизер): Физический носитель (Собственный рип с оригинального CD).
Наличие сканов в содержимом раздачи: нет
Треклист:
01 Strange kiss (Single edit)
02 The bite of your kiss
03 Quand je succombe
04 Bloody club
05 Strange kiss (Extended Club mix)
06 The bite of your kiss (Extended Club mix)
07 Strange kiss (Bak XIII remix)
08 The bite of your kiss (Darx remix)
09 Strange kiss (A7IE remix)
10 The bite of your kiss (Bipolar remix by Larva)
Код:
Exact Audio Copy V1.0 beta 3 from 29. August 2011
Отчёт EAC об извлечении, выполненном 13. августа 2012, 20:42
Dolls Of Pain / Strange Kiss
Дисковод: TSSTcorpCDDVDW TS-L633C   Adapter: 0  ID: 0
Режим чтения                 : Достоверность
Использование точного потока : Да
Отключение кэша аудио        : Да
Использование указателей C2  : Нет
Коррекция смещения при чтении                     : 6
Способность читать области Lead-in и Lead-out     : Нет
Заполнение пропущенных сэмплов тишиной            : Да
Удаление блоков с тишиной в начале и конце        : Нет
При вычислениях CRC использовались нулевые сэмплы : Да
Нормализовать до                                  : 98 %
Интерфейс                                         : Встроенный Win32-интерфейс для Win NT/2000
Выходной формат          : Пользовательский кодировщик
Выбранный битрейт        : 128 kBit/s
Качество                 : Высокий
Добавление ID3-тега      : Нет
Утилита сжатия           : C:\Program Files\FLAC\flac.exe
Дополнительные параметры : -V -8 -T "Date=%year%" -T "Genre=%genre%" %source%
TOC извлечённого CD
     Трек |   Старт  | Длительность | Начальный сектор | Конечный сектор
    ---------------------------------------------------------------------
       1  |  0:00.00 |    5:06.74   |           0      |      23023
       2  |  5:06.74 |    4:22.16   |       23024      |      42689
       3  |  9:29.15 |    5:32.70   |       42690      |      67659
       4  | 15:02.10 |    4:07.12   |       67660      |      86196
       5  | 19:09.22 |    5:45.23   |       86197      |     112094
       6  | 24:54.45 |    6:32.51   |      112095      |     141545
       7  | 31:27.21 |    4:10.45   |      141546      |     160340
       8  | 35:37.66 |    4:29.31   |      160341      |     180546
       9  | 40:07.22 |    4:10.04   |      180547      |     199300
      10  | 44:17.26 |    5:40.49   |      199301      |     224849
Характеристики диапазона извлечения и сообщения об ошибках
Выбранный диапазон
     Имя файла C:\Users\SODOM\Desktop\Dolls Of Pain - Strange Kiss.wav
     Пиковый уровень 100.0 %
     Скорость извлечения 2.7 X
     Качество диапазона 100.0 %
     CRC теста 10ACE06C
     CRC копии 10ACE06C
     Копирование... OK
Ошибок не произошло
AccurateRip: сводка
Трек  1  отсутствует в базе данных
Трек  2  отсутствует в базе данных
Трек  3  отсутствует в базе данных
Трек  4  отсутствует в базе данных
Трек  5  отсутствует в базе данных
Трек  6  отсутствует в базе данных
Трек  7  отсутствует в базе данных
Трек  8  отсутствует в базе данных
Трек  9  отсутствует в базе данных
Трек 10  отсутствует в базе данных
Ни одного трека нет в базе AccurateRip
Конец отчёта
==== Контрольная сумма отчёта 02A38C821217E2A5FFB46B80EC85C4AD49B2E7655F4F398267FE62E0E5B6FE70 ====
Правила, инструкции, FAQ!!!
Торрент  Добавлен [26 июн 2020, 17:08] Скачать торрент Магнет ссылка
Скачать торрент
[ Размер 16.12 КБ / Просмотров 4 ]

Статус
Проверен 
 
Размер  393.91 МБ
Приватный: Нет (DHT включён)
.torrent скачан  0
 


     Отправить личное сообщение
   
Страница 1 из 1
Показать сообщения за:  Поле сортировки  
Начать новую тему Ответить на тему


Сейчас этот форум просматривают: нет зарегистрированных пользователей и гости: 0


Вы не можете начинать темы
Вы не можете отвечать на сообщения
Вы не можете редактировать свои сообщения
Вы не можете удалять свои сообщения
Вы не можете добавлять вложения

Перейти:  
cron