Начать новую тему Ответить на тему
Статистика раздачи
Размер: 462.36 МБ | Добавлен: 26 июн 2020, 17:56 | Скачали: 0
Сидеров: 0  [0 байт/сек]    Личеров: 0  [0 байт/сек]
Пред. тема | След. тема 

Автор
Сообщение

СообщениеДобавлено: 26 июн 2020, 17:56 

Ответить с цитатой 

Dolls Of Pain - A Silence In My Life
Жанр: Dark Electro, EBM, Industrial
Носитель: CD
Год издания: 2016
Страна-производитель диска: Germany
Аудиокодек: FLAC (*.flac)
Тип рипа: image+.cue
Битрейт аудио: lossless
Продолжительность: 01:11:25
Источник (релизер): HaRD
Наличие сканов в содержимом раздачи: да

Треклист:
01. Nothing To Say
02. Stronger
03. Perverse Narcissique
04. I Raze To The Ground
05. Drunk But Happy
06. Break It Down
07. A Silence In My Life
08. Cicatrice
09. No Turning Back
10. Together
11. Dreams
12. Determination
13. Forgive You
14. Destroy Your Pride
15. Phoenix
Код:
Exact Audio Copy V1.1 from 23. June 2015
EAC extraction logfile from 27. September 2016, 8:14
Dolls of Pain / A Silence in My Life (DTP16LP092)
Used drive  : PIONEER BD-RW   BDR-209D   Adapter: 0  ID: 5
Read mode               : Secure
Utilize accurate stream : Yes
Defeat audio cache      : Yes
Make use of C2 pointers : No
Read offset correction                      : 667
Overread into Lead-In and Lead-Out          : No
Fill up missing offset samples with silence : Yes
Delete leading and trailing silent blocks   : No
Null samples used in CRC calculations       : Yes
Used interface                              : Installed external ASPI interface
Used output format              : User Defined Encoder
Selected bitrate                : 768 kBit/s
Quality                         : High
Add ID3 tag                     : No
Command line compressor         : C:\Program Files (x86)\Exact Audio Copy\FLAC\FLAC.EXE
Additional command line options : -6 -V -T "ARTIST=%artist%" -T "TITLE=%title%" -T "ALBUM=%albumtitle%" -T "DATE=%year%" -T "TRACKNUMBER=%tracknr%" -T "GENRE=%genre%" -T "COMMENT=%comment%" -T "BAND=%albuminterpret%" -T "ALBUMARTIST=%albuminterpret%" -T "COMPOSER=%composer%" %haslyrics%--tag-from-file=LYRICS="%lyricsfile%"%haslyrics% -T "DISCNUMBER=%cdnumber%" -T "TOTALDISCS=%totalcds%" -T "TOTALTRACKS=%numtracks%" %hascover%--picture="%coverfile%"%hascover% %source% -o %dest%
TOC of the extracted CD
     Track |   Start  |  Length  | Start sector | End sector
    ---------------------------------------------------------
        1  |  0:00.00 |  5:22.68 |         0    |    24217
        2  |  5:22.68 |  4:57.63 |     24218    |    46555
        3  | 10:20.56 |  4:07.52 |     46556    |    65132
        4  | 14:28.33 |  4:36.24 |     65133    |    85856
        5  | 19:04.57 |  4:28.18 |     85857    |   105974
        6  | 23:33.00 |  1:40.37 |    105975    |   113511
        7  | 25:13.37 |  4:46.55 |    113512    |   135016
        8  | 30:00.17 |  4:12.14 |    135017    |   153930
        9  | 34:12.31 |  5:18.01 |    153931    |   177781
       10  | 39:30.32 |  4:17.57 |    177782    |   197113
       11  | 43:48.14 |  6:30.22 |    197114    |   226385
       12  | 50:18.36 |  5:20.61 |    226386    |   250446
       13  | 55:39.22 |  4:43.00 |    250447    |   271671
       14  | 60:22.22 |  5:27.57 |    271672    |   296253
       15  | 65:50.04 |  5:35.56 |    296254    |   321434
Range status and errors
Selected range
     Filename E:\MUSIC\Dolls of Pain - A Silence in My Life (DTP16LP092).wav
     Peak level 100.0 %
     Extraction speed 8.0 X
     Range quality 99.9 %
     Test CRC D7BE69AC
     Copy CRC D7BE69AC
     Copy OK
No errors occurred
AccurateRip summary
Track  1  not present in database
Track  2  not present in database
Track  3  not present in database
Track  4  not present in database
Track  5  not present in database
Track  6  not present in database
Track  7  not present in database
Track  8  not present in database
Track  9  not present in database
Track 10  not present in database
Track 11  not present in database
Track 12  not present in database
Track 13  not present in database
Track 14  not present in database
Track 15  not present in database
None of the tracks are present in the AccurateRip database
End of status report
==== Log checksum 9AFF2A78A945031892DF7FF650D811808CC54997543740F533DB8F137A736206 ====
Код:
REM GENRE "Dark Electro"
REM DATE 2016
REM DISCID A810BD0F
REM COMMENT "ExactAudioCopy v1.1"
PERFORMER "Dolls of Pain"
TITLE "A Silence in My Life (DTP16LP092)"
FILE "Dolls of Pain - A Silence in My Life (DTP16LP092).flac" WAVE
  TRACK 01 AUDIO
    TITLE "Nothing to Say"
    PERFORMER "Dolls of Pain"
    INDEX 01 00:00:00
  TRACK 02 AUDIO
    TITLE "Stronger"
    PERFORMER "Dolls of Pain"
    INDEX 00 05:20:68
    INDEX 01 05:22:68
  TRACK 03 AUDIO
    TITLE "Perverse narcissique"
    PERFORMER "Dolls of Pain"
    INDEX 00 10:18:56
    INDEX 01 10:20:56
  TRACK 04 AUDIO
    TITLE "I Raze to the Ground"
    PERFORMER "Dolls of Pain"
    INDEX 00 14:26:33
    INDEX 01 14:28:33
  TRACK 05 AUDIO
    TITLE "Drunk but Happy"
    PERFORMER "Dolls of Pain"
    INDEX 00 19:02:57
    INDEX 01 19:04:57
  TRACK 06 AUDIO
    TITLE "Break It Down"
    PERFORMER "Dolls of Pain"
    INDEX 00 23:31:00
    INDEX 01 23:33:00
  TRACK 07 AUDIO
    TITLE "A Silence in My Life"
    PERFORMER "Dolls of Pain"
    INDEX 00 25:11:37
    INDEX 01 25:13:37
  TRACK 08 AUDIO
    TITLE "Cicatrice"
    PERFORMER "Dolls of Pain"
    INDEX 00 29:58:17
    INDEX 01 30:00:17
  TRACK 09 AUDIO
    TITLE "No Turning Back"
    PERFORMER "Dolls of Pain"
    INDEX 00 34:10:31
    INDEX 01 34:12:31
  TRACK 10 AUDIO
    TITLE "Together"
    PERFORMER "Dolls of Pain"
    INDEX 00 39:28:32
    INDEX 01 39:30:32
  TRACK 11 AUDIO
    TITLE "Dreams"
    PERFORMER "Dolls of Pain"
    INDEX 00 43:46:14
    INDEX 01 43:48:14
  TRACK 12 AUDIO
    TITLE "Determination"
    PERFORMER "Dolls of Pain"
    INDEX 00 50:16:36
    INDEX 01 50:18:36
  TRACK 13 AUDIO
    TITLE "Forgive You"
    PERFORMER "Dolls of Pain"
    INDEX 00 55:37:22
    INDEX 01 55:39:22
  TRACK 14 AUDIO
    TITLE "Destroy Your Pride"
    PERFORMER "Dolls of Pain"
    INDEX 00 60:20:22
    INDEX 01 60:22:22
  TRACK 15 AUDIO
    TITLE "Phoenix"
    PERFORMER "Dolls of Pain"
    INDEX 00 65:48:04
    INDEX 01 65:50:04
Правила, инструкции, FAQ!!!
Торрент  Добавлен [26 июн 2020, 17:56] Скачать торрент Магнет ссылка
Скачать торрент
[ Размер 19.08 КБ / Просмотров 8 ]

Статус
Проверен 
 
Размер  462.36 МБ
Приватный: Нет (DHT включён)
.torrent скачан  0
 


     Отправить личное сообщение
   
Страница 1 из 1
Показать сообщения за:  Поле сортировки  
Начать новую тему Ответить на тему


Сейчас этот форум просматривают: нет зарегистрированных пользователей и гости: 0


Вы не можете начинать темы
Вы не можете отвечать на сообщения
Вы не можете редактировать свои сообщения
Вы не можете удалять свои сообщения
Вы не можете добавлять вложения

Перейти:  
cron