Начать новую тему Ответить на тему
Статистика раздачи
Размер: 573.18 МБ | Добавлен: 26 июн 2020, 19:53 | Скачали: 0
Сидеров: 1  [0 байт/сек]    Личеров: 0  [0 байт/сек]
Пред. тема | След. тема 

Автор
Сообщение

СообщениеДобавлено: 26 июн 2020, 19:53 

Ответить с цитатой 

Die Sektor - Applied Structure In A Void
Жанр: Dark Electro / EBM / Industrial
Год издания диска: 2011
Издатель (лейбл): Death Watch Asia
Номер по каталогу: DWA 143
Страна: United States
Аудио кодек: FLAC (*.flac)
Тип рипа: tracks+.cue
Битрейт аудио: lossless
Продолжительность: 1:19:35
Источник: Anarki3x6 (what.cd)
Наличие сканов в содержимом раздачи: нет

Треклист:
01. Accelerant (5:50)
02. Dissector (3:30)
03. Fall To The Noise (4:54)
04. Heaven Sent Hell Embraced (4:49)
05. Death At First Light (4:55)
06. Corpus Accido (6:24)
07. In His Mercy All Will Perish (3:44)
08. Bleed Till The Last Light Flickers (4:39)
09. First Murder After The Flood (5:15)
10. Infernal (6:10)
11. Divide To Dust (6:02)
12. Heaven Sent Hell Embraced (DYM Remix) (3:44)
13. Corpus Accido (vPROJEKT Remix) (8:15)
14. Accelerant (LEXINCRYPT Remix) (6:37)
15. Fall To The Noise (Pleasant Dreams Mix) (4:48)
Код:
Exact Audio Copy V1.0 beta 1 from 15. November 2010
EAC extraction logfile from 1. March 2011, 1:24
Die Sektor / Applied Structure In A Void
Used drive  : MATSHITADVD-RAM UJ-860   Adapter: 1  ID: 0
Read mode               : Secure
Utilize accurate stream : Yes
Defeat audio cache      : Yes
Make use of C2 pointers : No
Read offset correction                      : 102
Overread into Lead-In and Lead-Out          : No
Fill up missing offset samples with silence : Yes
Delete leading and trailing silent blocks   : No
Null samples used in CRC calculations       : Yes
Used interface                              : Native Win32 interface for Win NT & 2000
Gap handling                                : Appended to previous track
Used output format              : User Defined Encoder
Selected bitrate                : 768 kBit/s
Quality                         : High
Add ID3 tag                     : No
Command line compressor         : C:\Program Files (x86)\Exact Audio Copy\FLAC\FLAC.EXE
Additional command line options : -6 -V -T "ARTIS-V -5 -T "artist=%a" -T "title=%t" -T "album=%g" -T "date=%y" -T "tracknumber=%n" -T "genre=%m" %s
TOC of the extracted CD
     Track |   Start  |  Length  | Start sector | End sector
    ---------------------------------------------------------
        1  |  0:00.00 |  5:49.56 |         0    |    26230
        2  |  5:49.56 |  3:29.52 |     26231    |    41957
        3  |  9:19.33 |  4:53.44 |     41958    |    63976
        4  | 14:13.02 |  4:48.54 |     63977    |    85630
        5  | 19:01.56 |  4:54.65 |     85631    |   107745
        6  | 23:56.46 |  6:23.52 |    107746    |   136522
        7  | 30:20.23 |  3:44.12 |    136523    |   153334
        8  | 34:04.35 |  4:38.60 |    153335    |   174244
        9  | 38:43.20 |  5:15.07 |    174245    |   197876
       10  | 43:58.27 |  6:10.22 |    197877    |   225648
       11  | 50:08.49 |  6:02.26 |    225649    |   252824
       12  | 56:11.00 |  3:43.70 |    252825    |   269619
       13  | 59:54.70 |  8:15.22 |    269620    |   306766
       14  | 68:10.17 |  6:37.05 |    306767    |   336546
       15  | 74:47.22 |  4:47.49 |    336547    |   358120
Track  1
     Filename E:\Die Sektor - Applied Structure In A Void - FLAC - 2011\01 - Die Sektor - Accelerant.wav
     Pre-gap length  0:00:02.00
     Peak level 99.7 %
     Extraction speed 0.9 X
     Track quality 100.0 %
     Test CRC 67D8AA32
     Copy CRC 67D8AA32
     Copy OK
Track  2
     Filename E:\Die Sektor - Applied Structure In A Void - FLAC - 2011\02 - Die Sektor - Dissector.wav
     Pre-gap length  0:00:02.00
     Peak level 99.7 %
     Extraction speed 0.9 X
     Track quality 100.0 %
     Test CRC 01643098
     Copy CRC 01643098
     Copy OK
Track  3
     Filename E:\Die Sektor - Applied Structure In A Void - FLAC - 2011\03 - Die Sektor - Fall To The Noise.wav
     Pre-gap length  0:00:01.22
     Peak level 99.7 %
     Extraction speed 1.0 X
     Track quality 100.0 %
     Test CRC 35FFA1A8
     Copy CRC 35FFA1A8
     Copy OK
Track  4
     Filename E:\Die Sektor - Applied Structure In A Void - FLAC - 2011\04 - Die Sektor - Heaven Sent Hell Embraced.wav
     Pre-gap length  0:00:00.49
     Peak level 100.0 %
     Extraction speed 1.0 X
     Track quality 100.0 %
     Test CRC 6DF9038A
     Copy CRC 6DF9038A
     Copy OK
Track  5
     Filename E:\Die Sektor - Applied Structure In A Void - FLAC - 2011\05 - Die Sektor - Death At First Light.wav
     Pre-gap length  0:00:00.21
     Peak level 99.5 %
     Extraction speed 0.9 X
     Track quality 99.9 %
     Test CRC A3CE5318
     Copy CRC A3CE5318
     Copy OK
Track  6
     Filename E:\Die Sektor - Applied Structure In A Void - FLAC - 2011\06 - Die Sektor - Corpus Accido.wav
     Pre-gap length  0:00:00.08
     Peak level 99.7 %
     Extraction speed 1.1 X
     Track quality 100.0 %
     Test CRC 428EF5EB
     Copy CRC 428EF5EB
     Copy OK
Track  7
     Filename E:\Die Sektor - Applied Structure In A Void - FLAC - 2011\07 - Die Sektor - In His Mercy All Will Perish.wav
     Pre-gap length  0:00:00.12
     Peak level 99.7 %
     Extraction speed 1.0 X
     Track quality 100.0 %
     Test CRC 2CBADCF9
     Copy CRC 2CBADCF9
     Copy OK
Track  8
     Filename E:\Die Sektor - Applied Structure In A Void - FLAC - 2011\08 - Die Sektor - Bleed Till The Last Light Flickers.wav
     Pre-gap length  0:00:00.06
     Peak level 99.7 %
     Extraction speed 1.1 X
     Track quality 100.0 %
     Test CRC FCCF3712
     Copy CRC FCCF3712
     Copy OK
Track  9
     Filename E:\Die Sektor - Applied Structure In A Void - FLAC - 2011\09 - Die Sektor - First Murder After The Flood.wav
     Pre-gap length  0:00:02.20
     Peak level 100.0 %
     Extraction speed 1.0 X
     Track quality 99.9 %
     Test CRC 74C1274C
     Copy CRC 74C1274C
     Copy OK
Track 10
     Filename E:\Die Sektor - Applied Structure In A Void - FLAC - 2011\10 - Die Sektor - Infernal.wav
     Pre-gap length  0:00:01.98
     Peak level 99.7 %
     Extraction speed 1.2 X
     Track quality 100.0 %
     Test CRC 2F03894C
     Copy CRC 2F03894C
     Copy OK
Track 11
     Filename E:\Die Sektor - Applied Structure In A Void - FLAC - 2011\11 - Die Sektor - Divide To Dust.wav
     Pre-gap length  0:00:00.14
     Peak level 99.7 %
     Extraction speed 1.3 X
     Track quality 100.0 %
     Test CRC F0D627C4
     Copy CRC F0D627C4
     Copy OK
Track 12
     Filename E:\Die Sektor - Applied Structure In A Void - FLAC - 2011\12 - Die Sektor - Heaven Sent Hell Embraced (DYM Remix).wav
     Pre-gap length  0:00:00.29
     Peak level 100.0 %
     Extraction speed 1.5 X
     Track quality 100.0 %
     Test CRC C49D8617
     Copy CRC C49D8617
     Copy OK
Track 13
     Filename E:\Die Sektor - Applied Structure In A Void - FLAC - 2011\13 - Die Sektor - Corpus Accido (vPROJEKT Remix).wav
     Pre-gap length  0:00:00.12
     Peak level 100.0 %
     Extraction speed 1.5 X
     Track quality 100.0 %
     Test CRC EF8767FF
     Copy CRC EF8767FF
     Copy OK
Track 14
     Filename E:\Die Sektor - Applied Structure In A Void - FLAC - 2011\14 - Die Sektor - Accelerant (LEXINCRYPT Remix).wav
     Pre-gap length  0:00:01.98
     Peak level 99.7 %
     Extraction speed 1.6 X
     Track quality 100.0 %
     Test CRC 9CE1BB01
     Copy CRC 9CE1BB01
     Copy OK
Track 15
     Filename E:\Die Sektor - Applied Structure In A Void - FLAC - 2011\15 - Die Sektor - Fall To The Noise (Pleasant Dreams Mix).wav
     Pre-gap length  0:00:00.09
     Peak level 99.7 %
     Extraction speed 1.8 X
     Track quality 100.0 %
     Test CRC 814D8958
     Copy CRC 814D8958
     Copy OK
No errors occurred
End of status report
Код:
REM GENRE Industrial
REM DATE 2011
REM DISCID C612A60F
REM COMMENT "ExactAudioCopy v1.0b1"
PERFORMER "Die Sektor"
TITLE "Applied Structure In A Void"
FILE "01 - Die Sektor - Accelerant.flac" FLAC
  TRACK 01 AUDIO
    TITLE "Accelerant"
    PERFORMER "Die Sektor"
    INDEX 01 00:00:00
  TRACK 02 AUDIO
    TITLE "Dissector"
    PERFORMER "Die Sektor"
    INDEX 00 05:47:56
FILE "02 - Die Sektor - Dissector.flac" FLAC
    INDEX 01 00:00:00
  TRACK 03 AUDIO
    TITLE "Fall To The Noise"
    PERFORMER "Die Sektor"
    INDEX 00 03:28:35
FILE "03 - Die Sektor - Fall To The Noise.flac" FLAC
    INDEX 01 00:00:00
  TRACK 04 AUDIO
    TITLE "Heaven Sent Hell Embraced"
    PERFORMER "Die Sektor"
    INDEX 00 04:53:07
FILE "04 - Die Sektor - Heaven Sent Hell Embraced.flac" FLAC
    INDEX 01 00:00:00
  TRACK 05 AUDIO
    TITLE "Death At First Light"
    PERFORMER "Die Sektor"
    INDEX 00 04:48:38
FILE "05 - Die Sektor - Death At First Light.flac" FLAC
    INDEX 01 00:00:00
  TRACK 06 AUDIO
    TITLE "Corpus Accido"
    PERFORMER "Die Sektor"
    INDEX 00 04:54:59
FILE "06 - Die Sektor - Corpus Accido.flac" FLAC
    INDEX 01 00:00:00
  TRACK 07 AUDIO
    TITLE "In His Mercy All Will Perish "
    PERFORMER "Die Sektor"
    INDEX 00 06:23:43
FILE "07 - Die Sektor - In His Mercy All Will Perish.flac" FLAC
    INDEX 01 00:00:00
  TRACK 08 AUDIO
    TITLE "Bleed Till The Last Light Flickers "
    PERFORMER "Die Sektor"
    INDEX 00 03:44:07
FILE "08 - Die Sektor - Bleed Till The Last Light Flickers.flac" FLAC
    INDEX 01 00:00:00
  TRACK 09 AUDIO
    TITLE "First Murder After The Flood"
    PERFORMER "Die Sektor"
    INDEX 00 04:36:45
FILE "09 - Die Sektor - First Murder After The Flood.flac" FLAC
    INDEX 01 00:00:00
  TRACK 10 AUDIO
    TITLE "Infernal"
    PERFORMER "Die Sektor"
    INDEX 00 05:13:08
FILE "10 - Die Sektor - Infernal.flac" FLAC
    INDEX 01 00:00:00
  TRACK 11 AUDIO
    TITLE "Divide To Dust"
    PERFORMER "Die Sektor"
    INDEX 00 06:10:11
FILE "11 - Die Sektor - Divide To Dust.flac" FLAC
    INDEX 01 00:00:00
  TRACK 12 AUDIO
    TITLE "Heaven Sent Hell Embraced (DYM Remix)"
    PERFORMER "Die Sektor"
    INDEX 00 06:02:04
FILE "12 - Die Sektor - Heaven Sent Hell Embraced (DYM Remix).flac" FLAC
    INDEX 01 00:00:00
  TRACK 13 AUDIO
    TITLE "Corpus Accido (vPROJEKT Remix)"
    PERFORMER "Die Sektor"
    INDEX 00 03:43:61
FILE "13 - Die Sektor - Corpus Accido (vPROJEKT Remix).flac" FLAC
    INDEX 01 00:00:00
  TRACK 14 AUDIO
    TITLE "Accelerant (LEXINCRYPT Remix)"
    PERFORMER "Die Sektor"
    INDEX 00 08:13:23
FILE "14 - Die Sektor - Accelerant (LEXINCRYPT Remix).flac" FLAC
    INDEX 01 00:00:00
  TRACK 15 AUDIO
    TITLE "Fall To The Noise (Pleasant Dreams Mix)"
    PERFORMER "Die Sektor"
    INDEX 00 06:36:73
FILE "15 - Die Sektor - Fall To The Noise (Pleasant Dreams Mix).flac" FLAC
    INDEX 01 00:00:00
Код:
AUDIOCHECKER v2.0 beta (build 457) - by Dester - opdester@freemail.hu
~~~~~~~~~~~~~~~~~~~~~~~~~~~~~~~~~~
-=== DO NOT EDIT THIS FILE! ===-
Path: ...\Die Sektor - Applied Structure In A Void [Japenese Ltd. Ed] (2011) EAC-FLAC
01 -=- 01 - Die Sektor - Accelerant.flac -=- CDDA (99%)
02 -=- 02 - Die Sektor - Dissector.flac -=- CDDA (100%)
03 -=- 03 - Die Sektor - Fall To The Noise.flac -=- CDDA (100%)
04 -=- 04 - Die Sektor - Heaven Sent Hell Embraced.flac -=- CDDA (100%)
05 -=- 05 - Die Sektor - Death At First Light.flac -=- CDDA (100%)
06 -=- 06 - Die Sektor - Corpus Accido.flac -=- CDDA (99%)
07 -=- 07 - Die Sektor - In His Mercy All Will Perish.flac -=- CDDA (100%)
08 -=- 08 - Die Sektor - Bleed Till The Last Light Flickers.flac -=- CDDA (100%)
09 -=- 09 - Die Sektor - First Murder After The Flood.flac -=- CDDA (100%)
10 -=- 10 - Die Sektor - Infernal.flac -=- CDDA (100%)
11 -=- 11 - Die Sektor - Divide To Dust.flac -=- CDDA (100%)
12 -=- 12 - Die Sektor - Heaven Sent Hell Embraced (DYM Remix).flac -=- CDDA (100%)
13 -=- 13 - Die Sektor - Corpus Accido (vPROJEKT Remix).flac -=- CDDA (100%)
14 -=- 14 - Die Sektor - Accelerant (LEXINCRYPT Remix).flac -=- CDDA (100%)
15 -=- 15 - Die Sektor - Fall To The Noise (Pleasant Dreams Mix).flac -=- CDDA (100%)
Summary 99,87% CDDA
267560292
Daniel Gant — Vocals
Edwin Alter - Vocals, Programming
Scott Denman — Programming
Alan Smith — Programming
Mastered by - Brian “Big Bass” Gardner (Dr. Dre, KMFDM, Nine Inch Nails)
Правила, инструкции, FAQ!!!
Торрент  Добавлен [26 июн 2020, 19:53] Скачать торрент Магнет ссылка
Скачать торрент
[ Размер 13.05 КБ / Просмотров 12 ]

Статус
Проверен 
 
Размер  573.18 МБ
Приватный: Нет (DHT включён)
.torrent скачан  0
 


     Отправить личное сообщение
   
Страница 1 из 1
Показать сообщения за:  Поле сортировки  
Начать новую тему Ответить на тему


Сейчас этот форум просматривают: нет зарегистрированных пользователей и гости: 0


Вы не можете начинать темы
Вы не можете отвечать на сообщения
Вы не можете редактировать свои сообщения
Вы не можете удалять свои сообщения
Вы не можете добавлять вложения

Перейти:  
cron