Начать новую тему Ответить на тему
Статистика раздачи
Размер: 543.65 МБ | Добавлен: 26 июн 2020, 17:12 | Скачали: 0
Сидеров: 0  [0 байт/сек]    Личеров: 0  [0 байт/сек]
Пред. тема | След. тема 

Автор
Сообщение

СообщениеДобавлено: 26 июн 2020, 17:12 

Ответить с цитатой 

Holocoder - War Infection

Жанр: Dark Electro/EBM
Страна-производитель диска: Russia
Год издания диска: 2011
Издатель (лейбл): Gravitator Records
Номер по каталогу: GRR 126
Страна: Russia
Аудио кодек: APE (*.ape)
Тип рипа: image+.cue (test & copy)
Битрейт аудио: lossless
Продолжительность: 01:13:50
Источник (релизер): rd (moole.ru)
Наличие сканов в содержимом раздачи: да
Треклист:
01. God Mission (04:22)
02. Enemy Nation (03:44)
03. My Fight (05:04)
04. Levitation (05:08)
05. War Infection (03:24)
06. Police State (04:30)
07. War Ich Night (05:56)
08. Golgofa (04:51)
09. War Infection (Nuclear Mix 0.2) (04:01)
10. God Mission (Purple Fog Side Remix) (04:00)
11. Enemy Nation (Torch Project Remix) (05:30)
12. Enemy Nation (Synthetic Expansion Remix) (04:42)
13. Enemy Nation (Project Eva Remix) (03:58)
14. Enemy Nation (Synthetic Squad Remix) (04:40)
15. War Ich Night (Haloed Ghost Remix) (04:42)
16. Unknown (05:15)


Код:
Exact Audio Copy V0.99 prebeta 5 from 4. May 2009
EAC extraction logfile from 24. March 2011, 22:55
HOLOCODER / War Infection
Used drive  : PLEXTOR DVDR   PX-860A   Adapter: 0  ID: 0
Read mode               : Secure
Utilize accurate stream : Yes
Defeat audio cache      : Yes
Make use of C2 pointers : No
Read offset correction                      : 96
Overread into Lead-In and Lead-Out          : No
Fill up missing offset samples with silence : Yes
Delete leading and trailing silent blocks   : No
Null samples used in CRC calculations       : Yes
Used interface                              : Installed external ASPI interface
Used output format              : Monkey's Audio Lossless Encoder
Selected bitrate                : Normal Lossless Compression
Quality                         : High
Add ID3 tag                     : Yes
Command line compressor         : C:\Program Files\Monkey's Audio\MAC.exe
TOC of the extracted CD
     Track |   Start  |  Length  | Start sector | End sector
    ---------------------------------------------------------
        1  |  0:00.00 |  4:22.00 |         0    |    19649
        2  |  4:22.00 |  3:44.00 |     19650    |    36449
        3  |  8:06.00 |  5:04.00 |     36450    |    59249
        4  | 13:10.00 |  5:08.42 |     59250    |    82391
        5  | 18:18.42 |  3:24.00 |     82392    |    97691
        6  | 21:42.42 |  4:30.00 |     97692    |   117941
        7  | 26:12.42 |  5:56.00 |    117942    |   144641
        8  | 32:08.42 |  4:51.68 |    144642    |   166534
        9  | 37:00.35 |  4:01.15 |    166535    |   184624
       10  | 41:01.50 |  4:00.55 |    184625    |   202679
       11  | 45:02.30 |  5:30.01 |    202680    |   227430
       12  | 50:32.31 |  4:42.16 |    227431    |   248596
       13  | 55:14.47 |  3:58.10 |    248597    |   266456
       14  | 59:12.57 |  4:40.00 |    266457    |   287456
       15  | 63:52.57 |  4:42.13 |    287457    |   308619
       16  | 68:34.70 |  5:16.00 |    308620    |   332319
Range status and errors
Selected range
     Filename J:\MUSIC\HOLOCODER - War Infection.wav
     Peak level 99.2 %
     Range quality 100.0 %
     Test CRC 69A9447A
     Copy CRC 69A9447A
     Copy OK
No errors occurred
AccurateRip summary
Track  1  not present in database
Track  2  not present in database
Track  3  not present in database
Track  4  not present in database
Track  5  not present in database
Track  6  not present in database
Track  7  not present in database
Track  8  not present in database
Track  9  not present in database
Track 10  not present in database
Track 11  not present in database
Track 12  not present in database
Track 13  not present in database
Track 14  not present in database
Track 15  not present in database
Track 16  not present in database
None of the tracks are present in the AccurateRip database
End of status report
AUDIOCHECKER v2.0 beta (build 457) - by Dester - opdester@freemail.hu
~~~~~~~~~~~~~~~~~~~~~~~~~~~~~~~~~~
Начато: пятница, 01. 04. 2011. - 19:34.43
Найдено файлов: 1
1 -===- D:\Sautumnblaze\Holocoder - War Infection (2011)\HOLOCODER - War Infection.ape
Извлечение успешно выполнено
Заключение: этот трек - CDDA с вероятностью 100%
Временный файл удалён.
Завершено: пятница, 01. 04. 2011. - 19:44.31 (Время операции: 0:09.48)
HOLOCODER – один из старейших Dark Electro/EBM коллективов нашей страны. Лидер и основатель группы Сергей Powerman начал первые опыты с индустриальным звучанием еще в 1989-м году. Почти семь лет прошло с момента выхода дебютного диска HOLOCODER «Psalom 2003», в 2004-м вышедшего на питерском независимом лейбле Fight Muzik и разошедшегося по всей стране. А благодаря активной гастрольной политике, группа стала хорошо известна за пределами своего родного города-героя Волгограда.
Материал для нового альбома «War Infection» записывался в период с 2007-го по 2010-й год. HOLOCODER открывает новые грани своего творчества. Боль, отчаяние и вечный бой c чужеродными демонами обретает новый смысл и энергию в каждом треке. Многих поклонников жанра порадует насыщенное electro/EBM звучание, отлично совмещающее классические «олд-скульные» элементы и современные фишки «кибер»-стиля. Все это, вкупе с жестким агрессивным вокалом создает действительно яркое и индивидуальное впечатление. Лирика песен коллектива традиционно англоязычная. Практически все треки скоростные и динамичные. Если говорить о неизбежных музыкальных параллелях, на ум приходят такие коллективы как SUICIDE COMMANDO, FUNKER VOGT и ELECTRO SYNTHETIC REBELLION.
Альбом состоит из 16-ти треков - 8-ми концептуальных композиций и секции ремиксов, к которой приложили руку такие коллективы как PURPLE FOG SIDE, SINTHETIC SQUAD, TORCH PROJECT, TOXISECTOR, PROJECT EVA, HALOED GHOST, и архангельский проект SYNTHETIC EXPANSION.
Военная тематика песен HOLOCODER неслучайна. Война это не просто наша история, это то, что происходит сейчас. Каждый миг кто-то умирает от пули врага, а жертвы глобальных войн 20-го века не поддаются никакому разумному пониманию и математическому исчислению.
«Инфекция войны» - так дословно переводится название альбома. Инфицированные ненавистью друг к другу и к окружающему миру индивиды живут рядом с нами. Решающая битва неотвратима. И каждый, кто задумывался о своем будущем, кто верит в сильную и свободную от гнета чужеродных ценностей страну.
Главной посыл альбома – быть стойким и мужественным в борьбе за свое человеческое достоинство, быть честным и искренним, прежде всего с самим собой. Вражеская нация это не какая-то конкретная национальность, это гибрид мутировавших в постиндустриальную эпоху индивидуумов, завоевавших власть и способность управлять миром посредством человекообразных носителей. Ложь, зависть, корысть, жажда наживы – и многое другое питает эту чужеродную нацию. Не все в состоянии победить в себе лень и апатию и выйти на борьбу. Только сильнейший сможет одолеть врага, в том числе того, кто сидит внутри тебя самого.
Правила, инструкции, FAQ!!!
Торрент  Добавлен [26 июн 2020, 17:12] Скачать торрент Магнет ссылка
Скачать торрент
[ Размер 2.13 КБ / Просмотров 2 ]

Статус
Проверен 
 
Размер  543.65 МБ
Приватный: Нет (DHT включён)
.torrent скачан  0
 


     Отправить личное сообщение
   
Страница 1 из 1
Показать сообщения за:  Поле сортировки  
Начать новую тему Ответить на тему


Сейчас этот форум просматривают: нет зарегистрированных пользователей и гости: 0


Вы не можете начинать темы
Вы не можете отвечать на сообщения
Вы не можете редактировать свои сообщения
Вы не можете удалять свои сообщения
Вы не можете добавлять вложения

Перейти:  
cron