Начать новую тему Ответить на тему
Статистика раздачи
Размер: 329.42 МБ | Добавлен: 26 июн 2020, 17:40 | Скачали: 0
Сидеров: 0  [0 байт/сек]    Личеров: 0  [0 байт/сек]
Пред. тема | След. тема 

Автор
Сообщение

СообщениеДобавлено: 26 июн 2020, 17:40 

Ответить с цитатой 

Dementia Simplex / Prediction
Жанр: Dark Electro, EBM
Страна-производитель диска: Germany
Год издания диска: 1995
Издатель (лейбл): Off Beat
Номер по каталогу: SPV 084-22262
Страна: Germany
Аудио кодек: FLAC (*.flac)
Тип рипа: image+.cue
Битрейт аудио: lossless
Продолжительность: 55:03
Источник (релизер): Личный CD
Наличие сканов в содержимом раздачи: да
Треклист:
01. First Things 2:05
02. Trauma 5:13
03. Die Down 4:00
04. Beast Within 4:49
05. Eaten Alive 5:21
06. Hell On Earth 4:52
07. Tortured Animal 5:02
08. Candlelight 4:13
09. Cinderchild 5:07
10. Xenophobia 5:29
11. Mentally Disturbed 2:21
12. Last Things 6:29
Код:
Exact Audio Copy V0.99 prebeta 5 from 4. May 2009
Отчёт EAC об извлечении, выполненном 20. января 2011, 13:56
Dementia Simplex / 1995 - Prediction
Дисковод: HL-DT-STDVDRAM GT20N   Adapter: 0  ID: 1
Режим чтения                 : Достоверность
Использование точного потока : Да
Отключение кэша аудио        : Да
Использование указателей C2  : Нет
Коррекция смещения при чтении                     : 667
Способность читать области Lead-in и Lead-out     : Нет
Заполнение пропущенных сэмплов тишиной            : Да
Удаление блоков с тишиной в начале и конце        : Нет
При вычислениях CRC использовались нулевые сэмплы : Да
Интерфейс                                         : Встроенный Win32-интерфейс для Win NT/2000
Выходной формат          : Пользовательский кодировщик
Выбранный битрейт        : 768 kBit/s
Качество                 : Высокий
Добавление ID3-тэга      : Нет
Утилита сжатия           : C:\Program Files (x86)\Exact Audio Copy\FLAC\FLAC.EXE
Дополнительные параметры : -6 -V -T "ARTIST=%a" -T "TITLE=%t" -T "ALBUM=%g" -T "DATE=%y" -T "TRACKNUMBER=%n" -T "GENRE=%m" -T "COMMENT=%e" %s -o %d
TOC извлечённого CD
     Трек |   Старт  | Длительность | Начальный сектор | Конечный сектор
    ---------------------------------------------------------------------
       1  |  0:00.32 |    2:04.63   |          32      |       9394
       2  |  2:05.20 |    5:12.55   |        9395      |      32849
       3  |  7:18.00 |    4:00.10   |       32850      |      50859
       4  | 11:18.10 |    4:48.67   |       50860      |      72526
       5  | 16:07.02 |    5:21.03   |       72527      |      96604
       6  | 21:28.05 |    4:52.52   |       96605      |     118556
       7  | 26:20.57 |    5:01.43   |      118557      |     141174
       8  | 31:22.25 |    4:12.57   |      141175      |     160131
       9  | 35:35.07 |    5:07.40   |      160132      |     183196
      10  | 40:42.47 |    5:29.20   |      183197      |     207891
      11  | 46:11.67 |    2:21.05   |      207892      |     218471
      12  | 48:32.72 |    6:28.35   |      218472      |     247606
Характеристики диапазона извлечения и сообщения об ошибках
Выбранный диапазон
     Имя файла C:\Users\sony\Music\Dementia Simplex\Dementia Simplex - 1995 - Prediction.wav
     Пиковый уровень 99.0 %
     Качество диапазона 100.0 %
     CRC копии 6F329925
     Копирование... OK
Ошибок не произошло
AccurateRip: сводка
Трек  1  точное извлечение (доверие 3)  [64626396]
Трек  2  точное извлечение (доверие 3)  [078507A3]
Трек  3  точное извлечение (доверие 3)  [323502A8]
Трек  4  точное извлечение (доверие 3)  [48553AA3]
Трек  5  точное извлечение (доверие 3)  [24E3A734]
Трек  6  точное извлечение (доверие 3)  [596C2EB7]
Трек  7  точное извлечение (доверие 3)  [1E8AD555]
Трек  8  точное извлечение (доверие 3)  [F8651681]
Трек  9  точное извлечение (доверие 3)  [4C2A5006]
Трек 10  точное извлечение (доверие 3)  [909B0473]
Трек 11  точное извлечение (доверие 3)  [CE461B04]
Трек 12  точное извлечение (доверие 3)  [E9D58FE9]
Все треки извлечены точно
Конец отчёта
Код:
[img]http://i16.fastpic.ru/big/2011/0124/d5/782ed761a85c30d9b3a85c7cc1edeed5.jpg[/img]
Frank Feldt - Keyboards, Voice-Recording
Thorsten Fries - Programming, Keys, Guitar, Mix, Recording, Sampling
Sascha Herrmann - Lyrics, Sampling, Acoustic Drums, Electro-Drums
Mario Nier - Guitar
Thomas Reis - Bass
Klaus Weisser - Vocals, Lyrics, Keys, Guitar, Sampling
Другие мои раздачи (lossless):Beherit "Electric Doom Synthesis" 1996
Birmingham 6 "Assassinate" 1995
Bloodstar "Anytime - Anywhere" 1992
Candiru "Unloved And Weeded Out" 1992
Data-Bank-A "Nuclear Winter" 1995
In Absentia "Darkness" 1995
Lights Of Euphoria без названия 1995
[*]Ultraviolence "Psycho Drama" 1995
Правила, инструкции, FAQ!!!
Торрент  Добавлен [26 июн 2020, 17:40] Скачать торрент Магнет ссылка
Скачать торрент
[ Размер 13.93 КБ / Просмотров 8 ]

Статус
Проверен 
 
Размер  329.42 МБ
Приватный: Нет (DHT включён)
.torrent скачан  0
 


     Отправить личное сообщение
   
Страница 1 из 1
Показать сообщения за:  Поле сортировки  
Начать новую тему Ответить на тему


Сейчас этот форум просматривают: нет зарегистрированных пользователей и гости: 0


Вы не можете начинать темы
Вы не можете отвечать на сообщения
Вы не можете редактировать свои сообщения
Вы не можете удалять свои сообщения
Вы не можете добавлять вложения

Перейти:  
cron