Начать новую тему Ответить на тему
Статистика раздачи
Размер: 403.15 МБ | Добавлен: 26 июн 2020, 18:55 | Скачали: 0
Сидеров: 0  [0 байт/сек]    Личеров: 0  [0 байт/сек]
Пред. тема | След. тема 

Автор
Сообщение

СообщениеДобавлено: 26 июн 2020, 18:55 

Ответить с цитатой 

Cenobita - Neo Milenio

Жанр: Dark Electro, EBM
Страна-производитель диска: Germany
Год издания диска: 2001
Издатель (лейбл): Matrix Cube, [Trisol] Music Group GmbH
Номер по каталогу: TRI 104 CD, TRI 104 CD
Страна: Мексика
Аудио кодек: FLAC (*.flac)
Тип рипа: tracks+.cue
Битрейт аудио: lossless
Продолжительность: 00:58:47
Источник (релизер): Waffles.fm
Наличие сканов в содержимом раздачи: discogs.com
Треклист:
01. Prisionero (5:02)
02. Confessions (5:37)
03. Mensaje (5:10)
04. Dependency (6:25)
05. Cristo 2000 (7:20)
06. Scabious Snout (4:31)
07. Earth (4:36)
08. Cairo (2:51)
09. Insurrection (6:12)
10. Intolerar (5:23)
11. Gente (5:40)
Код:
Exact Audio Copy V0.99 prebeta 4 from 23. January 2008
EAC extraction logfile from 24. September 2008, 18:35
Cenobita / Neo Milenio
Used drive  : TSSTcorpDVD+-RW TS-H653B   Adapter: 1  ID: 0
Read mode               : Secure
Utilize accurate stream : Yes
Defeat audio cache      : Yes
Make use of C2 pointers : No
Read offset correction                      : 6
Overread into Lead-In and Lead-Out          : No
Fill up missing offset samples with silence : Yes
Delete leading and trailing silent blocks   : No
Null samples used in CRC calculations       : Yes
Used interface                              : Installed external ASPI interface
Gap handling                                : Appended to previous track
Used output format              : User Defined Encoder
Selected bitrate                : 192 kBit/s
Quality                         : High
Add ID3 tag                     : No
Command line compressor         : C:\Program Files\Exact Audio Copy\Flac\flac.exe
Additional command line options : -V -8 -T "artist=%a" -T "title=%t" -T "album=%g" -T "date=%y" -T "tracknumber=%n" -T "genre=%m" %s
TOC of the extracted CD
     Track |   Start  |  Length  | Start sector | End sector
    ---------------------------------------------------------
        1  |  0:00.00 |  5:02.35 |         0    |    22684
        2  |  5:02.35 |  5:37.12 |     22685    |    47971
        3  | 10:39.47 |  5:10.23 |     47972    |    71244
        4  | 15:49.70 |  6:24.50 |     71245    |   100094
        5  | 22:14.45 |  7:19.50 |    100095    |   133069
        6  | 29:34.20 |  4:30.70 |    133070    |   153389
        7  | 34:05.15 |  4:35.70 |    153390    |   174084
        8  | 38:41.10 |  2:50.50 |    174085    |   186884
        9  | 41:31.60 |  6:12.07 |    186885    |   214791
       10  | 47:43.67 |  5:23.33 |    214792    |   239049
       11  | 53:07.25 |  5:39.52 |    239050    |   264526
Track  1
     Filename C:\A\Cenobita - Neo Milenio [flac]\01 - Prisionero.wav
     Pre-gap length  0:00:02.00
     Peak level 96.6 %
     Track quality 100.0 %
     Test CRC 40EF2DE9
     Copy CRC 40EF2DE9
     Track not present in AccurateRip database
     Copy OK
Track  2
     Filename C:\A\Cenobita - Neo Milenio [flac]\02 - Confessions.wav
     Pre-gap length  0:00:03.57
     Peak level 96.6 %
     Track quality 100.0 %
     Test CRC 173A709E
     Copy CRC 173A709E
     Track not present in AccurateRip database
     Copy OK
Track  3
     Filename C:\A\Cenobita - Neo Milenio [flac]\03 - Mensaje.wav
     Pre-gap length  0:00:03.56
     Peak level 96.6 %
     Track quality 100.0 %
     Test CRC 6A4C9BA0
     Copy CRC 6A4C9BA0
     Track not present in AccurateRip database
     Copy OK
Track  4
     Filename C:\A\Cenobita - Neo Milenio [flac]\04 - Dependency.wav
     Pre-gap length  0:00:03.57
     Peak level 96.6 %
     Track quality 100.0 %
     Test CRC B2747F8B
     Copy CRC B2747F8B
     Track not present in AccurateRip database
     Copy OK
Track  5
     Filename C:\A\Cenobita - Neo Milenio [flac]\05 - Cristo 2000.wav
     Pre-gap length  0:00:03.57
     Peak level 96.6 %
     Track quality 99.9 %
     Test CRC 5C7FA878
     Copy CRC 5C7FA878
     Track not present in AccurateRip database
     Copy OK
Track  6
     Filename C:\A\Cenobita - Neo Milenio [flac]\06 - Scabious Snout.wav
     Pre-gap length  0:00:03.57
     Peak level 96.6 %
     Track quality 100.0 %
     Test CRC BC816011
     Copy CRC BC816011
     Track not present in AccurateRip database
     Copy OK
Track  7
     Filename C:\A\Cenobita - Neo Milenio [flac]\07 - Earth.wav
     Pre-gap length  0:00:03.57
     Peak level 96.6 %
     Track quality 99.9 %
     Test CRC 802199F7
     Copy CRC 802199F7
     Track not present in AccurateRip database
     Copy OK
Track  8
     Filename C:\A\Cenobita - Neo Milenio [flac]\08 - Cairo.wav
     Pre-gap length  0:00:03.57
     Peak level 96.6 %
     Track quality 99.9 %
     Test CRC D23B7412
     Copy CRC D23B7412
     Track not present in AccurateRip database
     Copy OK
Track  9
     Filename C:\A\Cenobita - Neo Milenio [flac]\09 - Insurrection.wav
     Pre-gap length  0:00:03.57
     Peak level 96.6 %
     Track quality 100.0 %
     Test CRC FC5D2243
     Copy CRC FC5D2243
     Track not present in AccurateRip database
     Copy OK
Track 10
     Filename C:\A\Cenobita - Neo Milenio [flac]\10 - Intolerar.wav
     Pre-gap length  0:00:03.56
     Peak level 96.6 %
     Track quality 99.9 %
     Test CRC 71054728
     Copy CRC 71054728
     Track not present in AccurateRip database
     Copy OK
Track 11
     Filename C:\A\Cenobita - Neo Milenio [flac]\11 - Gente.wav
     Pre-gap length  0:00:03.57
     Peak level 96.6 %
     Track quality 99.9 %
     Test CRC 7A26FE60
     Copy CRC 7A26FE60
     Track not present in AccurateRip database
     Copy OK
None of the tracks are present in the AccurateRip database
No errors occurred
End of status report
Код:
REM GENRE Industrial
REM DATE 1999
REM DISCID 980DC70B
REM COMMENT "ExactAudioCopy v0.99pb4"
PERFORMER "Cenobita"
TITLE "Neo Milenio"
FILE "01 - Prisionero.wav" WAVE
  TRACK 01 AUDIO
    TITLE "Prisionero"
    PERFORMER "Cenobita"
    INDEX 01 00:00:00
  TRACK 02 AUDIO
    TITLE "Confessions"
    PERFORMER "Cenobita"
    INDEX 00 04:58:67
FILE "02 - Confessions.wav" WAVE
    INDEX 01 00:00:00
  TRACK 03 AUDIO
    TITLE "Mensaje"
    PERFORMER "Cenobita"
    INDEX 00 05:33:45
FILE "03 - Mensaje.wav" WAVE
    INDEX 01 00:00:00
  TRACK 04 AUDIO
    TITLE "Dependency"
    PERFORMER "Cenobita"
    INDEX 00 05:06:55
FILE "04 - Dependency.wav" WAVE
    INDEX 01 00:00:00
  TRACK 05 AUDIO
    TITLE "Cristo 2000"
    PERFORMER "Cenobita"
    INDEX 00 06:21:07
FILE "05 - Cristo 2000.wav" WAVE
    INDEX 01 00:00:00
  TRACK 06 AUDIO
    TITLE "Scabious Snout"
    PERFORMER "Cenobita"
    INDEX 00 07:16:07
FILE "06 - Scabious Snout.wav" WAVE
    INDEX 01 00:00:00
  TRACK 07 AUDIO
    TITLE "Earth"
    PERFORMER "Cenobita"
    INDEX 00 04:27:27
FILE "07 - Earth.wav" WAVE
    INDEX 01 00:00:00
  TRACK 08 AUDIO
    TITLE "Cairo"
    PERFORMER "Cenobita"
    INDEX 00 04:32:27
FILE "08 - Cairo.wav" WAVE
    INDEX 01 00:00:00
  TRACK 09 AUDIO
    TITLE "Insurrection"
    PERFORMER "Cenobita"
    INDEX 00 02:47:07
FILE "09 - Insurrection.wav" WAVE
    INDEX 01 00:00:00
  TRACK 10 AUDIO
    TITLE "Intolerar"
    PERFORMER "Cenobita"
    INDEX 00 06:08:40
FILE "10 - Intolerar.wav" WAVE
    INDEX 01 00:00:00
  TRACK 11 AUDIO
    TITLE "Gente"
    PERFORMER "Cenobita"
    INDEX 00 05:19:65
FILE "11 - Gente.wav" WAVE
    INDEX 01 00:00:00
Cenobita's history begins in 1993, in Mexico City, from the ashes of an alternative band named Nefelheim, where Claus Bita (machinery and vox) and Omar Flo (vox) met. Due to the mutual interest for electronic music the band was born. In the beginning Cenobita used extensive distorted guitars, with percusive sequences, violent rythms and melodic tunes, all set in a crossover style. The distorted, acid texture, irritating and shredding voice was the best way to describe cyberpunk themes, like our own actual scenery.
Claus Bita, Omar Flo

Правила, инструкции, FAQ!!!
Торрент  Добавлен [26 июн 2020, 18:55] Скачать торрент Магнет ссылка
Скачать торрент
[ Размер 17.05 КБ / Просмотров 9 ]

Статус
Проверен 
 
Размер  403.15 МБ
Приватный: Нет (DHT включён)
.torrent скачан  0
 


     Отправить личное сообщение
   
Страница 1 из 1
Показать сообщения за:  Поле сортировки  
Начать новую тему Ответить на тему


Сейчас этот форум просматривают: нет зарегистрированных пользователей и гости: 0


Вы не можете начинать темы
Вы не можете отвечать на сообщения
Вы не можете редактировать свои сообщения
Вы не можете удалять свои сообщения
Вы не можете добавлять вложения

Перейти:  
cron