Начать новую тему Ответить на тему
Статистика раздачи
Размер: 1.3 ГБ | Добавлен: 26 июн 2020, 19:06 | Скачали: 0
Сидеров: 0  [0 байт/сек]    Личеров: 0  [0 байт/сек]
Пред. тема | След. тема 

Автор
Сообщение

СообщениеДобавлено: 26 июн 2020, 19:06 

Ответить с цитатой 

amGod - Half Rotten And Decayed - Ltd. Box set
Жанр: Dark Electro
Год выпуска диска: 2004
Производитель диска: Germany
Лэйбл: Celtic Circle Productions
Номер по каталогу: CCP-013-BOX
Формат: 3xCD + DVD Box, Ltd. to 1999 copies
Аудио кодек: FLAC
Тип рипа: image+.cue
Битрейт аудио: lossless
Продолжительность: 193:44 min
Доп. информация:
amGod - проект Dominik'a Van Reich'a - бывшего участника легендарной формации yelworC, основавшей стиль Dark Electro.
Бокс содержит ремастированное переиздание культового альбома amGod - Half Rotten And Decayed 1994 года, ранее не издававшийся альбом Crime!, записанный между 1997 и 1999 годами, аудио и видео записи концерта 25.06.1994 в Крефелде, Германия и бонус-треки.
Release Music Magazine (10/10)
#777CD1-01 Amgod (0:44)
Vocals - B. Young
CD1-02 Fall Out (5:05)
CD1-03 Fire V.2 (6:17)
CD1-04 Silence Besides The Sun (4:20)
CD1-05 Braindead (2:44)
CD1-06 Pain Laughter (4:57)
CD1-07 Leben-Tod (4:06)
Vocals - Alexandroid
CD1-08 Overlove (6:06)
Vocals - B. Young
CD1-09 Deathwill (3:28)
CD1-10 Dogma (Part 2 >>Monotheism<<) (2:01)
CD1-11 Dogma (Part 3 >>Gismo<<) (6:06)
CD1-12 Dogma (Part 4 >>Half Rotten And Decayed<<) (5:06)
CD1-13 Dogma (Part 5 >>Dreamscape<<) (2:17)
CD1-14 Crush! (1:18)
CD1-15 Fire V.3 (4:24)
CD1-16 Stigmata (4:23)
Код:
Exact Audio Copy V0.99 prebeta 4 from 23. January 2008
EAC extraction logfile from 28. March 2009, 10:26
amGod / Half Rotten And Decayed
Used drive  : _NEC    DVD_RW ND-4551A   Adapter: 1  ID: 0
Read mode               : Secure
Utilize accurate stream : Yes
Defeat audio cache      : Yes
Make use of C2 pointers : No
Read offset correction                      : 48
Overread into Lead-In and Lead-Out          : No
Fill up missing offset samples with silence : Yes
Delete leading and trailing silent blocks   : No
Null samples used in CRC calculations       : Yes
Used interface                              : Installed external ASPI interface
Used output format : Internal WAV Routines
Sample format      : 44.100 Hz; 16 Bit; Stereo
TOC of the extracted CD
     Track |   Start  |  Length  | Start sector | End sector
    ---------------------------------------------------------
        1  |  0:00.00 |  0:44.54 |         0    |     3353
        2  |  0:44.54 |  5:05.38 |      3354    |    26266
        3  |  5:50.17 |  6:17.41 |     26267    |    54582
        4  | 12:07.58 |  4:20.21 |     54583    |    74103
        5  | 16:28.04 |  2:44.03 |     74104    |    86406
        6  | 19:12.07 |  4:57.51 |     86407    |   108732
        7  | 24:09.58 |  4:06.57 |    108733    |   127239
        8  | 28:16.40 |  6:06.12 |    127240    |   154701
        9  | 34:22.52 |  3:28.36 |    154702    |   170337
       10  | 37:51.13 |  2:01.19 |    170338    |   179431
       11  | 39:52.32 |  6:06.40 |    179432    |   206921
       12  | 45:58.72 |  5:06.10 |    206922    |   229881
       13  | 51:05.07 |  2:17.02 |    229882    |   240158
       14  | 53:22.09 |  1:18.22 |    240159    |   246030
       15  | 54:40.31 |  4:24.14 |    246031    |   265844
       16  | 59:04.45 |  4:23.73 |    265845    |   285642
Range status and errors
Selected range
     Filename C:\My Downloads\amGod - Box\Half Rotten And Decayed\amGod - Half Rotten And Decayed.wav
     Peak level 100.0 %
     Range quality 100.0 %
     Test CRC 08826174
     Copy CRC 08826174
     Copy OK
No errors occurred
AccurateRip summary
Track  1  not present in database
Track  2  not present in database
Track  3  not present in database
Track  4  not present in database
Track  5  not present in database
Track  6  not present in database
Track  7  not present in database
Track  8  not present in database
Track  9  not present in database
Track 10  not present in database
Track 11  not present in database
Track 12  not present in database
Track 13  not present in database
Track 14  not present in database
Track 15  not present in database
Track 16  not present in database
None of the tracks are present in the AccurateRip database
End of status report
AUDIOCHECKER v1.2 - by Dester - opdester@freemail.hu
~~~~~~~~~~~~~~~~~
2 -===- C:\My Downloads\amGod - Box\Audio\Half Rotten And Decayed\amGod - Half Rotten And Decayed.flac
Extracted successfully
Conclusion: This track looks like CDDA with probability 100%
#777CD2-01 Intro (2:44)
CD2-02 Cyber Christ (6:12)
CD2-03 Is It Real? (3:43)
CD2-04 Revolution 1999 (6:03)
CD2-05 Industry Voices (5:34)
CD2-06 Crime! (5:37)
CD2-07 Freeze (4:24)
CD2-08 Heartbreaker (4:48)
CD2-09 God-Complex (3:51)
CD2-10 Reduction (5:06)
CD2-11 Revolution 1999 (Extended Version) (4:53)
CD2-12 In A Orbit Of A Comet (5:33)
CD2-13 Silence Besides The Sun (Remix) (5:28)
Код:
Exact Audio Copy V0.99 prebeta 4 from 23. January 2008
EAC extraction logfile from 28. March 2009, 10:53
amGod / Crime! + Bonus
Used drive  : _NEC    DVD_RW ND-4551A   Adapter: 1  ID: 0
Read mode               : Secure
Utilize accurate stream : Yes
Defeat audio cache      : Yes
Make use of C2 pointers : No
Read offset correction                      : 48
Overread into Lead-In and Lead-Out          : No
Fill up missing offset samples with silence : Yes
Delete leading and trailing silent blocks   : No
Null samples used in CRC calculations       : Yes
Used interface                              : Installed external ASPI interface
Used output format : Internal WAV Routines
Sample format      : 44.100 Hz; 16 Bit; Stereo
TOC of the extracted CD
     Track |   Start  |  Length  | Start sector | End sector
    ---------------------------------------------------------
        1  |  0:00.00 |  2:44.03 |         0    |    12302
        2  |  2:44.03 |  6:12.24 |     12303    |    40226
        3  |  8:56.27 |  3:43.08 |     40227    |    56959
        4  | 12:39.35 |  6:03.54 |     56960    |    84238
        5  | 18:43.14 |  5:34.65 |     84239    |   109353
        6  | 24:18.04 |  5:37.34 |    109354    |   134662
        7  | 29:55.38 |  4:24.11 |    134663    |   154473
        8  | 34:19.49 |  4:48.33 |    154474    |   176106
        9  | 39:08.07 |  3:51.70 |    176107    |   193501
       10  | 43:00.02 |  5:06.43 |    193502    |   216494
       11  | 48:06.45 |  4:53.00 |    216495    |   238469
       12  | 52:59.45 |  5:33.71 |    238470    |   263515
       13  | 58:33.41 |  5:29.00 |    263516    |   288190
Range status and errors
Selected range
     Filename C:\My Downloads\amGod - Box\Crime!\amGod - Crime! + Bonus.wav
     Peak level 100.0 %
     Range quality 100.0 %
     Test CRC 0733BBD7
     Copy CRC 0733BBD7
     Copy OK
No errors occurred
AccurateRip summary
Track  1  not present in database
Track  2  not present in database
Track  3  not present in database
Track  4  not present in database
Track  5  not present in database
Track  6  not present in database
Track  7  not present in database
Track  8  not present in database
Track  9  not present in database
Track 10  not present in database
Track 11  not present in database
Track 12  not present in database
Track 13  not present in database
None of the tracks are present in the AccurateRip database
End of status report
AUDIOCHECKER v1.2 - by Dester - opdester@freemail.hu
~~~~~~~~~~~~~~~~~
1 -===- C:\My Downloads\amGod - Box\Audio\Crime! + Bonus\amGod - Crime! + Bonus.flac
Extracted successfully
Conclusion: This track looks like MPEG with probability 95%
#777CD3-01 Intro (1:04)
CD3-02 Fall Out (4:53)
CD3-03 Crucified West (6:00)
CD3-04 Fire V.2 (4:30)
CD3-05 Leben-Tod (4:17)
CD3-06 Soulhunter (5:21)
CD3-07 Get Vomit (5:59)
CD3-08 Pain Laughter (5:00)
CD3-09 Dogma (Part 4 >>Half Rotten And Decayed<<) (5:10)
CD3-10 Dogma (Part 5 >>Dreamscape<<) (2:16)
CD3-11 Fire V.1 (3:58)
CD3-12 Gismo (Dogma 3 Remix) (6:22)
CD3-13 Stigmata (6:05)
CD3-14 Data-Control (Remix) (5:13)
Код:
Exact Audio Copy V0.99 prebeta 4 from 23. January 2008
EAC extraction logfile from 28. March 2009, 11:11
amGod / Live! + Bonus
Used drive  : _NEC    DVD_RW ND-4551A   Adapter: 1  ID: 0
Read mode               : Secure
Utilize accurate stream : Yes
Defeat audio cache      : Yes
Make use of C2 pointers : No
Read offset correction                      : 48
Overread into Lead-In and Lead-Out          : No
Fill up missing offset samples with silence : Yes
Delete leading and trailing silent blocks   : No
Null samples used in CRC calculations       : Yes
Used interface                              : Installed external ASPI interface
Used output format : Internal WAV Routines
Sample format      : 44.100 Hz; 16 Bit; Stereo
TOC of the extracted CD
     Track |   Start  |  Length  | Start sector | End sector
    ---------------------------------------------------------
        1  |  0:00.00 |  1:02.11 |         0    |     4660
        2  |  1:02.11 |  4:51.13 |      4661    |    26498
        3  |  5:53.24 |  5:58.04 |     26499    |    53352
        4  | 11:51.28 |  4:27.72 |     53353    |    73449
        5  | 16:19.25 |  4:15.09 |     73450    |    92583
        6  | 20:34.34 |  5:27.14 |     92584    |   117122
        7  | 26:01.48 |  5:57.42 |    117123    |   143939
        8  | 31:59.15 |  4:58.31 |    143940    |   166320
        9  | 36:57.46 |  5:08.16 |    166321    |   189436
       10  | 42:05.62 |  2:18.38 |    189437    |   199824
       11  | 44:24.25 |  3:58.34 |    199825    |   217708
       12  | 48:22.59 |  6:22.60 |    217709    |   246418
       13  | 54:45.44 |  6:05.41 |    246419    |   273834
       14  | 60:51.10 |  5:13.40 |    273835    |   297349
Range status and errors
Selected range
     Filename C:\My Downloads\amGod - Box\Live! + Bonus\amGod - Live! + Bonus.wav
     Peak level 100.0 %
     Range quality 100.0 %
     Copy CRC 10BCC4A1
     Copy OK
No errors occurred
AccurateRip summary
Track  1  not present in database
Track  2  not present in database
Track  3  not present in database
Track  4  not present in database
Track  5  not present in database
Track  6  not present in database
Track  7  not present in database
Track  8  not present in database
Track  9  not present in database
Track 10  not present in database
Track 11  not present in database
Track 12  not present in database
Track 13  not present in database
Track 14  not present in database
None of the tracks are present in the AccurateRip database
End of status report
AUDIOCHECKER v1.2 - by Dester - opdester@freemail.hu
~~~~~~~~~~~~~~~~~
3 -===- C:\My Downloads\amGod - Box\Audio\Live! + Bonus\amGod - Live! + Bonus.flac
Extracted successfully
Conclusion: This track looks like CDDA with probability 100%
Правила, инструкции, FAQ!!!
Торрент  Добавлен [26 июн 2020, 19:06] Скачать торрент Магнет ссылка
Скачать торрент
[ Размер 14.89 КБ / Просмотров 15 ]

Статус
Проверен 
 
Размер  1.3 ГБ
Приватный: Нет (DHT включён)
.torrent скачан  0
 


     Отправить личное сообщение
   
Страница 1 из 1
Показать сообщения за:  Поле сортировки  
Начать новую тему Ответить на тему


Сейчас этот форум просматривают: нет зарегистрированных пользователей и гости: 0


Вы не можете начинать темы
Вы не можете отвечать на сообщения
Вы не можете редактировать свои сообщения
Вы не можете удалять свои сообщения
Вы не можете добавлять вложения

Перейти:  
cron