Начать новую тему Ответить на тему
Статистика раздачи
Размер: 351.85 МБ | Добавлен: 26 июн 2020, 19:50 | Скачали: 0
Сидеров: 2  [0 байт/сек]    Личеров: 1  [0 байт/сек]
Пред. тема | След. тема 

Автор
Сообщение

СообщениеДобавлено: 26 июн 2020, 19:50 

Ответить с цитатой 

Alien Vampires / Evil Generation
Жанр: dark electro
Страна-производитель диска: Italy
Год издания диска: 2006
Издатель (лейбл): Kold Finger
Номер по каталогу: kfg002
Страна: Italy
Аудиокодек: APE (*.ape)
Тип рипа: image+.cue
Битрейт аудио: lossless
Продолжительность: 49'11''
Источник (релизер): собственный
Наличие сканов в содержимом раздачи: нет
Треклист:
01. Evil Generation [04:52]
02. I Fuck Nuns [05:30]
03. Fake Blood Is For Cunt [04:43]
04. Down In Hell (Satanischer) [05:45]
05. Defending The Muthoid Throne [06:20]
06. Excuse For All The Blood [06:41]
07. Chernobyl Is My Throne [05:58]
08. Satanic Propaganda (S.N.T.F. Rising) [04:52]
09. We Will Rise Again [04:30]
Код:
Exact Audio Copy V1.0 beta 1 from 15. November 2010
EAC extraction logfile from 21. November 2011, 1:11
Alien Vampires / Evil Generation
Used drive  : Optiarc DVD RW AD-7200S   Adapter: 2  ID: 0
Read mode               : Secure
Utilize accurate stream : Yes
Defeat audio cache      : Yes
Make use of C2 pointers : No
Read offset correction                      : 48
Overread into Lead-In and Lead-Out          : No
Fill up missing offset samples with silence : Yes
Delete leading and trailing silent blocks   : No
Null samples used in CRC calculations       : Yes
Used interface                              : Installed external ASPI interface
Used output format : Internal WAV Routines
Sample format      : 44.100 Hz; 16 Bit; Stereo
TOC of the extracted CD
     Track |   Start  |  Length  | Start sector | End sector
    ---------------------------------------------------------
        1  |  0:00.00 |  4:52.64 |         0    |    21963
        2  |  4:52.64 |  5:30.57 |     21964    |    46770
        3  | 10:23.46 |  4:43.61 |     46771    |    68056
        4  | 15:07.32 |  5:45.28 |     68057    |    93959
        5  | 20:52.60 |  6:20.14 |     93960    |   122473
        6  | 27:12.74 |  6:41.04 |    122474    |   152552
        7  | 33:54.03 |  5:58.42 |    152553    |   179444
        8  | 39:52.45 |  4:52.46 |    179445    |   201390
        9  | 44:45.16 |  4:30.71 |    201391    |   221711
Range status and errors
Selected range
     Filename D:\_1\Alien Vampires - Evil Generation.wav
     Peak level 100.0 %
     Extraction speed 0.3 X
     Range quality 100.0 %
     Test CRC F96E2BB3
     Copy CRC F96E2BB3
     Copy OK
Доп. информация:
Drums – Daryl
Guitar – Nemesis, Nysrok
Synthesizer – Daryl, Nemesis, Nysrok
Programming – Daryl
Правила, инструкции, FAQ!!!
Торрент  Добавлен [26 июн 2020, 19:50] Скачать торрент Магнет ссылка
Скачать торрент
[ Размер 14.44 КБ / Просмотров 5 ]

Статус
Проверен 
 
Размер  351.85 МБ
Приватный: Нет (DHT включён)
.torrent скачан  0
 


     Отправить личное сообщение
   
Страница 1 из 1
Показать сообщения за:  Поле сортировки  
Начать новую тему Ответить на тему


Сейчас этот форум просматривают: нет зарегистрированных пользователей и гости: 0


Вы не можете начинать темы
Вы не можете отвечать на сообщения
Вы не можете редактировать свои сообщения
Вы не можете удалять свои сообщения
Вы не можете добавлять вложения

Перейти:  
cron