Начать новую тему Ответить на тему
Статистика раздачи
Размер: 490.62 МБ | Добавлен: 26 июн 2020, 17:13 | Скачали: 0
Сидеров: 0  [0 байт/сек]    Личеров: 0  [0 байт/сек]
Пред. тема | След. тема 

Автор
Сообщение

СообщениеДобавлено: 26 июн 2020, 17:13 

Ответить с цитатой 

H.EXE – Killing Monsters
Жанр: Dark Electro/Aggrotech/EBM
Страна-производитель диска: Poland
Год издания диска: 2011
Издатель (лейбл): Halotan Records
Номер по каталогу: HLR-11
Аудиокодек: FLAC (*.flac)
Тип рипа: image+.cue
Битрейт аудио: lossless
Продолжительность: 58:12.60
Источник (релизер): Физический носитель (CDr)
Наличие сканов в содержимом раздачи: да
Треклист:
1. Introduction 1:12
2. Dreadful Visions 4:21
3. Hollow 4:46
4. Never Enough 4:57
5. Crown Thy Oppressor 4:08
6. Killing Monsters 4:52
7. Infinity (Featuring – Steffan*) 5:04
8. Venom 5:27
9. Mask Of The Slave 4:35
10. Replica 4:26
11. Witchcraft 4:21
12. We Invented Farsh Electro (Featuring – Sychy* ) 4:09
13. Breath Of The Dying (Outro) 2:58
Код:
Exact Audio Copy V1.0 beta 2 from 29. April 2011
Отчёт EAC об извлечении, выполненном 21. февраля 2012, 9:42
H.EXE /  Killing Monsters
Дисковод: Optiarc DVD RW AD-7240S   Adapter: 1  ID: 0
Режим чтения                 : Достоверность
Использование точного потока : Да
Отключение кэша аудио        : Да
Использование указателей C2  : Нет
Коррекция смещения при чтении                     : 48
Способность читать области Lead-in и Lead-out     : Нет
Заполнение пропущенных сэмплов тишиной            : Да
Удаление блоков с тишиной в начале и конце        : Нет
При вычислениях CRC использовались нулевые сэмплы : Да
Интерфейс                                         : Встроенный Win32-интерфейс для Win NT/2000
Выходной формат : Внутренние WAV-операции
Формат сэмплов  : 44.100 Гц; 16 бит; стерео
TOC извлечённого CD
     Трек |   Старт  | Длительность | Начальный сектор | Конечный сектор
    ---------------------------------------------------------------------
       1  |  0:00.00 |    1:14.00   |           0      |       5549
       2  |  1:14.00 |    4:22.42   |        5550      |      25241
       3  |  5:36.42 |    4:47.43   |       25242      |      46809
       4  | 10:24.10 |    4:58.66   |       46810      |      69225
       5  | 15:23.01 |    4:09.40   |       69226      |      87940
       6  | 19:32.41 |    4:53.56   |       87941      |     109971
       7  | 24:26.22 |    5:06.00   |      109972      |     132921
       8  | 29:32.22 |    5:29.20   |      132922      |     157616
       9  | 35:01.42 |    4:36.47   |      157617      |     178363
      10  | 39:38.14 |    4:30.30   |      178364      |     198643
      11  | 44:08.44 |    4:23.25   |      198644      |     218393
      12  | 48:31.69 |    4:10.66   |      218394      |     237209
      13  | 52:42.60 |    2:58.00   |      237210      |     250559
      14  | 58:12.60 |   13:51.19   |      261960      |     324303
Характеристики диапазона извлечения и сообщения об ошибках
Выбранный диапазон
     Имя файла X:\H.EXE – Killing Monsters\H.EXE -  Killing Monsters.wav
     Пиковый уровень 100.0 %
     Скорость извлечения 4.1 X
     Качество диапазона 100.0 %
     CRC теста 732271FB
     CRC копии 732271FB
     Копирование... OK
Ошибок не произошло
AccurateRip: сводка
Трек  1  отсутствует в базе данных
Трек  2  отсутствует в базе данных
Трек  3  отсутствует в базе данных
Трек  4  отсутствует в базе данных
Трек  5  отсутствует в базе данных
Трек  6  отсутствует в базе данных
Трек  7  отсутствует в базе данных
Трек  8  отсутствует в базе данных
Трек  9  отсутствует в базе данных
Трек 10  отсутствует в базе данных
Трек 11  отсутствует в базе данных
Трек 12  отсутствует в базе данных
Трек 13  отсутствует в базе данных
Ни одного трека нет в базе AccurateRip
Конец отчёта
==== Контрольная сумма отчёта 5DA8790A73E0150F882812C20016FFE702A8E437CFF0222D1C7A2D3FECA31BBD ====
Код:
REM GENRE "Electro, Industrial"
REM DATE 2011
REM DISCID BF10E40E
REM COMMENT "ExactAudioCopy v1.0b2"
PERFORMER "H.EXE"
TITLE " Killing Monsters"
FILE "H.EXE -  Killing Monsters.wav" WAVE
  TRACK 01 AUDIO
    TITLE "Introduction"
    PERFORMER "H.EXE"
    FLAGS DCP
    INDEX 01 00:00:00
  TRACK 02 AUDIO
    TITLE "Dreadful Visions"
    PERFORMER "H.EXE"
    FLAGS DCP
    INDEX 00 01:12:00
    INDEX 01 01:14:00
  TRACK 03 AUDIO
    TITLE "Hollow"
    PERFORMER "H.EXE"
    FLAGS DCP
    INDEX 00 05:34:42
    INDEX 01 05:36:42
  TRACK 04 AUDIO
    TITLE "Never Enough"
    PERFORMER "H.EXE"
    FLAGS DCP
    INDEX 00 10:22:10
    INDEX 01 10:24:10
  TRACK 05 AUDIO
    TITLE "Crown Thy Oppressor"
    PERFORMER "H.EXE"
    FLAGS DCP
    INDEX 00 15:21:01
    INDEX 01 15:23:01
  TRACK 06 AUDIO
    TITLE "Killing Monsters"
    PERFORMER "H.EXE"
    FLAGS DCP
    INDEX 00 19:30:41
    INDEX 01 19:32:41
  TRACK 07 AUDIO
    TITLE "Infinity"
    PERFORMER "H.EXE"
    FLAGS DCP
    INDEX 00 24:24:22
    INDEX 01 24:26:22
  TRACK 08 AUDIO
    TITLE "Venom"
    PERFORMER "H.EXE"
    FLAGS DCP
    INDEX 00 29:30:22
    INDEX 01 29:32:22
  TRACK 09 AUDIO
    TITLE "Mask Of The Slave"
    PERFORMER "H.EXE"
    FLAGS DCP
    INDEX 00 34:59:42
    INDEX 01 35:01:42
  TRACK 10 AUDIO
    TITLE "Replica"
    PERFORMER "H.EXE"
    FLAGS DCP
    INDEX 00 39:36:14
    INDEX 01 39:38:14
  TRACK 11 AUDIO
    TITLE "Witchcraft"
    PERFORMER "H.EXE"
    FLAGS DCP
    INDEX 00 44:06:44
    INDEX 01 44:08:44
  TRACK 12 AUDIO
    TITLE "We Invented Farsh Electro"
    PERFORMER "H.EXE"
    FLAGS DCP
    INDEX 00 48:29:69
    INDEX 01 48:31:69
  TRACK 13 AUDIO
    TITLE "Breath Of The Dying (Outro)"
    PERFORMER "H.EXE"
    FLAGS DCP
    INDEX 00 52:40:60
    INDEX 01 52:42:60
Доп. информация: Выходил на CDr, см. ниже
Правила, инструкции, FAQ!!!
Торрент  Добавлен [26 июн 2020, 17:13] Скачать торрент Магнет ссылка
Скачать торрент
[ Размер 2.4 КБ / Просмотров 3 ]

Статус
Проверен 
 
Размер  490.62 МБ
Приватный: Нет (DHT включён)
.torrent скачан  0
 


     Отправить личное сообщение
   
Страница 1 из 1
Показать сообщения за:  Поле сортировки  
Начать новую тему Ответить на тему


Сейчас этот форум просматривают: нет зарегистрированных пользователей и гости: 0


Вы не можете начинать темы
Вы не можете отвечать на сообщения
Вы не можете редактировать свои сообщения
Вы не можете удалять свои сообщения
Вы не можете добавлять вложения

Перейти:  
cron