Начать новую тему Ответить на тему
Статистика раздачи
Размер: 406.13 МБ | Добавлен: 26 июн 2020, 17:00 | Скачали: 0
Сидеров: 0  [0 байт/сек]    Личеров: 0  [0 байт/сек]
Пред. тема | След. тема 

Автор
Сообщение

СообщениеДобавлено: 26 июн 2020, 17:00 

Ответить с цитатой 

Concise - Pure [Limited Edition]
Жанр: Dark Ambient, Synthpop
Год выпуска диска: 2004
Производитель диска: Germany
Аудио кодек: APE
Тип рипа: image+.cue
Битрейт аудио: lossless
Продолжительность: 01:03:46
Трэклист:
01. Reliance (4:44)
02. Renunciation (4:11)
03. Unison (1:09)
04. Ultimate (4:43)
05. Aim (4:31)
06. Vicious Circle (Guitar) (5:47)
07. Unique (4:01)
08. Deliberation (3:22)
09. Pure (3:39)
10. Aim (Slide) (4:31)
11. Unique (instrumental) (4:01)
12. Surface (3:44)
13. Ultimate (X Dynamics mix) (6:33)
14. Aim (Liquid Divine Nordstern mix) (4:35)
15. Freeze (4:01)
Код:
Exact Audio Copy V0.99 prebeta 5 from 4. May 2009
Отчёт EAC об извлечении, выполненном 6. ноября 2009, 22:43
Concise / Pure
Дисковод: Optiarc DVD RW AD-7201S   Adapter: 2  ID: 1
Режим чтения                 : Достоверность
Использование точного потока : Да
Отключение кэша аудио        : Да
Использование указателей C2  : Нет
Коррекция смещения при чтении                     : 48
Способность читать области Lead-in и Lead-out     : Нет
Заполнение пропущенных сэмплов тишиной            : Да
Удаление блоков с тишиной в начале и конце        : Нет
При вычислениях CRC использовались нулевые сэмплы : Да
Интерфейс                                         : Встроенный Win32-интерфейс для
Win NT/2000
Выходной формат : Внутренние WAV-операции
Формат сэмплов  : 44.100 Гц; 16 бит; стерео
TOC извлечённого CD
     Трек |   Старт  | Длительность | Начальный сектор | Конечный сектор
    ---------------------------------------------------------------------
       1  |  0:00.00 |    4:44.60   |           0      |      21359
       2  |  4:44.60 |    4:11.63   |       21360      |      40247
       3  |  8:56.48 |    1:09.52   |       40248      |      45474
       4  | 10:06.25 |    4:43.70   |       45475      |      66769
       5  | 14:50.20 |    4:32.13   |       66770      |      87182
       6  | 19:22.33 |    5:48.32   |       87183      |     113314
       7  | 25:10.65 |    4:02.03   |      113315      |     131467
       8  | 29:12.68 |    3:23.17   |      131468      |     146709
       9  | 32:36.10 |    3:40.02   |      146710      |     163211
      10  | 36:16.12 |    4:31.57   |      163212      |     183593
      11  | 40:47.69 |    4:01.66   |      183594      |     201734
      12  | 44:49.60 |    3:44.66   |      201735      |     218600
      13  | 48:34.51 |    6:34.28   |      218601      |     248178
      14  | 55:09.04 |    4:35.70   |      248179      |     268873
      15  | 59:44.74 |    4:01.61   |      268874      |     287009
Характеристики диапазона извлечения и сообщения об ошибках
Выбранный диапазон
     Имя файла E:\Раздачи\Concise - Pure\Concise - Pure.wav
     Пиковый уровень 100.0 %
     Качество диапазона 100.0 %
     CRC теста 4D35F92D
     CRC копии 4D35F92D
     Копирование... OK
Ошибок не произошло
AccurateRip: сводка
Трек  1  нет в базе данных
Трек  2  нет в базе данных
Трек  3  нет в базе данных
Трек  4  нет в базе данных
Трек  5  нет в базе данных
Трек  6  нет в базе данных
Трек  7  нет в базе данных
Трек  8  нет в базе данных
Трек  9  нет в базе данных
Трек 10  нет в базе данных
Трек 11  нет в базе данных
Трек 12  нет в базе данных
Трек 13  нет в базе данных
Трек 14  нет в базе данных
Трек 15  нет в базе данных
Ни одного трека нет в базе AccurateRip
Конец отчёта
Код:
Started at: пятница, 06. 11. 2009. - 22:54.34
1 file found
1 -===- E:\Раздачи\Concise - Pure\Concise - Pure.ape
  Extracted successfully
  Conclusion: this track is CDDA with probability 100%
  Tempfile successfully deleted.
Finished at: пятница, 06. 11. 2009. - 23:02.45 (operation time: 0:08.10)
Label:Wycombe Music
Catalog#:none
Format:CD, Album, Ltd.Ed.
Country:Germany
Released:2004
Genre:Electronic
Style:Dark Ambient, Synthpop

HQ Scans Full Complete
Project of Christian Grass ( High Wycombe)
Правила, инструкции, FAQ!!!
Торрент  Добавлен [26 июн 2020, 17:00] Скачать торрент Магнет ссылка
Скачать торрент
[ Размер 16.66 КБ / Просмотров 2 ]

Статус
Проверен 
 
Размер  406.13 МБ
Приватный: Нет (DHT включён)
.torrent скачан  0
 


     Отправить личное сообщение
   
Страница 1 из 1
Показать сообщения за:  Поле сортировки  
Начать новую тему Ответить на тему


Сейчас этот форум просматривают: нет зарегистрированных пользователей и гости: 0


Вы не можете начинать темы
Вы не можете отвечать на сообщения
Вы не можете редактировать свои сообщения
Вы не можете удалять свои сообщения
Вы не можете добавлять вложения

Перейти:  
cron