Начать новую тему Ответить на тему
Статистика раздачи
Размер: 432.03 МБ | Добавлен: 26 мар 2019, 20:36 | Скачали: 0
Сидеров: 0  [0 байт/сек]    Личеров: 0  [0 байт/сек]
Пред. тема | След. тема 

Автор
Сообщение

СообщениеДобавлено: 26 мар 2019, 20:36 

Ответить с цитатой 

Randy Meisner / Love Me or Leave Me Alone
Жанр: Country Rock, Soft Rock
Носитель: CD
Страна-производитель диска (релиза): UK
Год издания: 2004
Издатель (лейбл): Rev-Ola
Номер по каталогу: CR REV 64
Страна исполнителя (группы): USA
Аудиокодек: FLAC (*.flac)
Тип рипа: image+.cue
Битрейт аудио: lossless
Продолжительность: 00:58:53
Источник (релизер): собственный рип
Наличие сканов в содержимом раздачи: да
Треклист:
1. Long Time Blue
2. In A Minute
3. Don't Keep It Inside
4. Love Me Or Leave Me Alone
5. My How Things Have Changed
6. Walk Of Life
7. Trust Your Heart
8. Leaving On Tuesday
9. Salt In My Tears
10. All Alone In Paradise
11. Ain't Gonna Take It
12. Lonely Alone
13. Take It Easy
14. One Less Fool
15. Take It To The Limit (Live)
Код:
Exact Audio Copy V1.1 from 23. June 2015
Отчёт EAC об извлечении, выполненном 7. февраля 2016, 0:10
Randy Meisner / Love Me or Leave Me Alone
Дисковод: ASUS    DRW-24B3ST   Adapter: 0  ID: 0
Режим чтения                 : Достоверность
Использование точного потока : Да
Отключение кэша аудио        : Да
Использование указателей C2  : Нет
Коррекция смещения при чтении                     : 6
Способность читать области Lead-in и Lead-out     : Нет
Заполнение пропущенных сэмплов тишиной            : Да
Удаление блоков с тишиной в начале и конце        : Нет
При вычислениях CRC использовались нулевые сэмплы : Да
Интерфейс                                         : Установленный внешний ASPI-интерфейс
Выходной формат          : Пользовательский кодировщик
Выбранный битрейт        : 896 kBit/s
Качество                 : Высокий
Добавление ID3-тега      : Нет
Утилита сжатия           : C:\Program Files (x86)\Exact Audio Copy\FLAC\FLAC.EXE
Дополнительные параметры : -6 -V -T "ARTIST=%artist%" -T "TITLE=%title%" -T "ALBUM=%albumtitle%" -T "DATE=%year%" -T "TRACKNUMBER=%tracknr%" -T "GENRE=%genre%" -T "COMMENT=%comment%" -T "BAND=%albuminterpret%" -T "ALBUMARTIST=%albuminterpret%" -T "COMPOSER=%composer%" %haslyrics%--tag-from-file=LYRICS="%lyricsfile%"%haslyrics% -T "DISCNUMBER=%cdnumber%" -T "TOTALDISCS=%totalcds%" -T "TOTALTRACKS=%numtracks%" %hascover%--picture="%coverfile%"%hascover% %source% -o %dest%
TOC извлечённого CD
     Трек |   Старт  | Длительность | Начальный сектор | Конечный сектор
    ---------------------------------------------------------------------
       1  |  0:00.00 |    3:49.51   |           0      |      17225
       2  |  3:49.51 |    4:24.35   |       17226      |      37060
       3  |  8:14.11 |    4:51.54   |       37061      |      58939
       4  | 13:05.65 |    2:58.10   |       58940      |      72299
       5  | 16:04.00 |    4:00.37   |       72300      |      90336
       6  | 20:04.37 |    2:49.19   |       90337      |     103030
       7  | 22:53.56 |    3:30.30   |      103031      |     118810
       8  | 26:24.11 |    5:06.19   |      118811      |     141779
       9  | 31:30.30 |    3:26.74   |      141780      |     157303
      10  | 34:57.29 |    4:08.58   |      157304      |     175961
      11  | 39:06.12 |    4:09.00   |      175962      |     194636
      12  | 43:15.12 |    3:54.69   |      194637      |     212255
      13  | 47:10.06 |    3:39.24   |      212256      |     228704
      14  | 50:49.30 |    3:26.74   |      228705      |     244228
      15  | 54:16.29 |    4:36.48   |      244229      |     264976
Характеристики диапазона извлечения и сообщения об ошибках
Выбранный диапазон
     Имя файла E:\Torrents\Randy Meisner - 2004 - Love Or Leave Me Alone\Randy Meisner - Love Me or Leave Me Alone.wav
     Пиковый уровень 100.0 %
     Скорость извлечения 8.6 X
     Качество диапазона 100.0 %
     CRC теста DCE4DC53
     CRC копии DCE4DC53
     Копирование... OK
Ошибок не произошло
Конец отчёта
==== Контрольная сумма отчёта 0C88B0DE526E16FE802CFF8914FB09BC5BABF089A7DF4BE36673424C949B3B99 ====
Правила, инструкции, FAQ!!!
Торрент  Добавлен [26 мар 2019, 20:36] Скачать торрент Магнет ссылка
Скачать торрент
[ Размер 17.82 КБ / Просмотров 3 ]

Статус
Проверен 
 
Размер  432.03 МБ
Приватный: Нет (DHT включён)
.torrent скачан  0
 


     Отправить личное сообщение
   
Страница 1 из 1
Показать сообщения за:  Поле сортировки  
Начать новую тему Ответить на тему


Сейчас этот форум просматривают: нет зарегистрированных пользователей и гости: 0


Вы не можете начинать темы
Вы не можете отвечать на сообщения
Вы не можете редактировать свои сообщения
Вы не можете удалять свои сообщения
Вы не можете добавлять вложения

Перейти:  
cron