Начать новую тему Ответить на тему
Статистика раздачи
Размер: 385.24 МБ | Добавлен: 26 мар 2019, 20:59 | Скачали: 0
Сидеров: 0  [0 байт/сек]    Личеров: 0  [0 байт/сек]
Пред. тема | След. тема 

Автор
Сообщение

СообщениеДобавлено: 26 мар 2019, 20:59 

Ответить с цитатой 

Plumb / Exhale
Жанр: Contemporary Christian, Pop Rock
Носитель: CD
Год издания: 2015
Издатель (лейбл): Curb Records
Номер по каталогу: D2-79407
Страна исполнителя (группы): US
Аудиокодек: FLAC (*.flac)
Тип рипа: tracks+.cue
Битрейт аудио: lossless
Продолжительность: 58:20
Источник (релизер): what.cd
Наличие сканов в содержимом раздачи: нет
Треклист:
01. Exhale (03:42)
02. Lord I'm Ready Now (03:33)
03. Smoke (04:29)
04. Resurrection (04:52)
05. Great Is Our God (04:24)
06. My True Love (03:56)
07. Broken Places (03:45)
08. Faithful (04:17)
09. Champion (04:23)
10. Sleep Will Be Sweet (03:48)
11. When You Walk Into The Room (05:00)
12. Restored (04:37)
Deluxe Edition:
13. We Stand for You (3:57)
14. You Are Enough (3:37)
http://plumbmusic.net/
Код:
Exact Audio Copy V1.0 beta 3 from 29. August 2011
EAC extraction logfile from 23. October 2015, 13:30
Plumb / Exhale
Used drive  : TSSTcorpCD/DVDW SH-S183A   Adapter: 1  ID: 0
Read mode               : Secure
Utilize accurate stream : Yes
Defeat audio cache      : Yes
Make use of C2 pointers : No
Read offset correction                      : 6
Overread into Lead-In and Lead-Out          : No
Fill up missing offset samples with silence : Yes
Delete leading and trailing silent blocks   : No
Null samples used in CRC calculations       : Yes
Used interface                              : Native Win32 interface for Win NT & 2000
Gap handling                                : Appended to previous track
Used output format              : User Defined Encoder
Selected bitrate                : 320 kBit/s
Quality                         : High
Add ID3 tag                     : No
Command line compressor         : C:\Program Files (x86)\Exact Audio Copy\Flac\flac.exe
Additional command line options : -8 -V -T "ARTIST=%artist%" -T "TITLE=%title%" -T "ALBUM=%albumtitle%" -T "DATE=%year%" -T "TRACKNUMBER=%tracknr%" -T "GENRE=%genre%" -T "PERFORMER=%albuminterpret%" -T "COMPOSER=%composer%" %haslyrics%--tag-from-file=LYRICS="%lyricsfile%"%haslyrics% -T "ALBUMARTIST=%albumartist%" -T "DISCNUMBER=%cdnumber%" -T "TOTALDISCS=%totalcds%" -T "TOTALTRACKS=%numtracks%" -T "COMMENT=%comment%" %source% -o %dest%
TOC of the extracted CD
     Track |   Start  |  Length  | Start sector | End sector
    ---------------------------------------------------------
        1  |  0:00.00 |  3:42.02 |         0    |    16651
        2  |  3:42.02 |  3:33.16 |     16652    |    32642
        3  |  7:15.18 |  4:29.19 |     32643    |    52836
        4  | 11:44.37 |  4:52.64 |     52837    |    74800
        5  | 16:37.26 |  4:24.40 |     74801    |    94640
        6  | 21:01.66 |  3:56.08 |     94641    |   112348
        7  | 24:57.74 |  3:45.03 |    112349    |   129226
        8  | 28:43.02 |  4:17.00 |    129227    |   148501
        9  | 33:00.02 |  4:23.50 |    148502    |   168276
       10  | 37:23.52 |  3:48.70 |    168277    |   185446
       11  | 41:12.47 |  5:00.29 |    185447    |   207975
       12  | 46:13.01 |  4:37.15 |    207976    |   228765
       13  | 50:50.16 |  3:57.32 |    228766    |   246572
       14  | 54:47.48 |  3:37.18 |    246573    |   262865
Track  1
     Filename C:\EAC Rips\01 - Exhale.wav
     Pre-gap length  0:00:02.00
     Peak level 99.8 %
     Extraction speed 4.2 X
     Track quality 100.0 %
     Test CRC 7413F085
     Copy CRC 7413F085
     Track not present in AccurateRip database
     Copy OK
Track  2
     Filename C:\EAC Rips\02 - Lord I'm Ready Now.wav
     Peak level 99.8 %
     Extraction speed 4.6 X
     Track quality 100.0 %
     Test CRC E07592EE
     Copy CRC E07592EE
     Track not present in AccurateRip database
     Copy OK
Track  3
     Filename C:\EAC Rips\03 - Smoke.wav
     Peak level 99.8 %
     Extraction speed 4.7 X
     Track quality 99.9 %
     Test CRC 2B35D21B
     Copy CRC 2B35D21B
     Track not present in AccurateRip database
     Copy OK
Track  4
     Filename C:\EAC Rips\04 - Resurrection.wav
     Peak level 99.8 %
     Extraction speed 5.7 X
     Track quality 100.0 %
     Test CRC 14956731
     Copy CRC 14956731
     Track not present in AccurateRip database
     Copy OK
Track  5
     Filename C:\EAC Rips\05 - Great Is Our God.wav
     Peak level 99.8 %
     Extraction speed 6.1 X
     Track quality 100.0 %
     Test CRC F03012D0
     Copy CRC F03012D0
     Track not present in AccurateRip database
     Copy OK
Track  6
     Filename C:\EAC Rips\06 - My True Love.wav
     Peak level 99.8 %
     Extraction speed 6.4 X
     Track quality 100.0 %
     Test CRC 076CA7F1
     Copy CRC 076CA7F1
     Track not present in AccurateRip database
     Copy OK
Track  7
     Filename C:\EAC Rips\07 - Broken Places.wav
     Peak level 99.8 %
     Extraction speed 6.6 X
     Track quality 100.0 %
     Test CRC 86C5F557
     Copy CRC 86C5F557
     Track not present in AccurateRip database
     Copy OK
Track  8
     Filename C:\EAC Rips\08 - Faithful.wav
     Peak level 99.8 %
     Extraction speed 7.0 X
     Track quality 100.0 %
     Test CRC 27CAB7AE
     Copy CRC 27CAB7AE
     Track not present in AccurateRip database
     Copy OK
Track  9
     Filename C:\EAC Rips\09 - Champion.wav
     Peak level 99.8 %
     Extraction speed 7.4 X
     Track quality 100.0 %
     Test CRC E18EE85B
     Copy CRC E18EE85B
     Track not present in AccurateRip database
     Copy OK
Track 10
     Filename C:\EAC Rips\10 - Sleep Will Be Sweet.wav
     Peak level 99.8 %
     Extraction speed 7.5 X
     Track quality 100.0 %
     Test CRC 380732AF
     Copy CRC 380732AF
     Track not present in AccurateRip database
     Copy OK
Track 11
     Filename C:\EAC Rips\11 - When You Walk Into The Room.wav
     Peak level 99.8 %
     Extraction speed 8.0 X
     Track quality 100.0 %
     Test CRC 6F9DF3C4
     Copy CRC 6F9DF3C4
     Track not present in AccurateRip database
     Copy OK
Track 12
     Filename C:\EAC Rips\12 - Restored.wav
     Peak level 99.8 %
     Extraction speed 7.4 X
     Track quality 99.9 %
     Test CRC 2ED3BD87
     Copy CRC 2ED3BD87
     Track not present in AccurateRip database
     Copy OK
Track 13
     Filename C:\EAC Rips\13 - We Stand For You.wav
     Peak level 99.8 %
     Extraction speed 8.4 X
     Track quality 100.0 %
     Test CRC E1A3DFC9
     Copy CRC E1A3DFC9
     Track not present in AccurateRip database
     Copy OK
Track 14
     Filename C:\EAC Rips\14 - You Are Enough.wav
     Peak level 99.8 %
     Extraction speed 8.5 X
     Track quality 100.0 %
     Test CRC C6BBE94C
     Copy CRC C6BBE94C
     Track not present in AccurateRip database
     Copy OK
None of the tracks are present in the AccurateRip database
No errors occurred
End of status report
---- CUETools DB Plugin V2.1.3
[CTDB TOCID: mCRiYRUeJLHvCeQp6ysM..iyhSY-] found, Submit result: already submitted
[ea8f1f55] (4/4) Accurately ripped
==== Log checksum 189A3D384A625AED80B8D566216108ED162496F3C04B6963BDA0E729DC82AB59 ====
Код:
REM GENRE "Christian Rock"
REM DATE 2015
REM DISCID D90DB00E
REM COMMENT "ExactAudioCopy v1.0b3"
CATALOG 0715187940727
PERFORMER "Plumb"
TITLE "Exhale "
FILE "01 - Exhale.wav" WAVE
  TRACK 01 AUDIO
    TITLE "Exhale"
    PERFORMER "Plumb"
    ISRC H2;R<1411287
    INDEX 01 00:00:00
FILE "02 - Lord I'm Ready Now.wav" WAVE
  TRACK 02 AUDIO
    TITLE "Lord I'm Ready Now"
    PERFORMER "Plumb"
    ISRC H2;R<1311042
    INDEX 01 00:00:00
FILE "03 - Smoke.wav" WAVE
  TRACK 03 AUDIO
    TITLE "Smoke"
    PERFORMER "Plumb"
    ISRC H2;R<1411293
    INDEX 01 00:00:00
FILE "04 - Resurrection.wav" WAVE
  TRACK 04 AUDIO
    TITLE "Resurrection"
    PERFORMER "Plumb"
    ISRC H2;R<1411290
    INDEX 01 00:00:00
FILE "05 - Great Is Our God.wav" WAVE
  TRACK 05 AUDIO
    TITLE "Great Is Our God"
    PERFORMER "Plumb"
    ISRC H2;R<1411289
    INDEX 01 00:00:00
FILE "06 - My True Love.wav" WAVE
  TRACK 06 AUDIO
    TITLE "My True Love"
    PERFORMER "Plumb"
    ISRC H2;R<1411291
    INDEX 01 00:00:00
FILE "07 - Broken Places.wav" WAVE
  TRACK 07 AUDIO
    TITLE "Broken Places"
    PERFORMER "Plumb"
    ISRC H2;R<1411284
    INDEX 01 00:00:00
FILE "08 - Faithful.wav" WAVE
  TRACK 08 AUDIO
    TITLE "Faithful"
    PERFORMER "Plumb"
    ISRC H2;R<1411284
    INDEX 01 00:00:00
FILE "09 - Champion.wav" WAVE
  TRACK 09 AUDIO
    TITLE "Champion"
    PERFORMER "Plumb"
    ISRC H2;R<1411285
    INDEX 01 00:00:00
FILE "10 - Sleep Will Be Sweet.wav" WAVE
  TRACK 10 AUDIO
    TITLE "Sleep Will Be Sweet"
    PERFORMER "Plumb"
    ISRC H2;R<1411292
    INDEX 01 00:00:00
FILE "11 - When You Walk Into The Room.wav" WAVE
  TRACK 11 AUDIO
    TITLE "When You Walk Into The Room"
    PERFORMER "Plumb"
    ISRC H2;R<1411295
    INDEX 01 00:00:00
FILE "12 - Restored.wav" WAVE
  TRACK 12 AUDIO
    TITLE "Restored"
    PERFORMER "Plumb"
    ISRC H2;R<1411288
    INDEX 01 00:00:00
FILE "13 - We Stand For You.wav" WAVE
  TRACK 13 AUDIO
    TITLE "We Stand For You"
    PERFORMER "Plumb"
    ISRC H2;R<1411294
    INDEX 01 00:00:00
FILE "14 - You Are Enough.wav" WAVE
  TRACK 14 AUDIO
    TITLE "You Are Enough"
    PERFORMER "Plumb"
    ISRC H2;R<1411286
    INDEX 01 00:00:00
Written by Plumb with contributions from top CCM writers, EXHALE finds Plumb in equal parts WORSHIPING God for all that He’s done in her life and EXHALING that grace/love/hope/healing into lives around her and through her music. The “exhale" concept is based on a sermon her pastor gave that deeply impacted her, wherein he said that the church "doesn’t exist for itself - we go to church to breath in the love of God, and then it is our role to breathe out and exhale that goodness into the world around us.”
Exhale is produced by longtime Plumb collaborator Matt Bronleewe, mixed by Ainslie Grosser and mastered by Grammy Awarding winning engineer Tom Coyne (Adele – 21 / Taylor Swift - 1989 / Sam Smith - In The Lonely Hour).
Правила, инструкции, FAQ!!!
Торрент  Добавлен [26 мар 2019, 20:59] Скачать торрент Магнет ссылка
Скачать торрент
[ Размер 16.38 КБ / Просмотров 3 ]

Статус
Проверен 
 
Размер  385.24 МБ
Приватный: Нет (DHT включён)
.torrent скачан  0
 


     Отправить личное сообщение
   
Страница 1 из 1
Показать сообщения за:  Поле сортировки  
Начать новую тему Ответить на тему


Сейчас этот форум просматривают: нет зарегистрированных пользователей и гости: 0


Вы не можете начинать темы
Вы не можете отвечать на сообщения
Вы не можете редактировать свои сообщения
Вы не можете удалять свои сообщения
Вы не можете добавлять вложения

Перейти:  
cron