Начать новую тему Ответить на тему
Статистика раздачи
Размер: 915.72 МБ | Добавлен: 26 мар 2019, 19:25 | Скачали: 0
Сидеров: 0  [0 байт/сек]    Личеров: 0  [0 байт/сек]
Пред. тема | След. тема 

Автор
Сообщение

СообщениеДобавлено: 26 мар 2019, 19:25 

Ответить с цитатой 

Matthew West / 3 Album's LP
Жанр: Contemporary Christian Music
Страна-производитель диска: USA
Год издания диска: 2003-2010
Издатель (лейбл): Sparrow Records
Страна: USA
Аудиокодек: FLAC (*.flac)
Тип рипа: tracks+.cue
Битрейт аудио: lossless
Источник (релизер): Waffles.fm
#777Треклист:
01. More (04:28)
02. Happy (03:38)
03. The Turnaround (04:00)
04. I Can't Hear You (03:21)
05. You Know Where To Find Me (03:59)
06. The End (04:00)
07. Out Of My Hands (03:57)
08. The Lie (03:56)
09. Every Second (04:08)
10. My Finest Hour (03:42)
11. Curtain (03:52)
Код:
Exact Audio Copy V0.99 prebeta 5 from 4. May 2009
EAC extraction logfile from 9. March 2010, 12:11
Matthew West / Happy
Used drive  : TSSTcorpCDDVDW SH-S223Q   Adapter: 7  ID: 0
Read mode               : Secure
Utilize accurate stream : Yes
Defeat audio cache      : Yes
Make use of C2 pointers : No
Read offset correction                      : 6
Overread into Lead-In and Lead-Out          : No
Fill up missing offset samples with silence : Yes
Delete leading and trailing silent blocks   : No
Null samples used in CRC calculations       : Yes
Used interface                              : Installed external ASPI interface
Gap handling                                : Appended to previous track
Used output format              : User Defined Encoder
Selected bitrate                : 1024 kBit/s
Quality                         : High
Add ID3 tag                     : No
Command line compressor         : U:\Program Files\Exact Audio Copy\Flac\flac.exe
Additional command line options : -V -8 -T "artist=%a" -T "title=%t" -T "album=%g" -T "date=%y" -T "tracknumber=%n" -T "genre=%m" %s
TOC of the extracted CD
     Track |   Start  |  Length  | Start sector | End sector
    ---------------------------------------------------------
        1  |  0:00.00 |  4:28.37 |         0    |    20136
        2  |  4:28.37 |  3:38.28 |     20137    |    36514
        3  |  8:06.65 |  4:00.35 |     36515    |    54549
        4  | 12:07.25 |  3:21.62 |     54550    |    69686
        5  | 15:29.12 |  3:59.03 |     69687    |    87614
        6  | 19:28.15 |  3:59.72 |     87615    |   105611
        7  | 23:28.12 |  3:57.40 |    105612    |   123426
        8  | 27:25.52 |  3:56.43 |    123427    |   141169
        9  | 31:22.20 |  4:08.15 |    141170    |   159784
       10  | 35:30.35 |  3:42.47 |    159785    |   176481
       11  | 39:13.07 |  4:58.15 |    176482    |   198846
Track  1
     Filename D:\Music\RIPS\Matthew West - Happy\01 - More.wav
     Pre-gap length  0:00:02.00
     Peak level 97.7 %
     Track quality 100.0 %
     Test CRC 19A0BADF
     Copy CRC 19A0BADF
     Accurately ripped (confidence 7)  [AF367BF7]
     Copy OK
Track  2
     Filename D:\Music\RIPS\Matthew West - Happy\02 - Happy.wav
     Peak level 97.7 %
     Track quality 100.0 %
     Test CRC 608FA0A6
     Copy CRC 608FA0A6
     Accurately ripped (confidence 7)  [A99C68C9]
     Copy OK
Track  3
     Filename D:\Music\RIPS\Matthew West - Happy\03 - The Turnaround.wav
     Peak level 97.7 %
     Track quality 100.0 %
     Test CRC 006D9AB1
     Copy CRC 006D9AB1
     Accurately ripped (confidence 7)  [9BE235CE]
     Copy OK
Track  4
     Filename D:\Music\RIPS\Matthew West - Happy\04 - I Can't Hear You.wav
     Peak level 97.7 %
     Track quality 100.0 %
     Test CRC D49C6E65
     Copy CRC D49C6E65
     Accurately ripped (confidence 7)  [6AA171F7]
     Copy OK
Track  5
     Filename D:\Music\RIPS\Matthew West - Happy\05 - You Know Where To Find Me.wav
     Pre-gap length  0:00:01.10
     Peak level 98.8 %
     Track quality 100.0 %
     Test CRC 711912E9
     Copy CRC 711912E9
     Accurately ripped (confidence 7)  [8E5CDC90]
     Copy OK
Track  6
     Filename D:\Music\RIPS\Matthew West - Happy\06 - The End.wav
     Peak level 97.7 %
     Track quality 100.0 %
     Test CRC A22EA033
     Copy CRC A22EA033
     Accurately ripped (confidence 7)  [7660DE90]
     Copy OK
Track  7
     Filename D:\Music\RIPS\Matthew West - Happy\07 - Out Of My Hands.wav
     Peak level 97.7 %
     Track quality 100.0 %
     Test CRC F98C35F1
     Copy CRC F98C35F1
     Accurately ripped (confidence 7)  [A38044EF]
     Copy OK
Track  8
     Filename D:\Music\RIPS\Matthew West - Happy\08 - The Lie.wav
     Peak level 98.8 %
     Track quality 100.0 %
     Test CRC B6000B76
     Copy CRC B6000B76
     Accurately ripped (confidence 7)  [D956E460]
     Copy OK
Track  9
     Filename D:\Music\RIPS\Matthew West - Happy\09 - Every Second.wav
     Peak level 98.8 %
     Track quality 100.0 %
     Test CRC C948C7AD
     Copy CRC C948C7AD
     Accurately ripped (confidence 7)  [B53D1238]
     Copy OK
Track 10
     Filename D:\Music\RIPS\Matthew West - Happy\10 - My Finest Hour.wav
     Pre-gap length  0:00:01.70
     Peak level 98.8 %
     Track quality 100.0 %
     Test CRC A0BD3522
     Copy CRC A0BD3522
     Accurately ripped (confidence 7)  [9294A18A]
     Copy OK
Track 11
     Filename D:\Music\RIPS\Matthew West - Happy\11 - Curtain.wav
     Pre-gap length  0:00:01.22
     Peak level 98.8 %
     Track quality 99.9 %
     Test CRC 6E9DC9C9
     Copy CRC 6E9DC9C9
     Accurately ripped (confidence 6)  [43ABF050]
     Copy OK
All tracks accurately ripped
No errors occurred
End of status report
Код:
REM GENRE "Christian"
REM DATE 2003
REM DISCID 8B0A5B0B
REM COMMENT "ExactAudioCopy v0.99pb5"
PERFORMER "Matthew West"
TITLE "Happy"
FILE "01 - More.wav" WAVE
  TRACK 01 AUDIO
    TITLE "More"
    PERFORMER "Matthew West"
    INDEX 01 00:00:00
FILE "02 - Happy.wav" WAVE
  TRACK 02 AUDIO
    TITLE "Happy"
    PERFORMER "Matthew West"
    INDEX 01 00:00:00
FILE "03 - The Turnaround.wav" WAVE
  TRACK 03 AUDIO
    TITLE "The Turnaround"
    PERFORMER "Matthew West"
    INDEX 01 00:00:00
FILE "04 - I Can't Hear You.wav" WAVE
  TRACK 04 AUDIO
    TITLE "I Can't Hear You"
    PERFORMER "Matthew West"
    INDEX 01 00:00:00
  TRACK 05 AUDIO
    TITLE "You Know Where To Find Me"
    PERFORMER "Matthew West"
    INDEX 00 03:20:52
FILE "05 - You Know Where To Find Me.wav" WAVE
    INDEX 01 00:00:00
FILE "06 - The End.wav" WAVE
  TRACK 06 AUDIO
    TITLE "The End"
    PERFORMER "Matthew West"
    INDEX 01 00:00:00
FILE "07 - Out Of My Hands.wav" WAVE
  TRACK 07 AUDIO
    TITLE "Out Of My Hands"
    PERFORMER "Matthew West"
    INDEX 01 00:00:00
FILE "08 - The Lie.wav" WAVE
  TRACK 08 AUDIO
    TITLE "The Lie"
    PERFORMER "Matthew West"
    INDEX 01 00:00:00
FILE "09 - Every Second.wav" WAVE
  TRACK 09 AUDIO
    TITLE "Every Second"
    PERFORMER "Matthew West"
    INDEX 01 00:00:00
  TRACK 10 AUDIO
    TITLE "My Finest Hour"
    PERFORMER "Matthew West"
    INDEX 00 04:06:20
FILE "10 - My Finest Hour.wav" WAVE
    INDEX 01 00:00:00
  TRACK 11 AUDIO
    TITLE "Curtain"
    PERFORMER "Matthew West"
    INDEX 00 03:41:25
FILE "11 - Curtain.wav" WAVE
    INDEX 01 00:00:00
#777Треклист:
01. History (04:03)
02. Next Thing You Know (03:20)
03. Only Grace (03:56)
04. Get Away (03:38)
05. The Day Before You (04:23)
06. I Know You're There (04:30)
07. Nothing Else (03:51)
08. The Last Ones (04:10)
09. The Light Of Eternity (04:33)
10. Out Of Time (04:12)
11. A Few More Days (04:04)
Код:
EAC extraction logfile from 27. July 2008, 3:23 for CD
Matthew West / History
Used drive  : SONY    DVD RW DRU-840A   Adapter: 3  ID: 1
Read mode   : Secure with NO C2, accurate stream, NO disable cache
Read offset correction : 6
Overread into Lead-In and Lead-Out : No
Used output format : C:\Program Files\Exact Audio Copy\flac.exe   (User Defined Encoder)
                     192 kBit/s
                     Additional command line options : -V -8 -T "artist=%a" -T "title=%t" -T "album=%g" -T "date=%y" -T "tracknumber=%n" -T "genre=%m" %s
Other options      :
    Fill up missing offset samples with silence : Yes
    Delete leading and trailing silent blocks : No
    Installed external ASPI interface
Track  1
     Filename C:\Documents and Settings\xjasonx\Desktop\APS rips\Matthew West - 2005 - History\01 - History.wav
     Pre-gap length  0:00:02.00
     Peak level 100.0 %
     Track quality 100.0 %
     Test CRC 33E395E0
     Copy CRC 33E395E0
     Copy OK
Track  2
     Filename C:\Documents and Settings\xjasonx\Desktop\APS rips\Matthew West - 2005 - History\02 - Next Thing You Know.wav
     Peak level 99.9 %
     Track quality 100.0 %
     Test CRC 01C612C3
     Copy CRC 01C612C3
     Copy OK
Track  3
     Filename C:\Documents and Settings\xjasonx\Desktop\APS rips\Matthew West - 2005 - History\03 - Only Grace.wav
     Pre-gap length  0:00:00.25
     Peak level 100.0 %
     Track quality 100.0 %
     Test CRC FD529020
     Copy CRC FD529020
     Copy OK
Track  4
     Filename C:\Documents and Settings\xjasonx\Desktop\APS rips\Matthew West - 2005 - History\04 - Get Away.wav
     Peak level 100.0 %
     Track quality 99.9 %
     Test CRC 61A79204
     Copy CRC 61A79204
     Copy OK
Track  5
     Filename C:\Documents and Settings\xjasonx\Desktop\APS rips\Matthew West - 2005 - History\05 - The Day Before You.wav
     Pre-gap length  0:00:01.25
     Peak level 100.0 %
     Track quality 100.0 %
     Test CRC 6F5A36E2
     Copy CRC 6F5A36E2
     Copy OK
Track  6
     Filename C:\Documents and Settings\xjasonx\Desktop\APS rips\Matthew West - 2005 - History\06 - I Know You're There.wav
     Pre-gap length  0:00:00.24
     Peak level 100.0 %
     Track quality 99.9 %
     Test CRC 30AA98DE
     Copy CRC 30AA98DE
     Copy OK
Track  7
     Filename C:\Documents and Settings\xjasonx\Desktop\APS rips\Matthew West - 2005 - History\07 - Nothing Else.wav
     Pre-gap length  0:00:00.36
     Peak level 100.0 %
     Track quality 100.0 %
     Test CRC E1E20586
     Copy CRC E1E20586
     Copy OK
Track  8
     Filename C:\Documents and Settings\xjasonx\Desktop\APS rips\Matthew West - 2005 - History\08 - The Last Ones.wav
     Peak level 89.9 %
     Track quality 100.0 %
     Test CRC F321F57E
     Copy CRC F321F57E
     Copy OK
Track  9
     Filename C:\Documents and Settings\xjasonx\Desktop\APS rips\Matthew West - 2005 - History\09 - The Light of Eternity.wav
     Pre-gap length  0:00:00.54
     Peak level 99.9 %
     Track quality 100.0 %
     Test CRC CAB4CEDF
     Copy CRC CAB4CEDF
     Copy OK
Track 10
     Filename C:\Documents and Settings\xjasonx\Desktop\APS rips\Matthew West - 2005 - History\10 - Out of Time.wav
     Pre-gap length  0:00:00.98
     Peak level 100.0 %
     Track quality 100.0 %
     Test CRC E6BBC1B3
     Copy CRC E6BBC1B3
     Copy OK
Track 11
     Filename C:\Documents and Settings\xjasonx\Desktop\APS rips\Matthew West - 2005 - History\11 - A Few More Days.wav
     Pre-gap length  0:00:00.74
     Peak level 100.0 %
     Track quality 100.0 %
     Test CRC FFA1B59A
     Copy CRC FFA1B59A
     Copy OK
No errors occured
End of status report
Код:
REM GENRE "Christian"
REM DATE 2005
REM DISCID 8B0A7C0B
REM COMMENT "ExactAudioCopy v0.95b4"
PERFORMER "Matthew West"
TITLE "History"
FILE "01 - History.wav" WAVE
  TRACK 01 AUDIO
    TITLE "History"
    PERFORMER "Matthew West"
    INDEX 01 00:00:00
FILE "02 - Next Thing You Know.wav" WAVE
  TRACK 02 AUDIO
    TITLE "Next Thing You Know"
    PERFORMER "Matthew West"
    INDEX 01 00:00:00
  TRACK 03 AUDIO
    TITLE "Only Grace"
    PERFORMER "Matthew West"
    INDEX 00 03:19:70
FILE "03 - Only Grace.wav" WAVE
    INDEX 01 00:00:00
FILE "04 - Get Away.wav" WAVE
  TRACK 04 AUDIO
    TITLE "Get Away"
    PERFORMER "Matthew West"
    INDEX 01 00:00:00
  TRACK 05 AUDIO
    TITLE "The Day Before You"
    PERFORMER "Matthew West"
    INDEX 00 03:37:42
FILE "05 - The Day Before You.wav" WAVE
    INDEX 01 00:00:00
  TRACK 06 AUDIO
    TITLE "I Know You're There"
    PERFORMER "Matthew West"
    INDEX 00 04:23:28
FILE "06 - I Know You're There.wav" WAVE
    INDEX 01 00:00:00
  TRACK 07 AUDIO
    TITLE "Nothing Else"
    PERFORMER "Matthew West"
    INDEX 00 04:30:18
FILE "07 - Nothing Else.wav" WAVE
    INDEX 01 00:00:00
FILE "08 - The Last Ones.wav" WAVE
  TRACK 08 AUDIO
    TITLE "The Last Ones"
    PERFORMER "Matthew West"
    INDEX 01 00:00:00
  TRACK 09 AUDIO
    TITLE "The Light of Eternity"
    PERFORMER "Matthew West"
    INDEX 00 04:10:03
FILE "09 - The Light of Eternity.wav" WAVE
    INDEX 01 00:00:00
  TRACK 10 AUDIO
    TITLE "Out of Time"
    PERFORMER "Matthew West"
    INDEX 00 04:32:33
FILE "10 - Out of Time.wav" WAVE
    INDEX 01 00:00:00
  TRACK 11 AUDIO
    TITLE "A Few More Days"
    PERFORMER "Matthew West"
    INDEX 00 04:12:01
FILE "11 - A Few More Days.wav" WAVE
    INDEX 01 00:00:00
#777Треклист:
01. The Story Of Your Life (03:34)
02. My Own Little World (04:13)
03. Strong Enough (04:03)
04. Family Tree (04:04)
05. To Me (03:19)
06. One Less (03:15)
07. Two Houses (03:39)
08. Survivors (04:14)
09. Broken Girl (04:36)
10. The Reason For The World (04:11)
11. The Healing Has Begun (03:53)
Код:
Exact Audio Copy V0.99 prebeta 5 from 4. May 2009
EAC extraction logfile from 7. October 2010, 11:59
Matthew West / The Story Of Your Life
Used drive  : HL-DT-STBD-RE  WH10LS30   Adapter: 5  ID: 0
Read mode               : Secure
Utilize accurate stream : Yes
Defeat audio cache      : Yes
Make use of C2 pointers : No
Read offset correction                      : 667
Overread into Lead-In and Lead-Out          : No
Fill up missing offset samples with silence : Yes
Delete leading and trailing silent blocks   : No
Null samples used in CRC calculations       : Yes
Used interface                              : Native Win32 interface for Win NT & 2000
Gap handling                                : Appended to previous track
Used output format              : User Defined Encoder
Selected bitrate                : 768 kBit/s
Quality                         : High
Add ID3 tag                     : No
Command line compressor         : C:\Program Files (x86)\Exact Audio Copy\FLAC\FLAC.EXE
Additional command line options : -6 -V -T "ARTIST=%a" -T "TITLE=%t" -T "ALBUM=%g" -T "DATE=%y" -T "TRACKNUMBER=%n" -T "GENRE=%m" -T "COMMENT=%e" %s -o %d
TOC of the extracted CD
     Track |   Start  |  Length  | Start sector | End sector
    ---------------------------------------------------------
        1  |  0:00.00 |  3:34.16 |         0    |    16065
        2  |  3:34.16 |  4:13.10 |     16066    |    35050
        3  |  7:47.26 |  4:03.28 |     35051    |    53303
        4  | 11:50.54 |  4:04.46 |     53304    |    71649
        5  | 15:55.25 |  3:19.63 |     71650    |    86637
        6  | 19:15.13 |  3:15.12 |     86638    |   101274
        7  | 22:30.25 |  3:39.07 |    101275    |   117706
        8  | 26:09.32 |  4:14.12 |    117707    |   136768
        9  | 30:23.44 |  4:36.58 |    136769    |   157526
       10  | 35:00.27 |  4:11.47 |    157527    |   176398
       11  | 39:11.74 |  5:58.12 |    176399    |   203260
Track  1
     Filename G:\EAC\Matthew West - The Story Of Your Life - 2010 (FLAC)\01 - The Story Of Your Life.wav
     Pre-gap length  0:00:02.00
     Peak level 98.9 %
     Track quality 100.0 %
     Test CRC 0145E777
     Copy CRC 0145E777
     Track not present in AccurateRip database
     Copy OK
Track  2
     Filename G:\EAC\Matthew West - The Story Of Your Life - 2010 (FLAC)\02 - My Own Little World.wav
     Peak level 99.9 %
     Track quality 100.0 %
     Test CRC 68488C42
     Copy CRC 68488C42
     Track not present in AccurateRip database
     Copy OK
Track  3
     Filename G:\EAC\Matthew West - The Story Of Your Life - 2010 (FLAC)\03 - Strong Enough.wav
     Peak level 97.9 %
     Track quality 100.0 %
     Test CRC 0E5E424E
     Copy CRC 0E5E424E
     Track not present in AccurateRip database
     Copy OK
Track  4
     Filename G:\EAC\Matthew West - The Story Of Your Life - 2010 (FLAC)\04 - Family Tree.wav
     Peak level 97.9 %
     Track quality 100.0 %
     Test CRC 655C1095
     Copy CRC 655C1095
     Track not present in AccurateRip database
     Copy OK
Track  5
     Filename G:\EAC\Matthew West - The Story Of Your Life - 2010 (FLAC)\05 - To Me.wav
     Peak level 96.7 %
     Track quality 100.0 %
     Test CRC E15293BB
     Copy CRC E15293BB
     Track not present in AccurateRip database
     Copy OK
Track  6
     Filename G:\EAC\Matthew West - The Story Of Your Life - 2010 (FLAC)\06 - One Less.wav
     Peak level 98.1 %
     Track quality 100.0 %
     Test CRC 2FA90AEA
     Copy CRC 2FA90AEA
     Track not present in AccurateRip database
     Copy OK
Track  7
     Filename G:\EAC\Matthew West - The Story Of Your Life - 2010 (FLAC)\07 - Two Houses.wav
     Peak level 99.6 %
     Track quality 100.0 %
     Test CRC 7F19DC1E
     Copy CRC 7F19DC1E
     Track not present in AccurateRip database
     Copy OK
Track  8
     Filename G:\EAC\Matthew West - The Story Of Your Life - 2010 (FLAC)\08 - Survivors.wav
     Peak level 99.9 %
     Track quality 100.0 %
     Test CRC 2F625CC1
     Copy CRC 2F625CC1
     Track not present in AccurateRip database
     Copy OK
Track  9
     Filename G:\EAC\Matthew West - The Story Of Your Life - 2010 (FLAC)\09 - Broken Girl.wav
     Peak level 100.0 %
     Track quality 100.0 %
     Test CRC D0DD7024
     Copy CRC D0DD7024
     Track not present in AccurateRip database
     Copy OK
Track 10
     Filename G:\EAC\Matthew West - The Story Of Your Life - 2010 (FLAC)\10 - The Reason For The World.wav
     Peak level 98.7 %
     Track quality 100.0 %
     Test CRC D9452495
     Copy CRC D9452495
     Track not present in AccurateRip database
     Copy OK
Track 11
     Filename G:\EAC\Matthew West - The Story Of Your Life - 2010 (FLAC)\11 - The Healing Has Begun.wav
     Peak level 99.4 %
     Track quality 100.0 %
     Test CRC 7D84F450
     Copy CRC 7D84F450
     Track not present in AccurateRip database
     Copy OK
None of the tracks are present in the AccurateRip database
No errors occurred
End of status report
Код:
REM GENRE "Christian"
REM DATE 2010
REM DISCID 860A960B
REM COMMENT "ExactAudioCopy v0.99pb5"
PERFORMER "Matthew West"
TITLE "The Story Of Your Life"
FILE "01 - The Story Of Your Life.wav" WAVE
  TRACK 01 AUDIO
    TITLE "The Story Of Your Life"
    PERFORMER "Matthew West"
    INDEX 01 00:00:00
FILE "02 - My Own Little World.wav" WAVE
  TRACK 02 AUDIO
    TITLE "My Own Little World"
    PERFORMER "Matthew West"
    INDEX 01 00:00:00
FILE "03 - Strong Enough.wav" WAVE
  TRACK 03 AUDIO
    TITLE "Strong Enough"
    PERFORMER "Matthew West"
    INDEX 01 00:00:00
FILE "04 - Family Tree.wav" WAVE
  TRACK 04 AUDIO
    TITLE "Family Tree"
    PERFORMER "Matthew West"
    INDEX 01 00:00:00
FILE "05 - To Me.wav" WAVE
  TRACK 05 AUDIO
    TITLE "To Me"
    PERFORMER "Matthew West"
    INDEX 01 00:00:00
FILE "06 - One Less.wav" WAVE
  TRACK 06 AUDIO
    TITLE "One Less"
    PERFORMER "Matthew West"
    INDEX 01 00:00:00
FILE "07 - Two Houses.wav" WAVE
  TRACK 07 AUDIO
    TITLE "Two Houses"
    PERFORMER "Matthew West"
    INDEX 01 00:00:00
FILE "08 - Survivors.wav" WAVE
  TRACK 08 AUDIO
    TITLE "Survivors"
    PERFORMER "Matthew West"
    INDEX 01 00:00:00
FILE "09 - Broken Girl.wav" WAVE
  TRACK 09 AUDIO
    TITLE "Broken Girl"
    PERFORMER "Matthew West"
    INDEX 01 00:00:00
FILE "10 - The Reason For The World.wav" WAVE
  TRACK 10 AUDIO
    TITLE "The Reason For The World"
    PERFORMER "Matthew West"
    INDEX 01 00:00:00
FILE "11 - The Healing Has Begun.wav" WAVE
  TRACK 11 AUDIO
    TITLE "The Healing Has Begun"
    PERFORMER "Matthew West"
    INDEX 01 00:00:00
Правила, инструкции, FAQ!!!
Торрент  Добавлен [26 мар 2019, 19:25] Скачать торрент Магнет ссылка
Скачать торрент
[ Размер 7.07 КБ / Просмотров 3 ]

Статус
Проверен 
 
Размер  915.72 МБ
Приватный: Нет (DHT включён)
.torrent скачан  0
 


     Отправить личное сообщение
   
Страница 1 из 1
Показать сообщения за:  Поле сортировки  
Начать новую тему Ответить на тему


Сейчас этот форум просматривают: нет зарегистрированных пользователей и гости: 0


Вы не можете начинать темы
Вы не можете отвечать на сообщения
Вы не можете редактировать свои сообщения
Вы не можете удалять свои сообщения
Вы не можете добавлять вложения

Перейти:  
cron