Начать новую тему Ответить на тему
Статистика раздачи
Размер: 282.3 МБ | Добавлен: 26 мар 2019, 19:50 | Скачали: 0
Сидеров: 1  [0 байт/сек]    Личеров: 0  [0 байт/сек]
Пред. тема | След. тема 

Автор
Сообщение

СообщениеДобавлено: 26 мар 2019, 19:50 

Ответить с цитатой 

Bebo Norman - Ocean
Жанр: Contemporary Christian Music, Rock
Страна-производитель диска: U.S.
Год издания: 2010
Издатель: BEC Recordings
Аудиокодек: FLAC (*.flac) Тип рипа: tracks+.cue
Битрейт аудио: lossless
Носитель: Audio CD
Продолжительность: H:43:12
Источник (релизер): what.cd (Deadmarsh)
Наличие сканов: Нет
Треклист:
01. Everything I Hoped You'd Be
02. Here Goes
03. God of My Everything
04. Could You Ever Look at Me
05. We Fall Apart
06. Ocean
07. Sing Over Me
08. The Middle
09. I Hope You See Jesus
10. Remember Us
11. God of My Everything (Radio Version)
Код:
Exact Audio Copy V1.0 beta 3 from 29. August 2011
EAC extraction logfile from 13. February 2013, 23:00
Bebo Norman / Ocean
Used drive  : TSSTcorpCDDVDW SH-S223C   Adapter: 0  ID: 2
Read mode               : Secure
Utilize accurate stream : Yes
Defeat audio cache      : Yes
Make use of C2 pointers : No
Read offset correction                      : 697
Overread into Lead-In and Lead-Out          : No
Fill up missing offset samples with silence : Yes
Delete leading and trailing silent blocks   : No
Null samples used in CRC calculations       : Yes
Used interface                              : Native Win32 interface for Win NT & 2000
Gap handling                                : Appended to previous track
Used output format              : User Defined Encoder
Selected bitrate                : 1024 kBit/s
Quality                         : High
Add ID3 tag                     : No
Command line compressor         : D:\Software\Exact Audio Copy\Flac\flac.exe
Additional command line options : -8 -V -T "ARTIST=%artist%" -T "TITLE=%title%" -T "ALBUM=%albumtitle%" -T "DATE=%year%" -T "TRACKNUMBER=%tracknr%" -T "GENRE=%genre%" -T "PERFORMER=%albuminterpret%" -T "COMPOSER=%composer%" %haslyrics%--tag-from-file=LYRICS="%lyricsfile%"%haslyrics% -T "ALBUMARTIST=%albumartist%" -T "DISCNUMBER=%cdnumber%" -T "TOTALDISCS=%totalcds%" -T "TOTALTRACKS=%numtracks%" -T "COMMENT=%comment%" %source% -o %dest%
TOC of the extracted CD
     Track |   Start  |  Length  | Start sector | End sector
    ---------------------------------------------------------
        1  |  0:00.00 |  3:45.13 |         0    |    16887
        2  |  3:45.13 |  3:24.29 |     16888    |    32216
        3  |  7:09.42 |  3:33.51 |     32217    |    48242
        4  | 10:43.18 |  3:30.03 |     48243    |    63995
        5  | 14:13.21 |  3:51.54 |     63996    |    81374
        6  | 18:05.00 |  4:07.39 |     81375    |    99938
        7  | 22:12.39 |  4:14.01 |     99939    |   118989
        8  | 26:26.40 |  5:17.59 |    118990    |   142823
        9  | 31:44.24 |  4:20.04 |    142824    |   162327
       10  | 36:04.28 |  3:36.38 |    162328    |   178565
       11  | 39:40.66 |  3:31.47 |    178566    |   194437
Track  1
     Filename D:\Downloads\01 - Everything I Hoped You'd Be.wav
     Pre-gap length  0:00:02.00
     Peak level 99.9 %
     Extraction speed 1.9 X
     Track quality 100.0 %
     Test CRC 5988AAFD
     Copy CRC 5988AAFD
     Accurately ripped (confidence 2)  [46E74066]  (AR v2)
     Copy OK
Track  2
     Filename D:\Downloads\02 - Here Goes.wav
     Pre-gap length  0:00:01.13
     Peak level 99.8 %
     Extraction speed 2.1 X
     Track quality 100.0 %
     Test CRC BED36CCA
     Copy CRC BED36CCA
     Accurately ripped (confidence 2)  [E6981BAE]  (AR v2)
     Copy OK
Track  3
     Filename D:\Downloads\03 - God of My Everything.wav
     Peak level 99.9 %
     Extraction speed 2.2 X
     Track quality 100.0 %
     Test CRC E6DF3C4E
     Copy CRC E6DF3C4E
     Accurately ripped (confidence 2)  [DB12094D]  (AR v2)
     Copy OK
Track  4
     Filename D:\Downloads\04 - Could You Ever Look at Me.wav
     Pre-gap length  0:00:01.76
     Peak level 82.1 %
     Extraction speed 2.4 X
     Track quality 100.0 %
     Test CRC E20F8BB2
     Copy CRC E20F8BB2
     Accurately ripped (confidence 2)  [8688BFB1]  (AR v2)
     Copy OK
Track  5
     Filename D:\Downloads\05 - We Fall Apart.wav
     Pre-gap length  0:00:01.21
     Peak level 99.9 %
     Extraction speed 2.1 X
     Track quality 99.9 %
     Test CRC D4654948
     Copy CRC D4654948
     Accurately ripped (confidence 2)  [768286BF]  (AR v2)
     Copy OK
Track  6
     Filename D:\Downloads\06 - Ocean.wav
     Pre-gap length  0:00:00.29
     Peak level 99.8 %
     Extraction speed 2.7 X
     Track quality 100.0 %
     Test CRC CF629EAE
     Copy CRC CF629EAE
     Accurately ripped (confidence 2)  [54172B50]  (AR v2)
     Copy OK
Track  7
     Filename D:\Downloads\07 - Sing Over Me.wav
     Pre-gap length  0:00:00.53
     Peak level 99.8 %
     Extraction speed 2.8 X
     Track quality 100.0 %
     Test CRC C49EADEA
     Copy CRC C49EADEA
     Accurately ripped (confidence 2)  [8E1EA1A6]  (AR v2)
     Copy OK
Track  8
     Filename D:\Downloads\08 - The Middle.wav
     Pre-gap length  0:00:02.12
     Peak level 99.8 %
     Extraction speed 3.1 X
     Track quality 100.0 %
     Test CRC FA2EAE92
     Copy CRC FA2EAE92
     Accurately ripped (confidence 2)  [A7B090FD]  (AR v2)
     Copy OK
Track  9
     Filename D:\Downloads\09 - I Hope You See Jesus.wav
     Pre-gap length  0:00:01.05
     Peak level 99.8 %
     Extraction speed 3.1 X
     Track quality 100.0 %
     Test CRC 384D0CEA
     Copy CRC 384D0CEA
     Accurately ripped (confidence 2)  [3054C73C]  (AR v2)
     Copy OK
Track 10
     Filename D:\Downloads\10 - Remember Us.wav
     Pre-gap length  0:00:00.37
     Peak level 99.8 %
     Extraction speed 3.2 X
     Track quality 100.0 %
     Test CRC ECC8EE40
     Copy CRC ECC8EE40
     Accurately ripped (confidence 2)  [3BC42318]  (AR v2)
     Copy OK
Track 11
     Filename D:\Downloads\11 - God of My Everything (radio version).wav
     Pre-gap length  0:00:01.77
     Peak level 99.8 %
     Extraction speed 3.2 X
     Track quality 100.0 %
     Test CRC 5E226C11
     Copy CRC 5E226C11
     Accurately ripped (confidence 2)  [80B23D45]  (AR v2)
     Copy OK
All tracks accurately ripped
No errors occurred
End of status report
---- CUETools DB Plugin V2.1.3
[CTDB TOCID: JSGn3Mxv8BKUfW67SJt1NTjogTk-] found, Submit result: JSGn3Mxv8BKUfW67SJt1NTjogTk- has been confirmed
[39694a65] (1/3) Differs in 6988 samples @00:00:19-00:01:01,00:06:72,00:10:48,00:12:73,00:19:06,00:20:57,00:21:18,00:35:74,00:50:62,01:07:29,01:43:21,31:50:43,33:03:21,34:07:17,36:04:01,36:04:07,36:04:19-36:04:21,36:04:36,36:17:22
[cdf89faa] (2/3) Accurately ripped
You can use CUETools to repair this rip.
==== Log checksum 3750056E1C3EDFE30971697DDDA3076E86417F8B246630814FA9E8FCC88B6D97 ====
Код:
REM GENRE "Christian Rock"
REM DATE 2010
REM DISCID 950A200B
REM COMMENT "ExactAudioCopy v1.0b3"
CATALOG 5099964237725
PERFORMER "Bebo Norman"
TITLE "Ocean"
FILE "01 - Everything I Hoped You'd Be.wav" WAVE
  TRACK 01 AUDIO
    TITLE "Everything I Hoped You'd Be"
    PERFORMER "Bebo Norman"
    ISRC USBR21000103
    INDEX 01 00:00:00
  TRACK 02 AUDIO
    TITLE "Here Goes"
    PERFORMER "Bebo Norman"
    ISRC USBR21000102
    INDEX 00 03:44:03
FILE "02 - Here Goes.wav" WAVE
    INDEX 01 00:00:00
FILE "03 - God of My Everything.wav" WAVE
  TRACK 03 AUDIO
    TITLE "God of My Everything"
    PERFORMER "Bebo Norman"
    ISRC USBR21000104
    INDEX 01 00:00:00
  TRACK 04 AUDIO
    TITLE "Could You Ever Look at Me"
    PERFORMER "Bebo Norman"
    ISRC USBR21000105
    INDEX 00 03:31:69
FILE "04 - Could You Ever Look at Me.wav" WAVE
    INDEX 01 00:00:00
  TRACK 05 AUDIO
    TITLE "We Fall Apart"
    PERFORMER "Bebo Norman"
    ISRC USBR21000106
    INDEX 00 03:28:62
FILE "05 - We Fall Apart.wav" WAVE
    INDEX 01 00:00:00
  TRACK 06 AUDIO
    TITLE "Ocean"
    PERFORMER "Bebo Norman"
    ISRC USBR21000107
    INDEX 00 03:51:32
FILE "06 - Ocean.wav" WAVE
    INDEX 01 00:00:00
  TRACK 07 AUDIO
    TITLE "Sing Over Me"
    PERFORMER "Bebo Norman"
    ISRC USBR21000108
    INDEX 00 04:06:74
FILE "07 - Sing Over Me.wav" WAVE
    INDEX 01 00:00:00
  TRACK 08 AUDIO
    TITLE "The Middle"
    PERFORMER "Bebo Norman"
    ISRC USBR21000109
    INDEX 00 04:11:67
FILE "08 - The Middle.wav" WAVE
    INDEX 01 00:00:00
  TRACK 09 AUDIO
    TITLE "I Hope You See Jesus"
    PERFORMER "Bebo Norman"
    ISRC USBR21000110
    INDEX 00 05:16:55
FILE "09 - I Hope You See Jesus.wav" WAVE
    INDEX 01 00:00:00
  TRACK 10 AUDIO
    TITLE "Remember Us"
    PERFORMER "Bebo Norman"
    ISRC USBR21000111
    INDEX 00 04:19:51
FILE "10 - Remember Us.wav" WAVE
    INDEX 01 00:00:00
  TRACK 11 AUDIO
    TITLE "God of My Everything (radio version)"
    PERFORMER "Bebo Norman"
    ISRC USBR21000112
    INDEX 00 03:34:55
FILE "11 - God of My Everything (radio version).wav" WAVE
    INDEX 01 00:00:00
Код:
-----------------------
DON'T MODIFY THIS FILE
-----------------------
PERFORMER: auCDtect Task Manager, ver. 1.6.0 RC1 build 1.6.0.1
Copyright (c) 2008-2010 y-soft. All rights reserved
[url=http://y-soft.org]http://y-soft.org[/url]
ANALYZER: auCDtect: CD records authenticity detector, version 0.8.2
Copyright (c) 2004 Oleg Berngardt. All rights reserved.
Copyright (c) 2004 Alexander Djourik. All rights reserved.
FILE: 02 - Here Goes.flac
  Size: 26035545 Hash: DF60CA7B59FB4A5914FB90B188FBAD5B Accuracy: -m0
  Conclusion: CDDA 100%
  Signature: 09F99716D297DCC5E3FAF0AE7F143F3588E12F47
FILE: 03 - God of My Everything.flac
  Size: 23299741 Hash: 18E78C9B7753353780DF04F0DE17D902 Accuracy: -m0
  Conclusion: CDDA 100%
  Signature: 6685699235AD11424BFD1528EE5E4EE74244277C
FILE: 04 - Could You Ever Look at Me.flac
  Size: 19759490 Hash: BC62CF7AA31621AD391B7A1FAA6C57BA Accuracy: -m0
  Conclusion: CDDA 100%
  Signature: 901B365DCCC64209DCD8DEB298AB2EBA5F68F17A
FILE: 05 - We Fall Apart.flac
  Size: 28766725 Hash: CCAE52671AD196DA2B9BFA45D314B610 Accuracy: -m0
  Conclusion: CDDA 100%
  Signature: DAB73C113BF669A044FF08542C580AE93A22D83E
FILE: 06 - Ocean.flac
  Size: 28308995 Hash: 13107F940CB6A1090EA3783A392A0959 Accuracy: -m0
  Conclusion: CDDA 99%
  Signature: 8B6F518C497088847D2C1EB912B7E7F2690A4396
FILE: 07 - Sing Over Me.flac
  Size: 29062498 Hash: B14AC5E081520C76D4844DFA2BC9C0E8 Accuracy: -m0
  Conclusion: CDDA 100%
  Signature: 42D5FDAE4A9B8D100AF561FF796F88501E2C08F2
FILE: 08 - The Middle.flac
  Size: 30243680 Hash: 6FD20BECCC66D63586F6D93FDB525628 Accuracy: -m0
  Conclusion: CDDA 99%
  Signature: 32A47D07D7F706C37AE3A2E52EE110AC62FA1F33
FILE: 09 - I Hope You See Jesus.flac
  Size: 30230640 Hash: 7BEB388AC6390FDB31F1ACCB42B8A31C Accuracy: -m0
  Conclusion: CDDA 100%
  Signature: 77FF6E3D0ED41FDBF7E19CD4930800F005CC6735
FILE: 10 - Remember Us.flac
  Size: 26701375 Hash: 8B8FF984923E860A4E76DDB7B8A0F87D Accuracy: -m0
  Conclusion: CDDA 99%
  Signature: 4B44733EBE39D5B01B3E81EA137692B3DF804934
FILE: 11 - God of My Everything (radio version).flac
  Size: 24324445 Hash: 11ABF30A99E42EEC71C226ADFCF618F3 Accuracy: -m0
  Conclusion: CDDA 100%
  Signature: 556058FA3D1B6BF83AE802A149B227989A38A293
FILE: 01 - Everything I Hoped You'd Be.flac
  Size: 29110441 Hash: FD38CF5130B88E6DE9DA4A947C9BF0EA Accuracy: -m0
  Conclusion: CDDA 99%
  Signature: 33C3B24D764855FE60784236568F9DA31E4BF678
Правила, инструкции, FAQ!!!
Торрент  Добавлен [26 мар 2019, 19:50] Скачать торрент Магнет ссылка
Скачать торрент
[ Размер 12.31 КБ / Просмотров 5 ]

Статус
Проверен 
 
Размер  282.3 МБ
Приватный: Нет (DHT включён)
.torrent скачан  0
 


     Отправить личное сообщение
   
Страница 1 из 1
Показать сообщения за:  Поле сортировки  
Начать новую тему Ответить на тему


Сейчас этот форум просматривают: нет зарегистрированных пользователей и гости: 0


Вы не можете начинать темы
Вы не можете отвечать на сообщения
Вы не можете редактировать свои сообщения
Вы не можете удалять свои сообщения
Вы не можете добавлять вложения

Перейти:  
cron