Начать новую тему Ответить на тему
Статистика раздачи
Размер: 1.62 ГБ | Добавлен: 07 янв 2020, 21:06 | Скачали: 0
Сидеров: 0  [0 байт/сек]    Личеров: 0  [0 байт/сек]
Пред. тема | След. тема 

Автор
Сообщение

СообщениеДобавлено: 07 янв 2020, 21:06 

Ответить с цитатой 

Tech N9ne / Collabos / Strangeulation Vol. II
Жанр: Conscious, Horrorcore, Gangsta
Носитель: LP
Год издания: 2015
Издатель(лейбл): Strange Music
Аудиокодек: FLAC (*.flac)
Тип рипа: tracks
Разрядность: 24/96
Наличие сканов в содержимом раздачи: Нет
Продолжительность: 01:20:05
Источник (релизер): what
1. Praise KOD (feat. Ryan Bradley) (4:36)
2. Strangeulation, Vol. II - Cypher I (2:52)
3. PBSA (feat. Ces Cru) (4:25)
4. Push Start (feat. Big Scoob) (3:05)
5. Slow to Me (feat. Krizz Kaliko, Rittz) (4:40)
6. Strangeulation, Vol. II - Cypher II (feat. Ces Cru, Stevie Stone) (4:03)
7. MMM (3:54)
8. Intruders (Skit) (1:04)
9. Tell Me If I’m Trippin (feat. Prozak, Brotha Lynch Hung, Tyler Lyon) (4:34)
10. We Just Wanna Party (feat. Rittz, Darrein Safron) (4:01)
11. Muah (feat. Krizz Kaliko) (3:29)
12. Strangeulation, Vol. II - Cypher III (feat. Big Scoob, JL B. Hood) (2:38)
13. Fired (feat. Stevie Stone, Darrein Safron) (4:07)
14. Real with Yourself (feat. Darrein Safron) (4:12)
15. Chilly Rub (feat. Stevie Stone, Godemis) (4:18)
16. Strangeulation, Vol. II - Cypher IV (feat. Krizz Kaliko, Rittz, Prozak) (3:15)
17. Wake and Bake (feat. Krizz Kaliko, ¡MAYDAY!) (3:57)
18. Message to MURS (Skit) (0:46)
19. Blunt and a Ho (feat. MURS, Ubiquitous) (3:12)
20. Strangeulation, Vol. II - Cypher V (feat. MURS, Wrekonize, Bernz) (2:54)
21. Actin Like You Know (feat. Mackenzie O'Guin) (4:09)
22. Torrid (feat. Tyler Lyon) (4:32)
23. Strange (Outro) [Bonus Track] (1:02)
Код:
foobar2000 1.3.7 / Замер динамического диапазона (DR) 1.1.1
Дата отчёта:  2016-01-14 21:27:51
--------------------------------------------------------------------------------
Анализ:   Tech Nine / Strangeulation 2
--------------------------------------------------------------------------------
DR         Пики         RMS           Продолжительность трека
--------------------------------------------------------------------------------
DR10      -0.04 дБ   -14.48 дБ      4:34 1-Praise KOD (featuring Ryan Bradley)
DR10       0.00 дБ   -11.78 дБ      2:52 2-Strangeulation Vol. II Cypher I
DR9        0.00 дБ   -11.86 дБ      4:36 3-PBSA (featuring Ces Cru)
DR10      -0.54 дБ   -12.88 дБ      2:55 4-Push Start (featuring Big Scoob)
DR10       0.00 дБ   -13.52 дБ      4:34 5-Slow To Me (featuring Krizz Kaliko & Rittz)
DR10      -1.18 дБ   -13.30 дБ      4:13 6-Strangeulation Vol. II Cypher II (featuring Ces Cru & Stevie Stone)
DR11      -0.68 дБ   -14.00 дБ      3:44 7-MMM
DR15       0.00 дБ   -19.50 дБ      1:05 8-Intruders (skit)
DR11      -0.97 дБ   -13.40 дБ      4:27 9-Tell Me If I'm Trippin (featuring Prozak, Brotha Lynch Hung & Tyler Lyon)
DR9       -2.18 дБ   -14.64 дБ      4:07 10-We Just Wanna Party (featuring Rittz & Darrein Safron)
DR11      -2.50 дБ   -15.21 дБ      3:29 11-Muah (featuring Krizz Kaliko)
DR10      -0.45 дБ   -12.29 дБ      2:44 12-Strangeulation Vol. II Cypher III (featuring Big Scoob & JL B. Hood)
DR10      -1.42 дБ   -13.78 дБ      4:02 13-Fired (featuring Stevie Stone & Darrein Safron)
DR10      -1.59 дБ   -15.72 дБ      4:11 14-Real With Yourself (Darrein Safron featuring Tech N9ne)
DR9       -0.96 дБ   -14.75 дБ      4:19 15-Chilly Rub (featuring Stevie Stone & Godemis)
DR11      -0.45 дБ   -13.86 дБ      3:41 16-Strangeulation Vol. II Cypher IV (featuring Krizz Kaliko, Rittz & Prozak)
DR11      -0.16 дБ   -11.85 дБ      4:00 17-Wake And Bake (featuring Krizz Kaliko & ¡MAYDAY!)
DR13      -8.76 дБ   -23.09 дБ      0:46 18-Message To MURS (skit)
DR10      -1.34 дБ   -13.18 дБ      3:12 19-Blunt And A Ho (featuring MURS & Ubiquitous)
DR11      -0.23 дБ   -12.57 дБ      2:54 20-Strangeulation Vol. II Cypher V (featuring MURS, Wrekonize & Bernz)
DR10      -1.83 дБ   -14.11 дБ      4:08 21-Actin Like You Know (Mackenzie O Guin featuring Tech N9ne)
DR10      -1.32 дБ   -15.07 дБ      4:32 22-Torrid (featuring Tyler Lyon)
DR10      -1.92 дБ   -13.28 дБ      1:01 23-Strange (Outro)
--------------------------------------------------------------------------------
Количество треков: 23
Реальные значения DR: DR10
Частота:  96000 Гц
Каналов:  2
Разрядность:   24
Битрейт:  2916 кбит/с
Кодек:   FLAC
================================================================================
[img]http://i74.fastpic.ru/big/2016/0114/be/b3f290ee8001a6a4d27110c70eb5fabe.png[/img]
Правила, инструкции, FAQ!!!
Торрент  Добавлен [07 янв 2020, 21:06] Скачать торрент Магнет ссылка
Скачать торрент
[ Размер 18.72 КБ / Просмотров 10 ]

Статус
Проверен 
 
Размер  1.62 ГБ
Приватный: Нет (DHT включён)
.torrent скачан  0
 


     Отправить личное сообщение
   
Страница 1 из 1
Показать сообщения за:  Поле сортировки  
Начать новую тему Ответить на тему


Сейчас этот форум просматривают: нет зарегистрированных пользователей и гости: 0


Вы не можете начинать темы
Вы не можете отвечать на сообщения
Вы не можете редактировать свои сообщения
Вы не можете удалять свои сообщения
Вы не можете добавлять вложения

Перейти:  
cron