Начать новую тему Ответить на тему
Статистика раздачи
Размер: 294.51 МБ | Добавлен: 26 мар 2019, 20:44 | Скачали: 1
Сидеров: 1  [0 байт/сек]    Личеров: 0  [0 байт/сек]
Пред. тема | След. тема 

Автор
Сообщение

СообщениеДобавлено: 26 мар 2019, 20:44 

Ответить с цитатой 

Alanis Morissette - Crazy (Compact Disc Maxi-Single)
Жанр: Club/Remix
Год выпуска диска: 2005
Производитель диска: ©℗2005 Maverick Recording Company. Made in U.S.A.
Аудио кодек: FLAC
Тип рипа: tracks+.cue
Битрейт аудио: lossless
Продолжительность: 42:11
Трэклист:
Код:
01. Crazy (Claude Le Gache Club Mix)     8:21
02. Crazy (Eddie Baez Coo Coo Club Mix)  9:15
03. Crazy (Monk's Mix Of Meds)           8:09
04. Crazy (Interstate Full Length Mix)  10:21
05. Crazy (Claude Le Gache Mixshow)      6:05
Код:
Exact Audio Copy V0.99 prebeta 4 from 23. January 2008
Отчёт EAC об извлечении, выполненном 9. февраля 2009, 12:17
Alanis Morissette / Crazy (CD Maxi-Single)
Дисковод: HL-DT-STDVDRAM GSA-4163B   Adapter: 3  ID: 0
Режим чтения                 : Достоверность
Использование точного потока : Да
Отключение кэша аудио        : Да
Использование указателей C2  : Нет
Коррекция смещения при чтении                     : 667
Способность читать области Lead-in и Lead-out     : Нет
Заполнение пропущенных сэмплов тишиной            : Да
Удаление блоков с тишиной в начале и конце        : Нет
При вычислениях CRC использовались нулевые сэмплы : Да
Интерфейс                                         : Установленный внешний ASPI-интерфейс
Обработка зазоров                                 : Добавлено к предыдущему треку
Выходной формат          : Пользовательский кодировщик
Выбранный битрейт        : 768 kBit/s
Качество                 : Высокий
Добавление ID3-тэга      : Нет
Утилита сжатия           : C:\Program Files\Exact Audio Copy\FLAC\FLAC.EXE
Дополнительные параметры : -8 -V -T "ARTIST=%a" -T "TITLE=%t" -T "ALBUM=%g" -T "DATE=%y" -T "TRACKNUMBER=%n" -T "GENRE=%m" -T "COMMENT=EAC FLAC -8" %s
TOC извлечённого CD
     Трек |   Старт  | Длительность | Начальный сектор | Конечный сектор
    ---------------------------------------------------------------------
       1  |  0:00.00 |    8:20.67   |           0      |      37566
       2  |  8:20.67 |    9:15.33   |       37567      |      79224
       3  | 17:36.25 |    8:08.71   |       79225      |     115895
       4  | 25:45.21 |   10:21.28   |      115896      |     162498
       5  | 36:06.49 |    6:04.58   |      162499      |     189856
Трек  1
     Имя файла M:\M\Alanis Morissette\Alanis Morissette-Crazy (CD Maxi-Single)-2005\01. Crazy (Claude Le Gache Club Mix).wav
     Длина предзазора  0:00:02.00
     Пиковый уровень 98.8 %
     Качество трека 100.0 %
     CRC теста 54249143
     CRC копии 54249143
     Трек не обнаружен в базе AccurateRip
     Копирование... OK
Трек  2
     Имя файла M:\M\Alanis Morissette\Alanis Morissette-Crazy (CD Maxi-Single)-2005\02. Crazy (Eddie Baez Coo Coo Club Mix).wav
     Пиковый уровень 98.0 %
     Качество трека 100.0 %
     CRC теста D50E5660
     CRC копии D50E5660
     Трек не обнаружен в базе AccurateRip
     Копирование... OK
Трек  3
     Имя файла M:\M\Alanis Morissette\Alanis Morissette-Crazy (CD Maxi-Single)-2005\03. Crazy (Monk's Mix Of Meds).wav
     Пиковый уровень 98.8 %
     Качество трека 100.0 %
     CRC теста 25BF14CE
     CRC копии 25BF14CE
     Трек не обнаружен в базе AccurateRip
     Копирование... OK
Трек  4
     Имя файла M:\M\Alanis Morissette\Alanis Morissette-Crazy (CD Maxi-Single)-2005\04. Crazy (Interstate Full Length Mix).wav
     Длина предзазора  0:00:01.72
     Пиковый уровень 98.8 %
     Качество трека 100.0 %
     CRC теста 293D72E9
     CRC копии 293D72E9
     Трек не обнаружен в базе AccurateRip
     Копирование... OK
Трек  5
     Имя файла M:\M\Alanis Morissette\Alanis Morissette-Crazy (CD Maxi-Single)-2005\05. Crazy (Claude Le Gache Mixshow).wav
     Пиковый уровень 98.8 %
     Качество трека 100.0 %
     CRC теста 486051F0
     CRC копии 486051F0
     Трек не обнаружен в базе AccurateRip
     Копирование... OK
Ни одного трека нет в базе AccurateRip
Ошибок не произошло
Конец отчёта
Правила, инструкции, FAQ!!!
Торрент  Добавлен [26 мар 2019, 20:44] Скачать торрент Магнет ссылка
Скачать торрент
[ Размер 24.63 КБ / Просмотров 10 ]

Статус
Проверен 
 
Размер  294.51 МБ
Приватный: Нет (DHT включён)
.torrent скачан  1
 


     Отправить личное сообщение
   
Страница 1 из 1
Показать сообщения за:  Поле сортировки  
Начать новую тему Ответить на тему


Сейчас этот форум просматривают: нет зарегистрированных пользователей и гости: 0


Вы не можете начинать темы
Вы не можете отвечать на сообщения
Вы не можете редактировать свои сообщения
Вы не можете удалять свои сообщения
Вы не можете добавлять вложения

Перейти:  
cron