Начать новую тему Ответить на тему
Статистика раздачи
Размер: 15.04 ГБ | Добавлен: 25 июн 2020, 22:35 | Скачали: 1
Сидеров: 1  [0 байт/сек]    Личеров: 0  [0 байт/сек]
Пред. тема | След. тема 

Автор
Сообщение

СообщениеДобавлено: 25 июн 2020, 22:35 

Ответить с цитатой 



Жанр: Classical Crossover | Производитель диска: EU / USA / JAPAN | Лейбл: Sugar
Год издания: 1994-2018 | Аудио кодек: FLAC | Тип рипа: image+.cue / tracks+.cue | Битрейт аудио: lossless
Источник (релизер): Рипы оригинальных дисков из личной коллекции / чужие | Наличие сканов: 600dpi, JPG

●★● АНТОЛОГИЯ ●★●

01. Il Mare Calmo Della Sera (4:41)
02. Ave Maria No Morro (4:23)
03. Vivere (feat. Gerardina Trovato) (4:02)
04. Rapsodia (5:28)
05. La Luna Che Non C'e (4:37)
06. Caruso (5:21)
07. Miserere (4:16)
08. Panis Angelicus (3:53)
09. Ah, La Paterna Mano (from 'Macbeth') (4:05)
10. E Lucean Le Stelle (from 'Tosca') (3:14)
11. La Fleur Que Tu M'Avais Jetee (from 'Carmen') (4:25)
12. L'Anima Ho Stanca (from 'Adriana Lecouvreur') (2:22)
13. Sogno (3:04)
Код:
Exact Audio Copy V0.99 prebeta 4 from 23. January 2008
EAC extraction logfile from 28. October 2008, 16:01
Andrea Bocelli / Il Mare Calmo Della Sera
Used drive  : HL-DT-STDVDRAM GSA-T10N   Adapter: 0  ID: 0
Read mode               : Secure
Utilize accurate stream : Yes
Defeat audio cache      : Yes
Make use of C2 pointers : No
Read offset correction                      : 667
Overread into Lead-In and Lead-Out          : No
Fill up missing offset samples with silence : Yes
Delete leading and trailing silent blocks   : No
Null samples used in CRC calculations       : Yes
Used interface                              : Installed external ASPI interface
Gap handling                                : Appended to previous track
Used output format              : User Defined Encoder
Selected bitrate                : 128 kBit/s
Quality                         : High
Add ID3 tag                     : No
Command line compressor         : C:\Programmi\FLAC\flac.exe
Additional command line options :     -8 -V -T "artist=%a" -T "title=%t" -T "album=%g" -T "date=%y" -T "tracknumber=%n" -T "genre=%m" %s
TOC of the extracted CD
     Track |   Start  |  Length  | Start sector | End sector
    ---------------------------------------------------------
        1  |  0:00.03 |  4:40.67 |         3    |    21069
        2  |  4:40.70 |  4:22.37 |     21070    |    40756
        3  |  9:03.32 |  4:02.25 |     40757    |    58931
        4  | 13:05.57 |  5:28.03 |     58932    |    83534
        5  | 18:33.60 |  4:36.67 |     83535    |   104301
        6  | 23:10.52 |  5:21.23 |    104302    |   128399
        7  | 28:32.00 |  4:15.42 |    128400    |   147566
        8  | 32:47.42 |  3:53.08 |    147567    |   165049
        9  | 36:40.50 |  4:05.02 |    165050    |   183426
       10  | 40:45.52 |  3:13.59 |    183427    |   197960
       11  | 43:59.36 |  4:25.12 |    197961    |   217847
       12  | 48:24.48 |  2:22.30 |    217848    |   228527
       13  | 50:47.03 |  3:03.34 |    228528    |   242286
Track  1
     Filename G:\MASTER\bocelli\01 - Il Mare Calmo Della Sera.wav
 Pre-gap length  0:00:02.03
 Peak level 64.5 %
 Track quality 99.9 %
 Test CRC 23931E0D
 Copy CRC 23931E0D
 Track not present in AccurateRip database
 Copy OK
Track  2
 Filename G:\MASTER\bocelli\02 - Ave Maria No Morro.wav
 Pre-gap length  0:00:01.06
 Peak level 70.5 %
 Track quality 100.0 %
 Test CRC 0CEAD0FA
 Copy CRC 0CEAD0FA
 Track not present in AccurateRip database
 Copy OK
Track  3
 Filename G:\MASTER\bocelli\03 - Vivere (feat. Gerardina Trovato).wav
 Pre-gap length  0:00:01.35
 Peak level 79.1 %
 Track quality 100.0 %
 Test CRC D8536EFB
 Copy CRC D8536EFB
 Track not present in AccurateRip database
 Copy OK
Track  4
 Filename G:\MASTER\bocelli\04 - Rapsodia.wav
 Pre-gap length  0:00:01.40
 Peak level 74.5 %
 Track quality 100.0 %
 Test CRC 9CB52452
 Copy CRC 9CB52452
 Track not present in AccurateRip database
 Copy OK
Track  5
 Filename G:\MASTER\bocelli\05 - La Luna Che Non C'e.wav
 Pre-gap length  0:00:00.58
 Peak level 69.7 %
 Track quality 100.0 %
 Test CRC 48E794C6
 Copy CRC 48E794C6
 Track not present in AccurateRip database
 Copy OK
Track  6
 Filename G:\MASTER\bocelli\06 - Caruso.wav
 Pre-gap length  0:00:05.15
 Peak level 73.8 %
 Track quality 100.0 %
 Test CRC B5402E85
 Copy CRC B5402E85
 Track not present in AccurateRip database
 Copy OK
Track  7
 Filename G:\MASTER\bocelli\07 - Miserere.wav
 Pre-gap length  0:00:03.40
 Peak level 77.0 %
 Track quality 100.0 %
 Test CRC 3E42FC7B
 Copy CRC 3E42FC7B
 Track not present in AccurateRip database
 Copy OK
Track  8
 Filename G:\MASTER\bocelli\08 - Panis Angelicus.wav
 Pre-gap length  0:00:02.52
 Peak level 83.5 %
 Track quality 99.9 %
 Test CRC 033D9797
 Copy CRC 033D9797
 Track not present in AccurateRip database
 Copy OK
Track  9
 Filename G:\MASTER\bocelli\09 - Ah, La Paterna Mano (from 'Macbeth').wav
 Pre-gap length  0:00:01.40
 Peak level 86.9 %
 Track quality 99.9 %
 Test CRC 04860C7D
 Copy CRC 04860C7D
 Track not present in AccurateRip database
 Copy OK
Track 10
 Filename G:\MASTER\bocelli\10 - E Lucean Le Stelle (from 'Tosca').wav
 Peak level 84.5 %
 Track quality 100.0 %
 Test CRC 4FB42B8F
 Copy CRC 4FB42B8F
 Track not present in AccurateRip database
 Copy OK
Track 11
 Filename G:\MASTER\bocelli\11 - La Fleur Que Tu M'Avais Jetйe (from 'Carmen').wav
 Peak level 89.3 %
 Track quality 100.0 %
 Test CRC BAEB7753
 Copy CRC BAEB7753
 Track not present in AccurateRip database
 Copy OK
Track 12
 Filename G:\MASTER\bocelli\12 - L'Anima Ho Stanca (from 'Adriana Lecouvreur').wav
 Peak level 89.2 %
 Track quality 100.0 %
 Test CRC 15B1941F
 Copy CRC 15B1941F
 Track not present in AccurateRip database
 Copy OK
Track 13
 Filename G:\MASTER\bocelli\13 - Sogno.wav
 Peak level 97.3 %
 Track quality 100.0 %
 Test CRC C745CE60
 Copy CRC C745CE60
 Track not present in AccurateRip database
 Copy OK
None of the tracks are present in the AccurateRip database
No errors occurred
End of status report
#777
01. Nessun dorma
02. Lamento di Federico
03. Ah, la paterna mano
04. La donna è mobile
05. Una furtiva lacrima
06. Panis angelicus
07. Ave Maria
08. O sole mio
09. Core n'grato
10. Santa Lucia luntana
11. I' te vurria vasà
12. Tu, 'ca nun chiagne!
13. Marinarello
14. Piscatore 'e Pusilleco
Дополнительная информация: Первое итальянское издание альбома.
Код:
Exact Audio Copy V1.0 beta 3 from 29. August 2011
EAC extraction logfile from 6. April 2013, 10:12
Andrea Bocelli / Viaggio italiano {Italian Edition} (SGR 4428-2) (8012842442827)
Used drive  : TSSTcorpCDDVDW TS-L633C   Adapter: 2  ID: 0
Read mode               : Secure
Utilize accurate stream : Yes
Defeat audio cache      : Yes
Make use of C2 pointers : No
Read offset correction                      : 6
Overread into Lead-In and Lead-Out          : No
Fill up missing offset samples with silence : Yes
Delete leading and trailing silent blocks   : No
Null samples used in CRC calculations       : Yes
Used interface                              : Native Win32 interface for Win NT & 2000
Used output format : Internal WAV Routines
Sample format      : 44.100 Hz; 16 Bit; Stereo
TOC of the extracted CD
     Track |   Start  |  Length  | Start sector | End sector
    ---------------------------------------------------------
        1  |  0:00.00 |  3:13.07 |         0    |    14481
        2  |  3:13.07 |  4:40.63 |     14482    |    35544
        3  |  7:53.70 |  3:20.60 |     35545    |    50604
        4  | 11:14.55 |  2:18.20 |     50605    |    60974
        5  | 13:33.00 |  4:13.72 |     60975    |    80021
        6  | 17:46.72 |  3:58.15 |     80022    |    97886
        7  | 21:45.12 |  4:26.38 |     97887    |   117874
        8  | 26:11.50 |  4:39.62 |    117875    |   138861
        9  | 30:51.37 |  4:45.50 |    138862    |   160286
       10  | 35:37.12 |  5:09.68 |    160287    |   183529
       11  | 40:47.05 |  5:42.10 |    183530    |   209189
       12  | 46:29.15 |  3:36.57 |    209190    |   225446
       13  | 50:05.72 |  3:59.58 |    225447    |   243429
       14  | 54:05.55 |  4:18.50 |    243430    |   262829
Range status and errors
Selected range
     Filename C:\Users\user\Desktop\Andrea Bocelli - Viaggio italiano {Italian Edition} (SGR 4428-2) (8012842442827).wav
     Peak level 98.8 %
     Extraction speed 3.6 X
     Range quality 100.0 %
     Test CRC 4E0638E6
     Copy CRC 4E0638E6
     Copy OK
No errors occurred
AccurateRip summary
Track  1  not present in database
Track  2  not present in database
Track  3  not present in database
Track  4  not present in database
Track  5  not present in database
Track  6  not present in database
Track  7  not present in database
Track  8  not present in database
Track  9  not present in database
Track 10  not present in database
Track 11  not present in database
Track 12  not present in database
Track 13  not present in database
Track 14  not present in database
None of the tracks are present in the AccurateRip database
End of status report
#77701. Con Te Partiro (4:12)
02. Per Amore (4:45)
03. Macchine Da Guerra (4:11)
04. E Chiove (4:26)
05. Romanza (3:45)
06. The Power of Love (5:07)
07. Vivo Per Lei (feat. Giorgia) (4:26)
08. Le Tue Parole (3:60)
09. Sempre Sempre (4:22)
10. Voglio Restare Cosi (3:55)
11. Vivo Per Lei (feat. Judy Weiss) (4:25)
Код:
EAC extraction logfile from 29. July 2008, 11:26 for CD
Andrea Bocelli / Bocelli
Used drive : TSSTcorpCDDVDW SE-S204N Adapter: 1 ID: 0
Read mode : Secure with NO C2, accurate stream, disable cache
Read offset correction : 6
Overread into Lead-In and Lead-Out : No
Used output format : C:\Program Files\FLAC\flac.exe (User Defined Encoder)
128 kBit/s
Additional command line options : -8 -V -T "ARTIST=%a" -T "TITLE=%t" -T "ALBUM=%g" -T "DATE=%y" -T "TRACKNUMBER=%n" -T "GENRE=%m" -T "COMMENT=EAC FLAC -8" %s
Other options :
Fill up missing offset samples with silence : Yes
Delete leading and trailing silent blocks : No
Installed external ASPI interface
Range status and errors
Selected range
Filename J:\TTT\Andrea Bocelli - Bocelli[rutracker.org]\Andrea Bocelli - Bocelli.wav.wav.wav
Peak level 100.0 %
Range quality 99.9 %
CRC DEAABD39
Copy OK
No errors occured
End of status report
#77701. Con Te Partiro (4:12)
02. Vivere (feat. Gerardina Trovato) (4:03)
03. Per Amore (4:43)
04. Il Mare Calmo Della Sera (4:43)
05. Caruso (5:20)
06. Macchine Da Guerra (4:10)
07. Le Tue Parole (3:59)
08. Vivo Per Lei (feat. Giorgia) (4:25)
09. Romanza (3:45)
10. La Luna Che Non C'e (4:33)
11. Rapsodia (5:29)
12. Voglio Restare Cosi (3:53)
13. E Chiove (4:24)
14. Miserere (Live) (feat. John Miles) (4:19)
15. Con Te Partiro (feat. Sarah Brightman) (4:12)
Код:
Exact Audio Copy V0.99 prebeta 4 from 23. January 2008
Отчёт EAC об извлечении, выполненном 19. февраля 2009, 14:46
Andrea Bocelli / Romanza
Дисковод: TSSTcorpCDDVDW SN-S082N   Adapter: 1  ID: 0
Режим чтения                 : Достоверность
Использование точного потока : Да
Отключение кэша аудио        : Да
Использование указателей C2  : Нет
Коррекция смещения при чтении                     : 6
Способность читать области Lead-in и Lead-out     : Нет
Заполнение пропущенных сэмплов тишиной            : Да
Удаление блоков с тишиной в начале и конце        : Нет
При вычислениях CRC использовались нулевые сэмплы : Нет
Интерфейс                                         : Встроенный Win32-интерфейс для Win NT/2000
Выходной формат : Внутренние WAV-операции
Формат сэмплов  : 44.100 Гц; 16 бит; стерео
TOC извлечённого CD
     Трек |   Старт  | Длительность | Начальный сектор | Конечный сектор
    ---------------------------------------------------------------------
       1  |  0:00.00 |    4:11.55   |           0      |      18879
       2  |  4:11.55 |    4:03.15   |       18880      |      37119
       3  |  8:14.70 |    4:42.47   |       37120      |      58316
       4  | 12:57.42 |    4:42.40   |       58317      |      79506
       5  | 17:40.07 |    5:19.25   |       79507      |     103456
       6  | 22:59.32 |    4:10.30   |      103457      |     122236
       7  | 27:09.62 |    3:58.50   |      122237      |     140136
       8  | 31:08.37 |    4:25.20   |      140137      |     160031
       9  | 35:33.57 |    3:44.70   |      160032      |     176901
      10  | 39:18.52 |    4:32.35   |      176902      |     197336
      11  | 43:51.12 |    5:28.63   |      197337      |     221999
      12  | 49:20.00 |    3:52.62   |      222000      |     239461
      13  | 53:12.62 |    4:23.58   |      239462      |     259244
      14  | 57:36.45 |    4:19.20   |      259245      |     278689
      15  | 61:55.65 |    4:07.57   |      278690      |     297271
Характеристики диапазона извлечения и сообщения об ошибках
Выбранный диапазон
     Имя файла D:\Andrea Bocelli\1996 - Romanza\Andrea Bocelli - Romanza.wav
     Пиковый уровень 100.0 %
     Качество диапазона 100.0 %
     CRC копии 5B6EABB3
     Копирование... OK
Ошибок не произошло
Конец отчёта
#777
01. Por ti volaré
02. Viviré - featuring Geraldina Trovato
03. Por amor
04. El silencio de la espera
05. Caruso
06. Le tue parole
07. Vivo por ella - featuring Marta Sánchez
08. Romanza
09. Voglio restare così
10. E chiove
11. Miserere (Live) - featuring John Miles
12. Time to Say Goodbye - featuring Sarah Brightman
Дополнительная информация: Испаноязычное издание альбома, включает несколько испаноязычных версий альбомных песен.
Код:
Exact Audio Copy V1.0 beta 3 from 29. August 2011
EAC extraction logfile from 17. October 2012, 10:52
Andrea Bocelli / Romanza {Spanish Edition} (0731453963825)
Used drive  : TSSTcorpCDDVDW TS-L633C   Adapter: 2  ID: 0
Read mode               : Secure
Utilize accurate stream : Yes
Defeat audio cache      : Yes
Make use of C2 pointers : No
Read offset correction                      : 6
Overread into Lead-In and Lead-Out          : No
Fill up missing offset samples with silence : Yes
Delete leading and trailing silent blocks   : No
Null samples used in CRC calculations       : Yes
Used interface                              : Native Win32 interface for Win NT & 2000
Used output format : Internal WAV Routines
Sample format      : 44.100 Hz; 16 Bit; Stereo
TOC of the extracted CD
     Track |   Start  |  Length  | Start sector | End sector
    ---------------------------------------------------------
        1  |  0:00.00 |  4:11.35 |         0    |    18859
        2  |  4:11.35 |  4:04.70 |     18860    |    37229
        3  |  8:16.30 |  4:42.42 |     37230    |    58421
        4  | 12:58.72 |  4:38.18 |     58422    |    79289
        5  | 17:37.15 |  5:18.17 |     79290    |   103156
        6  | 22:55.32 |  3:58.05 |    103157    |   121011
        7  | 26:53.37 |  4:25.10 |    121012    |   140896
        8  | 31:18.47 |  3:44.70 |    140897    |   157766
        9  | 35:03.42 |  3:52.50 |    157767    |   175216
       10  | 38:56.17 |  4:24.55 |    175217    |   195071
       11  | 43:20.72 |  4:19.15 |    195072    |   214511
       12  | 47:40.12 |  4:05.48 |    214512    |   232934
Range status and errors
Selected range
     Filename C:\Users\user\Desktop\Andrea Bocelli - Romanza {Spanish Edition} (0731453963825).wav
     Peak level 100.0 %
     Extraction speed 3.7 X
     Range quality 100.0 %
     Test CRC 13EA13CA
     Copy CRC 13EA13CA
     Copy OK
No errors occurred
AccurateRip summary
Track  1  accurately ripped (confidence 2)  [86D2E0CC]  (AR v2)
Track  2  accurately ripped (confidence 12)  [4E2A3A0B]  (AR v1)
Track  3  accurately ripped (confidence 12)  [8082CD5B]  (AR v1)
Track  4  accurately ripped (confidence 11)  [AC6F11A3]  (AR v1)
Track  5  accurately ripped (confidence 2)  [EF3C39F0]  (AR v2)
Track  6  accurately ripped (confidence 11)  [2E4AEE64]  (AR v1)
Track  7  accurately ripped (confidence 11)  [A785BA2B]  (AR v1)
Track  8  accurately ripped (confidence 10)  [6A26B7E2]  (AR v1)
Track  9  accurately ripped (confidence 11)  [1B5698DB]  (AR v1)
Track 10  accurately ripped (confidence 11)  [4E04B453]  (AR v1)
Track 11  accurately ripped (confidence 11)  [DA3793BA]  (AR v1)
Track 12  accurately ripped (confidence 11)  [53CD6D64]  (AR v1)
All tracks accurately ripped
End of status report
#777
01. Con te partirò
02. Vivere - featuring Geraldina Trovato
03. Per amore
04. Il mare calmo della sera
05. Caruso
06. Macchine da guerra
07. Le tue parole
08. Vivo per lei - featuring Giorgia
09. Romanza
10. La luna che non c'è
11. Rapsodia
12. Voglio restare così
13. E chiove
14. Miserere (Live) - featuring John Miles
15. Funiculì funiculà (Live) - featuring John Miles
16. Time to Say Goodbye (Con te partirò) - featuring Sarah Brightman
Дополнительная информация: Итальянское издание альбома, включает бонус-трек – концертное исполнение Funiculì funiculà в дуэте с Джоном Майлзом.
Код:
Exact Audio Copy V1.0 beta 3 from 29. August 2011
EAC extraction logfile from 17. October 2012, 12:01
Andrea Bocelli / Romanza {Italian Edition} (SGR D 77801)
Used drive  : TSSTcorpCDDVDW TS-L633C   Adapter: 2  ID: 0
Read mode               : Secure
Utilize accurate stream : Yes
Defeat audio cache      : Yes
Make use of C2 pointers : No
Read offset correction                      : 6
Overread into Lead-In and Lead-Out          : No
Fill up missing offset samples with silence : Yes
Delete leading and trailing silent blocks   : No
Null samples used in CRC calculations       : Yes
Used interface                              : Native Win32 interface for Win NT & 2000
Used output format : Internal WAV Routines
Sample format      : 44.100 Hz; 16 Bit; Stereo
TOC of the extracted CD
     Track |   Start  |  Length  | Start sector | End sector
    ---------------------------------------------------------
        1  |  0:00.00 |  4:12.50 |         0    |    18949
        2  |  4:12.50 |  4:03.15 |     18950    |    37189
        3  |  8:15.65 |  4:42.52 |     37190    |    58391
        4  | 12:58.42 |  4:42.33 |     58392    |    79574
        5  | 17:41.00 |  5:19.32 |     79575    |   103531
        6  | 23:00.32 |  4:10.28 |    103532    |   122309
        7  | 27:10.60 |  3:58.50 |    122310    |   140209
        8  | 31:09.35 |  4:25.17 |    140210    |   160101
        9  | 35:34.52 |  3:44.73 |    160102    |   176974
       10  | 39:19.50 |  4:32.30 |    176975    |   197404
       11  | 43:52.05 |  5:28.42 |    197405    |   222046
       12  | 49:20.47 |  3:53.13 |    222047    |   239534
       13  | 53:13.60 |  4:23.52 |    239535    |   259311
       14  | 57:37.37 |  4:17.18 |    259312    |   278604
       15  | 61:54.55 |  1:29.62 |    278605    |   285341
       16  | 63:24.42 |  4:06.13 |    285342    |   303804
Range status and errors
Selected range
     Filename C:\Users\user\Desktop\Andrea Bocelli - Romanza {Italian Edition} (SGR D 77801).wav
     Peak level 100.0 %
     Extraction speed 3.9 X
     Range quality 99.9 %
     Test CRC 99F0A49A
     Copy CRC 99F0A49A
     Copy OK
No errors occurred
AccurateRip summary
Track  1  cannot be verified as accurate (confidence 10)  [9AA24529], AccurateRip returned [9508FDB6]  (AR v2)
Track  2  cannot be verified as accurate (confidence 10)  [AC7F5454], AccurateRip returned [31B0C159]  (AR v2)
Track  3  cannot be verified as accurate (confidence 10)  [802BEB71], AccurateRip returned [71DDC82F]  (AR v2)
Track  4  cannot be verified as accurate (confidence 10)  [7FD07AE9], AccurateRip returned [4DAAD18F]  (AR v2)
Track  5  cannot be verified as accurate (confidence 9)  [DC0E25DE], AccurateRip returned [31DCC643]  (AR v2)
Track  6  cannot be verified as accurate (confidence 10)  [45681CF3], AccurateRip returned [E17AF3F5]  (AR v2)
Track  7  cannot be verified as accurate (confidence 10)  [7ACB338D], AccurateRip returned [225358E5]  (AR v2)
Track  8  cannot be verified as accurate (confidence 9)  [EA2EA129], AccurateRip returned [B5AF2762]  (AR v2)
Track  9  cannot be verified as accurate (confidence 10)  [5CCD78AB], AccurateRip returned [4C11763A]  (AR v2)
Track 10  cannot be verified as accurate (confidence 10)  [8AAA2182], AccurateRip returned [D7FB6558]  (AR v2)
Track 11  cannot be verified as accurate (confidence 9)  [011A466E], AccurateRip returned [140313BD]  (AR v2)
Track 12  cannot be verified as accurate (confidence 9)  [71D86852], AccurateRip returned [9677299C]  (AR v2)
Track 13  cannot be verified as accurate (confidence 10)  [EB407D9E], AccurateRip returned [211305D8]  (AR v2)
Track 14  cannot be verified as accurate (confidence 9)  [3EE63DEE], AccurateRip returned [3CC5197F]  (AR v2)
Track 15  cannot be verified as accurate (confidence 10)  [3E09B713], AccurateRip returned [9F21A5B6]  (AR v2)
Track 16  cannot be verified as accurate (confidence 9)  [1C969FC5], AccurateRip returned [710AD9B6]  (AR v2)
No tracks could be verified as accurate
You may have a different pressing from the one(s) in the database
End of status report
#77701. Questa O Quella (Verdi - Rigoletto) (1:47)
02. Che Gelida Manina (Puccini - La Boheme) (4:20)
03. Recondita Armonia (Puccini - Tosca) (2:58)
04. E Lucevan Le Stelle (Puccini - Tosca) (2:53)
05. Addio, Fiorito Asil (Puccini - Madama Butterfly) (1:53)
06. Come Un Bel Di Di Maggio (Girodano - Andre Chйnier) (3:18)
07. A Te, O Cara (Bellini - I Puritani) (3:06)
08. Di Rigori Armato Il Seno (Strauss - Der Rosenkavalier) (2:09)
09. Amor Ti Vieta (Girodano - Fedora) (1:50)
10. Ch'ella Mi Creda (Puccini - La Fanciulla Del West) (2:04)
11. Cielo E Mar! (Ponchielli - La Gioconda) (4:35)
12. La Dolcissima Effigie (Cilea - Adriana Lecouvreur) (2:14)
13. Musetta! Testa Adorata (Puccini - La Boheme) (3:05)
14. Tombe Degli Avi Miei (Donizetti - Lucia Di Lammermoor) (6:56)
15. Pourquoi Me Rеveiller (Massenet - Werther) (3:07)
16. La Fleur Que Tu M'avais Jetйe (Bizet - Carmen) (4:19)
17. Pour Mon Ame (Donizetti - La Fille Du Regiment) (2:17)
Код:
EAC extraction logfile from 19. February 2007, 21:19 for CD
Andrea Bocelli / Aria - The Opera Album
Used drive  : PIONEER DVD-RW  DVR-107D   Adapter: 1  ID: 1
Read mode   : Secure with NO C2, accurate stream, disable cache
Combined read/write offset correction : 48
Overread into Lead-In and Lead-Out : No
Used output format : Internal WAV Routines
                     44.100 Hz; 16 Bit; Stereo
Other options      :
    Fill up missing offset samples with silence : Yes
    Delete leading and trailing silent blocks : No
    Installed external ASPI interface
Range status and errors
Selected range
     Filename D:\CDImage.wav
     Peak level 100.0 %
     Range quality 100.0 %
     CRC C75FFC63
     Copy OK
No errors occured
End of status report
#77701. Vavilov: Ave Maria (Caccini) (3:50)
02. Mascagni: Sancta Maria (3:38)
03. Bach/Gounod: Ave Maria (3:02)
04. Schubert: Ave Maria (2:32)
05. Franck: Panis angelicus (3:33)
06. Rossini: Cujus animam (5:34)
07. Verdi: Ingemisco (4:10)
08. Mozart: Ave verum Corpus (3:06)
09. Handel: Der Engel (3:05)
10. Handel: Frondi tenere ... Ombra mai fu (3:56)
11. Niedermeyer: Pietа, Signore (6:59)
12. Rossini: Domine Deus (4:37)
13. Schubert: Mille cherubini in coro (3:56)
14. Gruber: Silent night (3:10)
15. Adeste fideles (O come, all ye faithful) (2:56)
16. Lecot: Gloria a te, Cristo Gesu (4:23)
Код:
Exact Audio Copy V0.99 prebeta 3 from 28. July 2007
EAC extraction logfile from 11. February 2008, 12:50
Andrea Bocelli / Arie Sacre
Used drive  : _NEC    DV-5800C   Adapter: 1  ID: 1
Read mode               : Secure
Utilize accurate stream : Yes
Defeat audio cache      : Yes
Make use of C2 pointers : No
Read offset correction                      : 12
Overread into Lead-In and Lead-Out          : No
Fill up missing offset samples with silence : Yes
Delete leading and trailing silent blocks   : No
Null samples used in CRC calculations       : Yes
Used interface                              : Native Win32 interface for Win NT & 2000
Used output format              : User Defined Encoder
Selected bitrate                : 768 kBit/s
Quality                         : High
Add ID3 tag                     : No
Command line compressor         : D:\Programmi\Exact Audio Copy\FLAC\FLAC.EXE
Additional command line options : -6 -V -T "ARTIST=%a" -T "TITLE=%t" -T "ALBUM=%g" -T "DATE=%y" -T "TRACKNUMBER=%n" -T "GENRE=%m" -T "COMMENT=%e" %s -o %d
TOC of the extracted CD
     Track |   Start  |  Length  | Start sector | End sector
    ---------------------------------------------------------
        1  |  0:00.00 |  3:50.05 |         0    |    17254
        2  |  3:50.05 |  3:37.33 |     17255    |    33562
        3  |  7:27.38 |  3:01.74 |     33563    |    47211
        4  | 10:29.37 |  2:31.67 |     47212    |    58603
        5  | 13:01.29 |  3:32.68 |     58604    |    74571
        6  | 16:34.22 |  5:34.01 |     74572    |    99622
        7  | 22:08.23 |  4:10.10 |     99623    |   118382
        8  | 26:18.33 |  3:06.05 |    118383    |   132337
        9  | 29:24.38 |  3:05.14 |    132338    |   146226
       10  | 32:29.52 |  3:56.08 |    146227    |   163934
       11  | 36:25.60 |  6:59.07 |    163935    |   195366
       12  | 43:24.67 |  4:37.19 |    195367    |   216160
       13  | 48:02.11 |  3:55.50 |    216161    |   233835
       14  | 51:57.61 |  3:10.22 |    233836    |   248107
       15  | 55:08.08 |  2:55.53 |    248108    |   261285
       16  | 58:03.61 |  4:22.67 |    261286    |   281002
Range status and errors
Selected range
     Filename C:\Release\FLAC\Andrea Bocelli - Arie Sacre\Andrea Bocelli - Arie Sacre.wav
     Peak level 100.0 %
     Range quality 100.0 %
     Test CRC D8AB5B4E
     Copy CRC D8AB5B4E
     Copy OK
No errors occurred
AccurateRip summary
Track  1  not present in database
Track  2  not present in database
Track  3  not present in database
Track  4  not present in database
Track  5  not present in database
Track  6  not present in database
Track  7  not present in database
Track  8  not present in database
Track  9  not present in database
Track 10  not present in database
Track 11  not present in database
Track 12  not present in database
Track 13  not present in database
Track 14  not present in database
Track 15  not present in database
Track 16  not present in database
None of the tracks are present in the AccurateRip database
End of status report
#77701. Canto Della Terra (4:03)
02. The Prayer (feat. Celine Dion) (4:30)
03. Sogno (4:04)
04. 'O Mare e Tu (feat. Dulce Pontes) (4:37)
05. A Volte Il Cuore (4:45)
06. Cantico (4:02)
07. Mai Piu' Cosi' Lontano (4:21)
08. Immenso (4:51)
09. Nel Cuore Lei (feat. Eros Ramazzotti) (3:49)
10. Tremo e T'amo (4:52)
11. I Love Rossini (3:57)
12. Un Canto (4:35)
13. Come Un Fiume Tu (4:47)
14. A Mio Padre (6 Maggio 1992) (4:00)
Код:
Exact Audio Copy V0.99 prebeta 4 from 23. January 2008
Отчёт EAC об извлечении, выполненном 19. февраля 2009, 16:29
Andrea Bocelli / Sogno
Дисковод: TSSTcorpCDDVDW SN-S082N   Adapter: 1  ID: 0
Режим чтения                 : Достоверность
Использование точного потока : Да
Отключение кэша аудио        : Да
Использование указателей C2  : Нет
Коррекция смещения при чтении                     : 6
Способность читать области Lead-in и Lead-out     : Нет
Заполнение пропущенных сэмплов тишиной            : Да
Удаление блоков с тишиной в начале и конце        : Нет
При вычислениях CRC использовались нулевые сэмплы : Нет
Интерфейс                                         : Встроенный Win32-интерфейс для Win NT/2000
Выходной формат : Внутренние WAV-операции
Формат сэмплов  : 44.100 Гц; 16 бит; стерео
TOC извлечённого CD
     Трек |   Старт  | Длительность | Начальный сектор | Конечный сектор
    ---------------------------------------------------------------------
       1  |  0:00.00 |    4:02.61   |           0      |      18210
       2  |  4:02.61 |    4:30.02   |       18211      |      38462
       3  |  8:32.63 |    4:03.70   |       38463      |      56757
       4  | 12:36.58 |    4:36.58   |       56758      |      77515
       5  | 17:13.41 |    4:44.40   |       77516      |      98855
       6  | 21:58.06 |    4:01.64   |       98856      |     116994
       7  | 25:59.70 |    4:20.54   |      116995      |     136548
       8  | 30:20.49 |    4:51.02   |      136549      |     158375
       9  | 35:11.51 |    3:48.48   |      158376      |     175523
      10  | 39:00.24 |    4:51.42   |      175524      |     197390
      11  | 43:51.66 |    3:56.45   |      197391      |     215135
      12  | 47:48.36 |    4:35.02   |      215136      |     235762
      13  | 52:23.38 |    4:47.27   |      235763      |     257314
      14  | 57:10.65 |    4:00.18   |      257315      |     275332
Характеристики диапазона извлечения и сообщения об ошибках
Выбранный диапазон
     Имя файла D:\Andrea Bocelli\1999 - Sogno\Andrea Bocelli - Sogno.wav
     Пиковый уровень 96.6 %
     Качество диапазона 100.0 %
     CRC копии 31CCC011
     Копирование... OK
Ошибок не произошло
Конец отчёта
#777
01. Canto de la tierra
02. The Prayer - duet with Celine Dion
03. Sueño
04. El mar y tu - duet with Dulce Pontes
05. A volte il cuore
06. Cantico
07. Mai più così lontano
08. Immenso
09. Nel cuore lei - duet with Eros Ramazzotti
10. Tremo e t'amo
11. I Love Rossini
12. Un canto
13. Come un fiume tu
14. A mio padre (6 Maggio 1992)
Дополнительная информация: Испаноязычное издание альбома, включает три испаноязычных версий альбомных песен.
Код:
Exact Audio Copy V1.0 beta 3 from 29. August 2011
EAC extraction logfile from 20. October 2012, 9:47
Andrea Bocelli / Sueno (Spanish Edition} (0731454722421)
Used drive  : TSSTcorpCDDVDW TS-L633C   Adapter: 2  ID: 0
Read mode               : Secure
Utilize accurate stream : Yes
Defeat audio cache      : Yes
Make use of C2 pointers : No
Read offset correction                      : 6
Overread into Lead-In and Lead-Out          : No
Fill up missing offset samples with silence : Yes
Delete leading and trailing silent blocks   : No
Null samples used in CRC calculations       : Yes
Used interface                              : Native Win32 interface for Win NT & 2000
Used output format : Internal WAV Routines
Sample format      : 44.100 Hz; 16 Bit; Stereo
TOC of the extracted CD
     Track |   Start  |  Length  | Start sector | End sector
    ---------------------------------------------------------
        1  |  0:00.00 |  4:02.61 |         0    |    18210
        2  |  4:02.61 |  4:30.02 |     18211    |    38462
        3  |  8:32.63 |  4:03.47 |     38463    |    56734
        4  | 12:36.35 |  4:36.57 |     56735    |    77491
        5  | 17:13.17 |  4:44.41 |     77492    |    98832
        6  | 21:57.58 |  4:01.64 |     98833    |   116971
        7  | 25:59.47 |  4:20.53 |    116972    |   136524
        8  | 30:20.25 |  4:51.03 |    136525    |   158352
        9  | 35:11.28 |  3:48.47 |    158353    |   175499
       10  | 39:00.00 |  4:51.42 |    175500    |   197366
       11  | 43:51.42 |  3:56.45 |    197367    |   215111
       12  | 47:48.12 |  4:35.03 |    215112    |   235739
       13  | 52:23.15 |  4:47.26 |    235740    |   257290
       14  | 57:10.41 |  3:58.18 |    257291    |   275158
Range status and errors
Selected range
     Filename C:\Users\user\Desktop\Andrea Bocelli - Sueno (Spanish Edition} (0731454722421).wav
     Peak level 96.6 %
     Extraction speed 4.2 X
     Range quality 100.0 %
     Test CRC B7B08318
     Copy CRC B7B08318
     Copy OK
No errors occurred
AccurateRip summary
Track  1  cannot be verified as accurate (confidence 7)  [3F1FC405], AccurateRip returned [A303C919]  (AR v2)
Track  2  cannot be verified as accurate (confidence 7)  [E956502B], AccurateRip returned [B8627FCB]  (AR v2)
Track  3  cannot be verified as accurate (confidence 7)  [C5E22716], AccurateRip returned [E46EDD89]  (AR v2)
Track  4  cannot be verified as accurate (confidence 7)  [DA56DBBF], AccurateRip returned [0B767A86]  (AR v2)
Track  5  cannot be verified as accurate (confidence 7)  [84542BAC], AccurateRip returned [B15DE88C]  (AR v2)
Track  6  cannot be verified as accurate (confidence 7)  [246CD2F5], AccurateRip returned [172B27C3]  (AR v2)
Track  7  cannot be verified as accurate (confidence 7)  [4FACAE9D], AccurateRip returned [67A12666]  (AR v2)
Track  8  cannot be verified as accurate (confidence 7)  [15631DC5], AccurateRip returned [CB2D4218]  (AR v2)
Track  9  cannot be verified as accurate (confidence 7)  [663662AE], AccurateRip returned [1606B85F]  (AR v2)
Track 10  cannot be verified as accurate (confidence 7)  [3D8A8381], AccurateRip returned [324CA3CB]  (AR v2)
Track 11  cannot be verified as accurate (confidence 7)  [1EE5ACE4], AccurateRip returned [E9F82D89]  (AR v2)
Track 12  cannot be verified as accurate (confidence 7)  [F116A51A], AccurateRip returned [F7680E05]  (AR v2)
Track 13  cannot be verified as accurate (confidence 7)  [81D06912], AccurateRip returned [EE9754BC]  (AR v2)
Track 14  cannot be verified as accurate (confidence 7)  [5623C4C4], AccurateRip returned [6916ABA6]  (AR v2)
No tracks could be verified as accurate
You may have a different pressing from the one(s) in the database
End of status report
#77701. Di Quella Pira (Il Trovatore) (3:13)
02. Ah, Si, Ben Mio (Il Trovatore) (3:20)
03. La Donna и Mobile (Rigoletto) (2:10)
04. Di' Tu Se Fedele (Un Ballo In Maschera) (3:08)
05. Ma Se M'и Forza Perderti (Un Ballo In Maschera) (2:36)
06. Ella Mi Fu Rapita! (Rigoletto) (4:39)
07. Possente Amor Mi Chiama (Rigoletto) (2:57)
08. Celeste Aida (Aida) (4:08)
09. De' Miei Bollenti Spiriti (La Traviata) (3:45)
10. Oh Mio Rimorso! (La Traviata) (2:50)
11. La Mia Letizia Infondere Vorrei (I lombardi) (2:09)
12. Mercе, Diletti Amici (6:58)
13. Lo la Vidi E Il Suo Sorriso (3:50)
14. Quando le Sere Al Placido (5:12)
15. La Vita Inferno All'infelice (9:47)
Код:
Exact Audio Copy V0.99 prebeta 4 from 23. January 2008
Отчёт EAC об извлечении, выполненном 26. октября 2008, 17:16
Andrea Bocelli / Verdi
Дисковод: TSSTcorpCD/DVDW SH-W162L   Adapter: 0  ID: 0
Режим чтения                 : Достоверность
Использование точного потока : Да
Отключение кэша аудио        : Да
Использование указателей C2  : Нет
Коррекция смещения при чтении                     : 6
Способность читать области Lead-in и Lead-out     : Нет
Заполнение пропущенных сэмплов тишиной            : Да
Удаление блоков с тишиной в начале и конце        : Нет
При вычислениях CRC использовались нулевые сэмплы : Да
Интерфейс                                         : Встроенный Win32-интерфейс для Win NT/2000
Выходной формат : Внутренние WAV-операции
Формат сэмплов  : 44.100 Гц; 16 бит; стерео
TOC извлечённого CD
     Трек |   Старт  | Длительность | Начальный сектор | Конечный сектор
    ---------------------------------------------------------------------
       1  |  0:00.00 |    3:16.67   |           0      |      14766
       2  |  3:16.67 |    3:18.28   |       14767      |      29644
       3  |  6:35.20 |    2:11.55   |       29645      |      39524
       4  |  8:47.00 |    3:05.52   |       39525      |      53451
       5  | 11:52.52 |    2:34.65   |       53452      |      65066
       6  | 14:27.42 |    4:37.35   |       65067      |      85876
       7  | 19:05.02 |    2:58.23   |       85877      |      99249
       8  | 22:03.25 |    4:09.50   |       99250      |     117974
       9  | 26:13.00 |    3:40.32   |      117975      |     134506
      10  | 29:53.32 |    2:54.58   |      134507      |     147614
      11  | 32:48.15 |    2:07.35   |      147615      |     157174
      12  | 34:55.50 |    6:58.32   |      157175      |     188556
      13  | 41:54.07 |    3:50.40   |      188557      |     205846
      14  | 45:44.47 |    5:12.35   |      205847      |     229281
      15  | 50:57.07 |    9:51.00   |      229282      |     273606
Характеристики диапазона извлечения и сообщения об ошибках
Выбранный диапазон
     Имя файла C:\Users\Артур\Desktop\Andrea Bocelli - Verdi.wav
     Пиковый уровень 100.0 %
     Качество диапазона 99.9 %
     CRC копии B8627C38
     Копирование... OK
Ошибок не произошло
AccurateRip: сводка
Трек  1  точность не определена (достоверность 21)  [1F45EA71], AccurateRip вернул [982891F3]
Трек  2  точность не определена (достоверность 21)  [733C06F5], AccurateRip вернул [E10F2DD5]
Трек  3  точность не определена (достоверность 22)  [5D155363], AccurateRip вернул [09A5DF3A]
Трек  4  точность не определена (достоверность 22)  [4F808E8F], AccurateRip вернул [1E766956]
Трек  5  точность не определена (достоверность 22)  [608E7655], AccurateRip вернул [9D2900AD]
Трек  6  точность не определена (достоверность 21)  [2EAFBA38], AccurateRip вернул [9B0A5F72]
Трек  7  точность не определена (достоверность 22)  [39A38B26], AccurateRip вернул [AE5FEEA3]
Трек  8  точность не определена (достоверность 21)  [75DDDC1D], AccurateRip вернул [94E0CF1E]
Трек  9  точность не определена (достоверность 22)  [54AF5336], AccurateRip вернул [F38B3387]
Трек 10  точность не определена (достоверность 22)  [2C80777A], AccurateRip вернул [BEFCA226]
Трек 11  точность не определена (достоверность 22)  [76B2170D], AccurateRip вернул [B2A1B3A1]
Трек 12  точность не определена (достоверность 21)  [4C88C484], AccurateRip вернул [982847B3]
Трек 13  точность не определена (достоверность 21)  [EB1255CF], AccurateRip вернул [77E5CF16]
Трек 14  точность не определена (достоверность 21)  [6CE198B6], AccurateRip вернул [5B0FD6BF]
Трек 15  точность не определена (достоверность 20)  [6270CD94], AccurateRip вернул [3ACA706F]
Ни один трек не прошёл проверки на точность
В вашей базе может быть иной вариант штамповки диска
Конец отчёта
#777
01. Melodramma
02. Mille lune mille onde
03. E sarà a settembre (Someone Like You)
04. Chiara
05. Mascagni
06. Resta qui
07. Il mistero dell'amore
08. Se la gente usasse il cuore
09. Si voltò
10. L'abitudine - featuring Helena Hellwig
11. L'incontro - featuring Bono
12. E mi manchi tu
13. Il diavolo e l'angelo
14. L'ultimo re
Код:
Exact Audio Copy V1.0 beta 3 from 29. August 2011
EAC extraction logfile from 4. October 2012, 16:26
Andrea Bocelli / Cieli di Toscana {International Edition} (0731458924425)
Used drive  : TSSTcorpCDDVDW TS-L633C   Adapter: 2  ID: 0
Read mode               : Secure
Utilize accurate stream : Yes
Defeat audio cache      : Yes
Make use of C2 pointers : No
Read offset correction                      : 6
Overread into Lead-In and Lead-Out          : No
Fill up missing offset samples with silence : Yes
Delete leading and trailing silent blocks   : No
Null samples used in CRC calculations       : Yes
Used interface                              : Native Win32 interface for Win NT & 2000
Used output format : Internal WAV Routines
Sample format      : 44.100 Hz; 16 Bit; Stereo
TOC of the extracted CD
     Track |   Start  |  Length  | Start sector | End sector
    ---------------------------------------------------------
        1  |  0:00.00 |  4:09.62 |         0    |    18736
        2  |  4:09.62 |  4:00.68 |     18737    |    36804
        3  |  8:10.55 |  5:05.70 |     36805    |    59749
        4  | 13:16.50 |  4:03.67 |     59750    |    78041
        5  | 17:20.42 |  4:12.33 |     78042    |    96974
        6  | 21:33.00 |  4:10.29 |     96975    |   115753
        7  | 25:43.29 |  4:29.69 |    115754    |   135997
        8  | 30:13.23 |  5:00.29 |    135998    |   158526
        9  | 35:13.52 |  4:07.08 |    158527    |   177059
       10  | 39:20.60 |  4:21.61 |    177060    |   196695
       11  | 43:42.46 |  4:52.48 |    196696    |   218643
       12  | 48:35.19 |  5:03.07 |    218644    |   241375
       13  | 53:38.26 |  4:03.63 |    241376    |   259663
       14  | 57:42.14 |  3:48.35 |    259664    |   276798
Range status and errors
Selected range
     Filename C:\Users\user\Desktop\Andrea Bocelli - Cieli di Toscana {International Edition} (0731458924425).wav
     Peak level 100.0 %
     Extraction speed 3.9 X
     Range quality 100.0 %
     Test CRC 94AEEF14
     Copy CRC 94AEEF14
     Copy OK
No errors occurred
AccurateRip summary
Track  1  accurately ripped (confidence 4)  [2E0E7B78]  (AR v2)
Track  2  accurately ripped (confidence 4)  [AFA1AEF3]  (AR v2)
Track  3  accurately ripped (confidence 4)  [90354858]  (AR v2)
Track  4  accurately ripped (confidence 4)  [ED5B527D]  (AR v2)
Track  5  accurately ripped (confidence 4)  [88C6984C]  (AR v2)
Track  6  accurately ripped (confidence 4)  [4B425B74]  (AR v2)
Track  7  accurately ripped (confidence 4)  [713E1E2A]  (AR v2)
Track  8  accurately ripped (confidence 4)  [727C6247]  (AR v2)
Track  9  accurately ripped (confidence 4)  [96430E43]  (AR v2)
Track 10  accurately ripped (confidence 4)  [21E045ED]  (AR v2)
Track 11  accurately ripped (confidence 4)  [E4DCC72C]  (AR v2)
Track 12  accurately ripped (confidence 4)  [9BB6EFEE]  (AR v2)
Track 13  accurately ripped (confidence 4)  [FE0A0306]  (AR v2)
Track 14  accurately ripped (confidence 4)  [962F3D27]  (AR v2)
All tracks accurately ripped
End of status report
#777
01. Melodramma
02. Mille lune mille onde
03. Someone Like You
04. Chiara
05. Mascagni
06. Resta qui
07. Il mistero dell'amore
08. Se la gente usasse il cuore
09. Si voltò
10. L'abitudine - featuring Helena Hellwig
11. L'incontro
12. E mi manchi tu
13. Il diavolo e l'angelo
14. L'ultimo re
15. L'incontro - featuring Bono
Дополнительная информация: Итальянское издание альбома, включает в себя Someone Like You на английском языке (на всех остальных изданиях на итальянском), L'incontro с Бочелли читающим стихотворение на итальянском.
Код:
Exact Audio Copy V1.0 beta 3 from 29. August 2011
EAC extraction logfile from 23. October 2012, 9:35
Andrea Bocelli / Cieli di Toscana {Italian Edition} (3259130036824)
Used drive  : TSSTcorpCDDVDW TS-L633C   Adapter: 2  ID: 0
Read mode               : Secure
Utilize accurate stream : Yes
Defeat audio cache      : Yes
Make use of C2 pointers : No
Read offset correction                      : 6
Overread into Lead-In and Lead-Out          : No
Fill up missing offset samples with silence : Yes
Delete leading and trailing silent blocks   : No
Null samples used in CRC calculations       : Yes
Used interface                              : Native Win32 interface for Win NT & 2000
Used output format : Internal WAV Routines
Sample format      : 44.100 Hz; 16 Bit; Stereo
TOC of the extracted CD
     Track |   Start  |  Length  | Start sector | End sector
    ---------------------------------------------------------
        1  |  0:00.00 |  4:09.61 |         0    |    18735
        2  |  4:09.61 |  4:00.68 |     18736    |    36803
        3  |  8:10.54 |  5:05.70 |     36804    |    59748
        4  | 13:16.49 |  4:03.67 |     59749    |    78040
        5  | 17:20.41 |  4:12.34 |     78041    |    96974
        6  | 21:33.00 |  4:10.29 |     96975    |   115753
        7  | 25:43.29 |  4:29.68 |    115754    |   135996
        8  | 30:13.22 |  5:00.30 |    135997    |   158526
        9  | 35:13.52 |  4:07.07 |    158527    |   177058
       10  | 39:20.59 |  4:22.70 |    177059    |   196778
       11  | 43:43.54 |  4:51.43 |    196779    |   218646
       12  | 48:35.22 |  5:03.07 |    218647    |   241378
       13  | 53:38.29 |  4:03.64 |    241379    |   259667
       14  | 57:42.18 |  3:48.22 |    259668    |   276789
       15  | 61:30.40 |  4:54.37 |    276790    |   298876
Range status and errors
Selected range
     Filename C:\Users\user\Desktop\Andrea Bocelli - Cieli di Toscana {Italian Edition} (3259130036824).wav
     Peak level 100.0 %
     Extraction speed 4.3 X
     Range quality 100.0 %
     Test CRC BE3E880E
     Copy CRC BE3E880E
     Copy OK
No errors occurred
AccurateRip summary
Track  1  accurately ripped (confidence 3)  [56FB273B]  (AR v1)
Track  2  accurately ripped (confidence 3)  [C6E46C4E]  (AR v1)
Track  3  accurately ripped (confidence 3)  [F9B82886]  (AR v1)
Track  4  accurately ripped (confidence 3)  [20024ECF]  (AR v1)
Track  5  accurately ripped (confidence 3)  [9786E6B6]  (AR v1)
Track  6  accurately ripped (confidence 3)  [1E3D8B4E]  (AR v1)
Track  7  accurately ripped (confidence 3)  [BD07A5D9]  (AR v1)
Track  8  accurately ripped (confidence 3)  [547FE43D]  (AR v1)
Track  9  accurately ripped (confidence 3)  [BDAA340E]  (AR v1)
Track 10  accurately ripped (confidence 3)  [CD79E50B]  (AR v1)
Track 11  accurately ripped (confidence 3)  [94B6C9BC]  (AR v1)
Track 12  accurately ripped (confidence 3)  [ACD04203]  (AR v1)
Track 13  accurately ripped (confidence 3)  [1ED7C531]  (AR v1)
Track 14  accurately ripped (confidence 3)  [322EEA4E]  (AR v1)
Track 15  accurately ripped (confidence 3)  [B0AA229C]  (AR v1)
All tracks accurately ripped
End of status report
#777
01. Un dulce melodrama
02. Mil lunas mil olas
03. E sarà a settembre (Someone Like You)
04. Chiara
05. Mascagni
06. Resta qui
07. El misterio del amor
08. Se la gente usasse il cuore
09. Si voltò
10. L'abitudine - featuring Helena Hellwig
11. El encuentro - featuring Bono
12. E mi manchi tu
13. Il diavolo e l'angelo
14. L'ultimo re
Дополнительная информация: Испаноязычное издание альбома, включает в себя 4 версий итальянских песен на испанском языке.
Код:
Exact Audio Copy V1.0 beta 3 from 29. August 2011
EAC extraction logfile from 17. September 2012, 22:05
Andrea Bocelli / Cieli di Toscana {Spanish Edition} (0731458922322)
Used drive  : TSSTcorpCDDVDW TS-L633C   Adapter: 2  ID: 0
Read mode               : Secure
Utilize accurate stream : Yes
Defeat audio cache      : Yes
Make use of C2 pointers : No
Read offset correction                      : 6
Overread into Lead-In and Lead-Out          : No
Fill up missing offset samples with silence : Yes
Delete leading and trailing silent blocks   : No
Null samples used in CRC calculations       : Yes
Used interface                              : Native Win32 interface for Win NT & 2000
Used output format : Internal WAV Routines
Sample format      : 44.100 Hz; 16 Bit; Stereo
TOC of the extracted CD
     Track |   Start  |  Length  | Start sector | End sector
    ---------------------------------------------------------
        1  |  0:00.00 |  4:09.57 |         0    |    18731
        2  |  4:09.57 |  4:00.68 |     18732    |    36799
        3  |  8:10.50 |  5:06.00 |     36800    |    59749
        4  | 13:16.50 |  4:03.62 |     59750    |    78036
        5  | 17:20.37 |  4:12.35 |     78037    |    96971
        6  | 21:32.72 |  4:10.28 |     96972    |   115749
        7  | 25:43.25 |  4:29.67 |    115750    |   135991
        8  | 30:13.17 |  5:00.30 |    135992    |   158521
        9  | 35:13.47 |  4:07.08 |    158522    |   177054
       10  | 39:20.55 |  4:21.55 |    177055    |   196684
       11  | 43:42.35 |  4:52.32 |    196685    |   218616
       12  | 48:34.67 |  5:03.00 |    218617    |   241341
       13  | 53:37.67 |  4:03.65 |    241342    |   259631
       14  | 57:41.57 |  3:48.38 |    259632    |   276769
Range status and errors
Selected range
     Filename C:\Users\user\Desktop\Andrea Bocelli - Cieli di Toscana {Spanish Edition} (0731458922322).wav
     Peak level 98.8 %
     Extraction speed 1.6 X
     Range quality 100.0 %
     Test CRC DD5A9B17
     Copy CRC DD5A9B17
     Copy OK
No errors occurred
AccurateRip summary
Track  1  accurately ripped (confidence 5)  [0EE188B7]  (AR v1)
Track  2  accurately ripped (confidence 5)  [21953512]  (AR v1)
Track  3  accurately ripped (confidence 5)  [AC5AC1C6]  (AR v1)
Track  4  accurately ripped (confidence 5)  [2E83622A]  (AR v1)
Track  5  accurately ripped (confidence 5)  [3427BBA2]  (AR v1)
Track  6  accurately ripped (confidence 5)  [772974E9]  (AR v1)
Track  7  accurately ripped (confidence 5)  [92E6EF2F]  (AR v1)
Track  8  accurately ripped (confidence 5)  [17C5C30A]  (AR v1)
Track  9  accurately ripped (confidence 5)  [F91B31BB]  (AR v1)
Track 10  accurately ripped (confidence 5)  [15F41684]  (AR v1)
Track 11  accurately ripped (confidence 5)  [0BED57C9]  (AR v1)
Track 12  accurately ripped (confidence 5)  [5CC25E59]  (AR v1)
Track 13  accurately ripped (confidence 5)  [56EBF62C]  (AR v1)
Track 14  accurately ripped (confidence 5)  [562CD944]  (AR v1)
All tracks accurately ripped
End of status report
#777
01. Melodramma
02. Mille lune mille onde
03. E sarà a settembre (Someone Like You)
04. Chiara
05. Mascagni
06. Resta qui
07. Il mistero dell'amore
08. Se la gente usasse il cuore
09. Si voltò
10. L'abitudine - featuring Helena Hellwig
11. L'incontro - featuring Bono
12. E mi manchi tu
13. Il diavolo e l'angelo
14. L'ultimo re
15. Tornerà la neve
16. CD ROM
Дополнительная информация: Британское издание альбома, включает в себя бонустрек Tornerà la neve.
Код:
Exact Audio Copy V1.0 beta 3 from 29. August 2011
EAC extraction logfile from 8. October 2012, 14:48
Andrea Bocelli / Cieli di Toscana {UK Edition} (0731458924524)
Used drive  : TSSTcorpCDDVDW TS-L633C   Adapter: 2  ID: 0
Read mode               : Secure
Utilize accurate stream : Yes
Defeat audio cache      : Yes
Make use of C2 pointers : No
Read offset correction                      : 6
Overread into Lead-In and Lead-Out          : No
Fill up missing offset samples with silence : Yes
Delete leading and trailing silent blocks   : No
Null samples used in CRC calculations       : Yes
Used interface                              : Native Win32 interface for Win NT & 2000
Used output format : Internal WAV Routines
Sample format      : 44.100 Hz; 16 Bit; Stereo
TOC of the extracted CD
     Track |   Start  |  Length  | Start sector | End sector
    ---------------------------------------------------------
        1  |  0:00.00 |  4:09.61 |         0    |    18735
        2  |  4:09.61 |  4:00.68 |     18736    |    36803
        3  |  8:10.54 |  5:05.70 |     36804    |    59748
        4  | 13:16.49 |  4:03.67 |     59749    |    78040
        5  | 17:20.41 |  4:12.34 |     78041    |    96974
        6  | 21:33.00 |  4:10.29 |     96975    |   115753
        7  | 25:43.29 |  4:29.68 |    115754    |   135996
        8  | 30:13.22 |  5:00.30 |    135997    |   158526
        9  | 35:13.52 |  4:07.07 |    158527    |   177058
       10  | 39:20.59 |  4:22.70 |    177059    |   196778
       11  | 43:43.54 |  4:52.48 |    196779    |   218726
       12  | 48:36.27 |  5:03.07 |    218727    |   241458
       13  | 53:39.34 |  4:03.64 |    241459    |   259747
       14  | 57:43.23 |  3:48.22 |    259748    |   276869
       15  | 61:31.45 |  4:05.47 |    276870    |   295291
       16  | 68:09.17 |  5:05.24 |    306692    |   329590
Range status and errors
Selected range
     Filename C:\Users\user\Desktop\Andrea Bocelli - Cieli di Toscana {UK Edition} (0731458924524).wav
     Peak level 100.0 %
     Extraction speed 3.8 X
     Range quality 99.9 %
     Test CRC 3C68B563
     Copy CRC 3C68B563
     Copy OK
No errors occurred
AccurateRip summary
Track  1  accurately ripped (confidence 23)  [38CDA596]  (AR v1)
Track  2  accurately ripped (confidence 23)  [C76BAC12]  (AR v1)
Track  3  accurately ripped (confidence 22)  [2A50B814]  (AR v1)
Track  4  accurately ripped (confidence 23)  [1B010A97]  (AR v1)
Track  5  accurately ripped (confidence 23)  [42B62A08]  (AR v1)
Track  6  accurately ripped (confidence 22)  [48A50891]  (AR v1)
Track  7  accurately ripped (confidence 23)  [66E1F82D]  (AR v1)
Track  8  accurately ripped (confidence 23)  [1070FD45]  (AR v1)
Track  9  accurately ripped (confidence 23)  [4722770F]  (AR v1)
Track 10  accurately ripped (confidence 23)  [09175917]  (AR v1)
Track 11  accurately ripped (confidence 23)  [FB1D8C4B]  (AR v1)
Track 12  accurately ripped (confidence 23)  [81A3AC2F]  (AR v1)
Track 13  accurately ripped (confidence 23)  [EC5C14DF]  (AR v1)
Track 14  accurately ripped (confidence 23)  [8B9B35E7]  (AR v1)
Track 15  accurately ripped (confidence 23)  [2F62F9F6]  (AR v1)
All tracks accurately ripped
End of status report
#777
01. Melodramma
02. Mille lune mille onde
03. E sarà a settembre (Someone Like You)
04. Chiara
05. Mascagni
06. Resta qui
07. Il mistero dell'amore
08. Se la gente usasse il cuore
09. Si voltò
10. L'abitudine - featuring Helena Hellwig
11. L'incontro - featuring Bono
12. E mi manchi tu
13. Il diavolo e l'angelo
14. L'ultimo re
15. L'incontro - featuring Gérard Depardieu
Дополнительная информация: Французcкое издание альбома, включает в себя бонустрек L'incontro с участием Жерара Депардье читающего поэму на французском.
Код:
Exact Audio Copy V1.0 beta 3 from 29. August 2011
EAC extraction logfile from 8. October 2012, 20:22
Andrea Bocelli / Cieli di Toscana {French Edition} (0731458924722)
Used drive  : TSSTcorpCDDVDW TS-L633C   Adapter: 2  ID: 0
Read mode               : Secure
Utilize accurate stream : Yes
Defeat audio cache      : Yes
Make use of C2 pointers : No
Read offset correction                      : 6
Overread into Lead-In and Lead-Out          : No
Fill up missing offset samples with silence : Yes
Delete leading and trailing silent blocks   : No
Null samples used in CRC calculations       : Yes
Used interface                              : Native Win32 interface for Win NT & 2000
Used output format : Internal WAV Routines
Sample format      : 44.100 Hz; 16 Bit; Stereo
TOC of the extracted CD
     Track |   Start  |  Length  | Start sector | End sector
    ---------------------------------------------------------
        1  |  0:00.00 |  4:09.62 |         0    |    18736
        2  |  4:09.62 |  4:00.68 |     18737    |    36804
        3  |  8:10.55 |  5:05.70 |     36805    |    59749
        4  | 13:16.50 |  4:03.67 |     59750    |    78041
        5  | 17:20.42 |  4:12.33 |     78042    |    96974
        6  | 21:33.00 |  4:10.29 |     96975    |   115753
        7  | 25:43.29 |  4:29.69 |    115754    |   135997
        8  | 30:13.23 |  5:00.29 |    135998    |   158526
        9  | 35:13.52 |  4:07.08 |    158527    |   177059
       10  | 39:20.60 |  4:21.61 |    177060    |   196695
       11  | 43:42.46 |  4:52.48 |    196696    |   218643
       12  | 48:35.19 |  5:03.07 |    218644    |   241375
       13  | 53:38.26 |  4:03.63 |    241376    |   259663
       14  | 57:42.14 |  3:47.60 |    259664    |   276748
       15  | 61:29.74 |  4:51.21 |    276749    |   298594
Range status and errors
Selected range
     Filename C:\Users\user\Desktop\Andrea Bocelli - Cieli di Toscana {French Edition} (0731458924722).wav
     Peak level 100.0 %
     Extraction speed 4.1 X
     Range quality 100.0 %
     Test CRC EAF5579C
     Copy CRC EAF5579C
     Copy OK
No errors occurred
AccurateRip summary
Track  1  accurately ripped (confidence 2)  [9EF72538]  (AR v2)
Track  2  accurately ripped (confidence 2)  [34F56B25]  (AR v2)
Track  3  accurately ripped (confidence 2)  [C902CE9D]  (AR v2)
Track  4  accurately ripped (confidence 2)  [8B591AF2]  (AR v2)
Track  5  accurately ripped (confidence 2)  [4CB4B90E]  (AR v2)
Track  6  accurately ripped (confidence 2)  [C8AD61D2]  (AR v2)
Track  7  accurately ripped (confidence 2)  [A0611E9D]  (AR v2)
Track  8  accurately ripped (confidence 2)  [DB7E58B2]  (AR v2)
Track  9  accurately ripped (confidence 2)  [AF0FBEE8]  (AR v2)
Track 10  accurately ripped (confidence 2)  [6D91614F]  (AR v2)
Track 11  accurately ripped (confidence 2)  [BE5325FA]  (AR v2)
Track 12  accurately ripped (confidence 2)  [D070D6F0]  (AR v2)
Track 13  accurately ripped (confidence 2)  [BAAAA343]  (AR v2)
Track 14  accurately ripped (confidence 2)  [B6E033F4]  (AR v2)
Track 15  accurately ripped (confidence 2)  [0328BBB0]  (AR v2)
All tracks accurately ripped
End of status report
#77701. En Aranjuez Con Tu Amor (3:29)
02. Mattinata (2:34)
03. Barcarolle (2:39)
04. L'Alba Separa Dalla Luce L'Ombra (2:48)
05. Sogno D'Amore (5:23)
06. La Serenata (3:24)
07. L'Ultima Canzone (4:22)
08. Malia (3:35)
09. La Danza (3:09)
10. Ideale (3:16)
11. Sogno (3:08)
12. Plaisir D'Amour (3:57)
13. Musica Proibita (3:41)
14. Occhi Di Fata (3:30)
15. A Vucchella (2:48)
16. Vorrei Morire! (5:04)
17. Vaghissima Sembianza (3:28)
Код:
Exact Audio Copy V0.99 prebeta 4 from 23. January 2008
Отчёт EAC об извлечении, выполненном 19. февраля 2009, 15:38
Andrea Bocelli / Sentimento
Дисковод: TSSTcorpCDDVDW SN-S082N   Adapter: 1  ID: 0
Режим чтения                 : Достоверность
Использование точного потока : Да
Отключение кэша аудио        : Да
Использование указателей C2  : Нет
Коррекция смещения при чтении                     : 6
Способность читать области Lead-in и Lead-out     : Нет
Заполнение пропущенных сэмплов тишиной            : Да
Удаление блоков с тишиной в начале и конце        : Нет
При вычислениях CRC использовались нулевые сэмплы : Нет
Интерфейс                                         : Встроенный Win32-интерфейс для Win NT/2000
Выходной формат : Внутренние WAV-операции
Формат сэмплов  : 44.100 Гц; 16 бит; стерео
TOC извлечённого CD
     Трек |   Старт  | Длительность | Начальный сектор | Конечный сектор
    ---------------------------------------------------------------------
       1  |  0:00.00 |    3:29.05   |           0      |      15679
       2  |  3:29.05 |    2:34.00   |       15680      |      27229
       3  |  6:03.05 |    2:39.22   |       27230      |      39176
       4  |  8:42.27 |    2:48.10   |       39177      |      51786
       5  | 11:30.37 |    5:23.25   |       51787      |      76036
       6  | 16:53.62 |    3:24.30   |       76037      |      91366
       7  | 20:18.17 |    4:22.15   |       91367      |     111031
       8  | 24:40.32 |    3:34.43   |      111032      |     127124
       9  | 28:15.00 |    3:08.55   |      127125      |     141279
      10  | 31:23.55 |    3:15.65   |      141280      |     155969
      11  | 34:39.45 |    3:07.72   |      155970      |     170066
      12  | 37:47.42 |    3:56.38   |      170067      |     187804
      13  | 41:44.05 |    3:40.70   |      187805      |     204374
      14  | 45:25.00 |    3:30.10   |      204375      |     220134
      15  | 48:55.10 |    2:47.57   |      220135      |     232716
      16  | 51:42.67 |    5:03.63   |      232717      |     255504
      17  | 56:46.55 |    3:27.35   |      255505      |     271064
      18  | 62:46.15 |    9:00.49   |      282465      |     323013
Характеристики диапазона извлечения и сообщения об ошибках
Выбранный диапазон
     Имя файла D:\Andrea Bocelli\2002 - Sentimento\Andrea Bocelli - Sentimento.wav
     Пиковый уровень 100.0 %
     Качество диапазона 99.9 %
     CRC копии 0356C1C5
     Копирование... OK
Ошибок не произошло
Конец отчёта
#777
01. Dell'amore non si sa
02. L'attesa
03. Un nuovo giorno (First Day of My Life)
04. Tu ci sei
05. Semplicemente (Canto per te)
06. Sin tu amor - featuring Mario Reyes
07. Libertà
08. Per noi
09. Le parole che non ti ho detto
10. Sempre o mai
11. In canto
12. Quante volte ti ho cercato
13. Go Where Love Goes - featuring Holly Stell
Дополнительная информация: Рип с CD-слоя SACD диска, треклист идентичен итальянскому изданию.
Код:
Exact Audio Copy V1.0 beta 3 from 29. August 2011
EAC extraction logfile from 9. October 2012, 10:49
Andrea Bocelli / Andrea {SACD Edition} (0602498679722)
Used drive  : TSSTcorpCDDVDW TS-L633C   Adapter: 2  ID: 0
Read mode               : Secure
Utilize accurate stream : Yes
Defeat audio cache      : Yes
Make use of C2 pointers : No
Read offset correction                      : 6
Overread into Lead-In and Lead-Out          : No
Fill up missing offset samples with silence : Yes
Delete leading and trailing silent blocks   : No
Null samples used in CRC calculations       : Yes
Used interface                              : Native Win32 interface for Win NT & 2000
Used output format : Internal WAV Routines
Sample format      : 44.100 Hz; 16 Bit; Stereo
TOC of the extracted CD
     Track |   Start  |  Length  | Start sector | End sector
    ---------------------------------------------------------
        1  |  0:00.00 |  3:45.18 |         0    |    16892
        2  |  3:45.18 |  4:31.21 |     16893    |    37238
        3  |  8:16.39 |  4:13.36 |     37239    |    56249
        4  | 12:30.00 |  4:44.25 |     56250    |    77574
        5  | 17:14.25 |  4:31.65 |     77575    |    97964
        6  | 21:46.15 |  3:57.39 |     97965    |   115778
        7  | 25:43.54 |  4:00.13 |    115779    |   133791
        8  | 29:43.67 |  4:08.69 |    133792    |   152460
        9  | 33:52.61 |  4:36.40 |    152461    |   173200
       10  | 38:29.26 |  3:41.64 |    173201    |   189839
       11  | 42:11.15 |  4:14.63 |    189840    |   208952
       12  | 46:26.03 |  5:09.57 |    208953    |   232184
       13  | 51:35.60 |  4:12.55 |    232185    |   251139
Range status and errors
Selected range
     Filename C:\Users\user\Desktop\Andrea Bocelli - Andrea {SACD Edition} (0602498679722).wav
     Peak level 100.0 %
     Extraction speed 3.6 X
     Range quality 99.9 %
     Test CRC 52B26870
     Copy CRC 52B26870
     Copy OK
No errors occurred
AccurateRip summary
Track  1  accurately ripped (confidence 2)  [F74DAB28]  (AR v2)
Track  2  accurately ripped (confidence 2)  [9E2215F9]  (AR v2)
Track  3  accurately ripped (confidence 2)  [050F5953]  (AR v2)
Track  4  accurately ripped (confidence 2)  [DEFB181B]  (AR v2)
Track  5  accurately ripped (confidence 2)  [6AE28166]  (AR v2)
Track  6  accurately ripped (confidence 2)  [2AD5EEBE]  (AR v2)
Track  7  accurately ripped (confidence 2)  [14942E9D]  (AR v2)
Track  8  accurately ripped (confidence 2)  [FEBD1B05]  (AR v2)
Track  9  accurately ripped (confidence 2)  [F93AD986]  (AR v2)
Track 10  accurately ripped (confidence 2)  [0A199D0D]  (AR v2)
Track 11  accurately ripped (confidence 2)  [CA979D21]  (AR v2)
Track 12  accurately ripped (confidence 2)  [00B20822]  (AR v2)
Track 13  accurately ripped (confidence 2)  [0380477D]  (AR v2)
All tracks accurately ripped
End of status report
#777
01. Dell'amore non si sa
02. L'attesa
03. Un nuovo giorno (First Day of My Life)
04. Tu ci sei
05. Semplicemente (Canto per te)
06. Sin tu amor - featuring Mario Reyes
07. Libertà
08. Per noi
09. Le parole che non ti ho detto
10. Sempre o mai
11. In canto
12. Quante volte ti ho cercato
13. Domani
14. Go Where Love Goes - featuring Holly Stell
Дополнительная информация: Британское издание альбома, включает в себя бонус-трек Domani.
Код:
Exact Audio Copy V1.0 beta 3 from 29. August 2011
EAC extraction logfile from 9. October 2012, 11:32
Andrea Bocelli / Andrea {UK Edition} (0602498679739)
Used drive  : TSSTcorpCDDVDW TS-L633C   Adapter: 2  ID: 0
Read mode               : Secure
Utilize accurate stream : Yes
Defeat audio cache      : Yes
Make use of C2 pointers : No
Read offset correction                      : 6
Overread into Lead-In and Lead-Out          : No
Fill up missing offset samples with silence : Yes
Delete leading and trailing silent blocks   : No
Null samples used in CRC calculations       : Yes
Used interface                              : Native Win32 interface for Win NT & 2000
Used output format : Internal WAV Routines
Sample format      : 44.100 Hz; 16 Bit; Stereo
TOC of the extracted CD
     Track |   Start  |  Length  | Start sector | End sector
    ---------------------------------------------------------
        1  |  0:00.00 |  3:45.26 |         0    |    16900
        2  |  3:45.26 |  4:31.13 |     16901    |    37238
        3  |  8:16.39 |  4:13.42 |     37239    |    56255
        4  | 12:30.06 |  4:44.33 |     56256    |    77588
        5  | 17:14.39 |  4:31.39 |     77589    |    97952
        6  | 21:46.03 |  3:57.50 |     97953    |   115777
        7  | 25:43.53 |  4:00.08 |    115778    |   133785
        8  | 29:43.61 |  4:08.64 |    133786    |   152449
        9  | 33:52.50 |  4:36.50 |    152450    |   173199
       10  | 38:29.25 |  3:42.28 |    173200    |   189877
       11  | 42:11.53 |  4:14.05 |    189878    |   208932
       12  | 46:25.58 |  5:09.45 |    208933    |   232152
       13  | 51:35.28 |  3:10.41 |    232153    |   246443
       14  | 54:45.69 |  4:11.34 |    246444    |   265302
Range status and errors
Selected range
     Filename C:\Users\user\Desktop\Andrea Bocelli - Andrea {UK Edition} (0602498679739).wav
     Peak level 100.0 %
     Extraction speed 3.9 X
     Range quality 100.0 %
     Test CRC D7480A65
     Copy CRC D7480A65
     Copy OK
No errors occurred
AccurateRip summary
Track  1  accurately ripped (confidence 8)  [72B6B971]  (AR v1)
Track  2  accurately ripped (confidence 8)  [F4E42608]  (AR v1)
Track  3  accurately ripped (confidence 8)  [43654083]  (AR v1)
Track  4  accurately ripped (confidence 8)  [2713C8FC]  (AR v1)
Track  5  accurately ripped (confidence 8)  [1C5BDC2B]  (AR v1)
Track  6  accurately ripped (confidence 8)  [10AB880A]  (AR v1)
Track  7  accurately ripped (confidence 8)  [FD1F915F]  (AR v1)
Track  8  accurately ripped (confidence 8)  [308DAB35]  (AR v1)
Track  9  accurately ripped (confidence 8)  [AD02CADE]  (AR v1)
Track 10  accurately ripped (confidence 8)  [98C27945]  (AR v1)
Track 11  accurately ripped (confidence 8)  [A71FB944]  (AR v1)
Track 12  accurately ripped (confidence 8)  [2F55EBD3]  (AR v1)
Track 13  accurately ripped (confidence 8)  [C1D2E09B]  (AR v1)
Track 14  accurately ripped (confidence 7)  [6A5FC1F4]  (AR v1)
All tracks accurately ripped
End of status report
#777
01. Dell'amore non si sa
02. L'attesa
03. Un nuovo giorno (First Day of My Life)
04. Tu ci sei
05. Sin tu amor - featuring Mario Reyes
06. Libertà
07. Per noi
08. Le parole che non ti ho detto
09. Sempre o mai
10. In-canto
11. Quante volte ti ho cercato
12. When a Child is Born (Soleado)
13. Go Where Love Goes - featuring Holly Stell
Дополнительная информация: Американское издание альбома, включает в себя рождественский бонустрек When a Child Is Born (Soleado).
Код:
Exact Audio Copy V1.0 beta 3 from 29. August 2011
EAC extraction logfile from 9. October 2012, 12:17
Andrea Bocelli / Andrea {US Edition} (0602498685303)
Used drive  : TSSTcorpCDDVDW TS-L633C   Adapter: 2  ID: 0
Read mode               : Secure
Utilize accurate stream : Yes
Defeat audio cache      : Yes
Make use of C2 pointers : No
Read offset correction                      : 6
Overread into Lead-In and Lead-Out          : No
Fill up missing offset samples with silence : Yes
Delete leading and trailing silent blocks   : No
Null samples used in CRC calculations       : Yes
Used interface                              : Native Win32 interface for Win NT & 2000
Used output format : Internal WAV Routines
Sample format      : 44.100 Hz; 16 Bit; Stereo
TOC of the extracted CD
     Track |   Start  |  Length  | Start sector | End sector
    ---------------------------------------------------------
        1  |  0:00.00 |  3:45.33 |         0    |    16907
        2  |  3:45.33 |  4:31.30 |     16908    |    37262
        3  |  8:16.63 |  4:13.40 |     37263    |    56277
        4  | 12:30.28 |  4:44.46 |     56278    |    77623
        5  | 17:14.74 |  4:36.22 |     77624    |    98345
        6  | 21:51.21 |  3:57.41 |     98346    |   116161
        7  | 25:48.62 |  4:00.15 |    116162    |   134176
        8  | 29:49.02 |  4:09.44 |    134177    |   152895
        9  | 33:58.46 |  3:42.09 |    152896    |   169554
       10  | 37:40.55 |  4:14.44 |    169555    |   188648
       11  | 41:55.24 |  5:07.34 |    188649    |   211707
       12  | 47:02.58 |  3:52.11 |    211708    |   229118
       13  | 50:54.69 |  4:12.66 |    229119    |   248084
Range status and errors
Selected range
     Filename C:\Users\user\Desktop\Andrea Bocelli - Andrea {US Edition} (0602498685303).wav
     Peak level 100.0 %
     Extraction speed 3.6 X
     Range quality 100.0 %
     Test CRC EF94DAD6
     Copy CRC EF94DAD6
     Copy OK
No errors occurred
AccurateRip summary
Track  1  accurately ripped (confidence 18)  [657B6CA3]  (AR v1)
Track  2  accurately ripped (confidence 19)  [7AB47CC1]  (AR v1)
Track  3  accurately ripped (confidence 18)  [F0A85B58]  (AR v1)
Track  4  accurately ripped (confidence 18)  [49DFF695]  (AR v1)
Track  5  accurately ripped (confidence 19)  [168F1565]  (AR v1)
Track  6  accurately ripped (confidence 17)  [B1432C32]  (AR v1)
Track  7  accurately ripped (confidence 18)  [58F87A1D]  (AR v1)
Track  8  accurately ripped (confidence 18)  [ACDCA1E9]  (AR v1)
Track  9  accurately ripped (confidence 16)  [D467663B]  (AR v1)
Track 10  accurately ripped (confidence 17)  [AA1F9DC8]  (AR v1)
Track 11  accurately ripped (confidence 18)  [2A70AC4B]  (AR v1)
Track 12  accurately ripped (confidence 18)  [B26C8EBE]  (AR v1)
Track 13  accurately ripped (confidence 18)  [B40C5718]  (AR v1)
All tracks accurately ripped
End of status report
Правила, инструкции, FAQ!!!
Торрент  Добавлен [25 июн 2020, 22:35] Скачать торрент Магнет ссылка
Скачать торрент
[ Размер 145.17 КБ / Просмотров 3 ]

Статус
Проверен 
 
Размер  15.04 ГБ
Приватный: Нет (DHT включён)
.torrent скачан  1
 


     Отправить личное сообщение
   
Страница 1 из 1
Показать сообщения за:  Поле сортировки  
Начать новую тему Ответить на тему


Сейчас этот форум просматривают: нет зарегистрированных пользователей и гости: 0


Вы не можете начинать темы
Вы не можете отвечать на сообщения
Вы не можете редактировать свои сообщения
Вы не можете удалять свои сообщения
Вы не можете добавлять вложения

Перейти:  
cron