Начать новую тему Ответить на тему
Статистика раздачи
Размер: 1.38 ГБ | Добавлен: 26 мар 2019, 21:09 | Скачали: 0
Сидеров: 0  [0 байт/сек]    Личеров: 0  [0 байт/сек]
Пред. тема | След. тема 

Автор
Сообщение

СообщениеДобавлено: 26 мар 2019, 21:09 

Ответить с цитатой 

Richard Clapton - 3CD (Angeltown, Past Hits & Previews, The Definitive Anthology)


Жанр: Classic Rock
Носитель: CD
Год издания: 1978, 1999
Страна исполнителя (группы): Australia
 
 
Studio Albums
Страна-производитель диска: Australia
Год первого выпуска: 1995
Год настоящего издания: 1995
Издатель (лейбл): Roadshow Music
Номер по каталогу: 17982-2
Format: CD, Album
Аудиокодек: FLAC (*.flac)
Тип рипа: tracks+.cue
Битрейт аудио: lossless
Продолжительность: 00:55:17
Источник (релизер): интернет
Наличие сканов в содержимом раздачи: front
Треклист:
01. Dixieland (05:01)
02. My minds eye (05:01)
03. That moon (05:16)
04. Stay with me (05:49)
05. Howl (05:03)
06. Paris (05:12)
07. Turn my heart around (04:21)
08. Shine a light (05:47)
09. The devil in disguise (05:17)
10. Angeltown (04:01)
11. Real life (04:26)
Код:
Exact Audio Copy V1.0 beta 3 from 29. August 2011
EAC extraction logfile from 24. May 2012, 6:54
Richard Clapton / Angeltown
Used drive  : HL-DT-STDVDRAM GSA-4163B   Adapter: 1  ID: 0
Read mode               : Secure
Utilize accurate stream : Yes
Defeat audio cache      : Yes
Make use of C2 pointers : No
Read offset correction                      : 667
Overread into Lead-In and Lead-Out          : No
Fill up missing offset samples with silence : Yes
Delete leading and trailing silent blocks   : No
Null samples used in CRC calculations       : Yes
Used interface                              : Native Win32 interface for Win NT & 2000
Gap handling                                : Appended to previous track
Used output format              : User Defined Encoder
Selected bitrate                : 1024 kBit/s
Quality                         : High
Add ID3 tag                     : Yes
Command line compressor         : C:\Program Files\Exact Audio Copy\Flac\flac.exe
Additional command line options : -8 -V -T "ARTIST=%artist%" -T "TITLE=%title%" -T "ALBUM=%albumtitle%" -T "DATE=
%year%" -T "TRACKNUMBER=%tracknr%" -T "GENRE=%genre%" -T "COMMENT=%comment%" -T "BAND=%albuminterpret%" -T "COMPOSER=
%composer%" %haslyrics%--tag-from-file=LYRICS="%lyricsfile%"%haslyrics% -T "DISCNUMBER=%cdnumber%" -T "TOTALDISCS=
%totalcds%" -T "TOTALTRACKS=%numtracks%" %hascover%--picture="%coverfile%"%hascover% %source% -o %dest%
TOC of the extracted CD
     Track |   Start  |  Length  | Start sector | End sector
    ---------------------------------------------------------
        1  |  0:00.00 |  5:01.00 |         0    |    22574
        2  |  5:01.00 |  5:01.00 |     22575    |    45149
        3  | 10:02.00 |  5:16.42 |     45150    |    68891
        4  | 15:18.42 |  5:49.70 |     68892    |    95136
        5  | 21:08.37 |  5:03.03 |     95137    |   117864
        6  | 26:11.40 |  5:12.22 |    117865    |   141286
        7  | 31:23.62 |  4:21.18 |    141287    |   160879
        8  | 35:45.05 |  5:47.40 |    160880    |   186944
        9  | 41:32.45 |  5:17.57 |    186945    |   210776
       10  | 46:50.27 |  4:01.13 |    210777    |   228864
       11  | 50:51.40 |  4:26.35 |    228865    |   248849
Track  1
     Filename C:\Exact Audio Copy\Richard Clapton\Angeltown\01. Dixieland.wav
     Pre-gap length  0:00:02.00
     Peak level 100.0 %
     Extraction speed 4.6 X
     Track quality 100.0 %
     Test CRC BD24278F
     Copy CRC BD24278F
     Track not present in AccurateRip database
     Copy OK
Track  2
     Filename C:\Exact Audio Copy\Richard Clapton\Angeltown\02. My Minds Eye.wav
     Pre-gap length  0:00:00.01
     Peak level 100.0 %
     Extraction speed 4.9 X
     Track quality 100.0 %
     Test CRC 56D12D0D
     Copy CRC 56D12D0D
     Track not present in AccurateRip database
     Copy OK
Track  3
     Filename C:\Exact Audio Copy\Richard Clapton\Angeltown\03. That Moon.wav
     Peak level 100.0 %
     Extraction speed 6.0 X
     Track quality 100.0 %
     Test CRC A27B5EE5
     Copy CRC A27B5EE5
     Track not present in AccurateRip database
     Copy OK
Track  4
     Filename C:\Exact Audio Copy\Richard Clapton\Angeltown\04. Stay With Me.wav
     Peak level 100.0 %
     Extraction speed 6.0 X
     Track quality 99.9 %
     Test CRC 8835FB5C
     Copy CRC 8835FB5C
     Track not present in AccurateRip database
     Copy OK
Track  5
     Filename C:\Exact Audio Copy\Richard Clapton\Angeltown\05. Howl.wav
     Peak level 100.0 %
     Extraction speed 6.9 X
     Track quality 100.0 %
     Test CRC 52FDC2E6
     Copy CRC 52FDC2E6
     Track not present in AccurateRip database
     Copy OK
Track  6
     Filename C:\Exact Audio Copy\Richard Clapton\Angeltown\06. Paris.wav
     Peak level 100.0 %
     Extraction speed 7.3 X
     Track quality 100.0 %
     Test CRC 442225B1
     Copy CRC 442225B1
     Track not present in AccurateRip database
     Copy OK
Track  7
     Filename C:\Exact Audio Copy\Richard Clapton\Angeltown\07. Turn My Heart Around.wav
     Pre-gap length  0:00:00.01
     Peak level 100.0 %
     Extraction speed 6.3 X
     Track quality 99.9 %
     Test CRC 01C40674
     Copy CRC 01C40674
     Track not present in AccurateRip database
     Copy OK
Track  8
     Filename C:\Exact Audio Copy\Richard Clapton\Angeltown\08. Shine A Light.wav
     Peak level 100.0 %
     Extraction speed 8.1 X
     Track quality 100.0 %
     Test CRC E7C1FB34
     Copy CRC E7C1FB34
     Track not present in AccurateRip database
     Copy OK
Track  9
     Filename C:\Exact Audio Copy\Richard Clapton\Angeltown\09. The Devil In Paradise.wav
     Pre-gap length  0:00:01.65
     Peak level 100.0 %
     Extraction speed 7.9 X
     Track quality 100.0 %
     Test CRC 148C5D5B
     Copy CRC 148C5D5B
     Track not present in AccurateRip database
     Copy OK
Track 10
     Filename C:\Exact Audio Copy\Richard Clapton\Angeltown\10. Angeltown.wav
     Peak level 100.0 %
     Extraction speed 7.9 X
     Track quality 100.0 %
     Test CRC F0FB876F
     Copy CRC F0FB876F
     Track not present in AccurateRip database
     Copy OK
Track 11
     Filename C:\Exact Audio Copy\Richard Clapton\Angeltown\11. Real Life.wav
     Peak level 100.0 %
     Extraction speed 8.9 X
     Track quality 100.0 %
     Test CRC 69F3B619
     Copy CRC 69F3B619
     Track not present in AccurateRip database
     Copy OK
None of the tracks are present in the AccurateRip database
No errors occurred
End of status report
==== Log checksum 56F38141698ED9B1EDB294BB6AC6E22B37C54D1689091E0162A53A2789DBEC1E ====
Код:
REM GENRE Rock
REM DATE 1995
REM DISCID 860CF60B
REM COMMENT "ExactAudioCopy v1.0b3"
PERFORMER "Richard Clapton"
TITLE "Angeltown"
FILE "01. Dixieland.wav" WAVE
  TRACK 01 AUDIO
    TITLE "Dixieland"
    PERFORMER "Richard Clapton"
    INDEX 01 00:00:00
FILE "02. My Minds Eye.wav" WAVE
  TRACK 02 AUDIO
    TITLE "My Minds Eye"
    PERFORMER "Richard Clapton"
    INDEX 01 00:00:00
FILE "03. That Moon.wav" WAVE
  TRACK 03 AUDIO
    TITLE "That Moon"
    PERFORMER "Richard Clapton"
    INDEX 00 00:00:00
    INDEX 01 00:00:01
FILE "04. Stay With Me.wav" WAVE
  TRACK 04 AUDIO
    TITLE "Stay With Me"
    PERFORMER "Richard Clapton"
    INDEX 01 00:00:00
FILE "05. Howl.wav" WAVE
  TRACK 05 AUDIO
    TITLE "Howl"
    PERFORMER "Richard Clapton"
    INDEX 01 00:00:00
FILE "06. Paris.wav" WAVE
  TRACK 06 AUDIO
    TITLE "Paris"
    PERFORMER "Richard Clapton"
    INDEX 01 00:00:00
FILE "07. Turn My Heart Around.wav" WAVE
  TRACK 07 AUDIO
    TITLE "Turn My Heart Around"
    PERFORMER "Richard Clapton"
    INDEX 01 00:00:00
FILE "08. Shine A Light.wav" WAVE
  TRACK 08 AUDIO
    TITLE "Shine A Light"
    PERFORMER "Richard Clapton"
    INDEX 01 00:00:00
FILE "09. The Devil In Paradise.wav" WAVE
  TRACK 09 AUDIO
    TITLE "The Devil In Paradise"
    PERFORMER "Richard Clapton"
    INDEX 00 00:00:00
    INDEX 01 00:01:65
FILE "10. Angeltown.wav" WAVE
  TRACK 10 AUDIO
    TITLE "Angeltown"
    PERFORMER "Richard Clapton"
    INDEX 01 00:00:00
FILE "11. Real Life.wav" WAVE
  TRACK 11 AUDIO
    TITLE "Real Life"
    PERFORMER "Richard Clapton"
    INDEX 01 00:00:00
Код:
AUDIOCHECKER v2.0 beta (build 457) - by Dester - opdester@freemail.hu
~~~~~~~~~~~~~~~~~~~~~~~~~~~~~~~~~~
-=== DO NOT EDIT THIS FILE! ===-
Path: ...\1995. Angeltown
01 -=- 01. Dixieland.flac -=- CDDA (100%)
02 -=- 02. My Minds Eye.flac -=- CDDA (100%)
03 -=- 03. That Moon.flac -=- CDDA (100%)
04 -=- 04. Stay With Me.flac -=- CDDA (100%)
05 -=- 05. Howl.flac -=- CDDA (99%)
06 -=- 06. Paris.flac -=- CDDA (100%)
07 -=- 07. Turn My Heart Around.flac -=- CDDA (100%)
08 -=- 08. Shine A Light.flac -=- CDDA (100%)
09 -=- 09. The Devil In Paradise.flac -=- CDDA (100%)
10 -=- 10. Angeltown.flac -=- CDDA (99%)
11 -=- 11. Real Life.flac -=- CDDA (100%)
Summary 99,82% CDDA
Compilations
#777Страна-производитель диска: Australia
Год первого выпуска: 1978
Год настоящего издания: 1992
Издатель (лейбл): Infinity / Festival Records
Номер по каталогу: D 19585
Format: CD, Compilation
Аудиокодек: FLAC (*.flac)
Тип рипа: tracks+.cue
Битрейт аудио: lossless
Продолжительность: 00:41:12
Источник (релизер): orphaned
Наличие сканов в содержимом раздачи: да
Треклист:
1 Stepping Across The Line (04:03)
2 Girls On The Avenue (03:58)
3 Goodbye Tiger (05:47)
4 Capricorn Dancer (03:16)
5 I Wanna Be A Survivor (04:03)
6 When The Heat's Off (03:18)
7 Deep Water (05:28)
8 Blue Bay Blues (04:52)
9 Need A Visionary (04:41)
10 Suit Yourself (02:33)
Код:
Exact Audio Copy V1.0 beta 3 from 29. August 2011
EAC extraction logfile from 27. December 2014, 10:27
Richard Clapton / Past Hits & Previews
Used drive  : PIONEER BD-RW   BDR-207D   Adapter: 0  ID: 0
Read mode               : Secure
Utilize accurate stream : Yes
Defeat audio cache      : Yes
Make use of C2 pointers : No
Read offset correction                      : 667
Overread into Lead-In and Lead-Out          : No
Fill up missing offset samples with silence : Yes
Delete leading and trailing silent blocks   : No
Null samples used in CRC calculations       : Yes
Used interface                              : Native Win32 interface for Win NT & 2000
Gap handling                                : Appended to previous track
Used output format              : User Defined Encoder
Selected bitrate                : 1024 kBit/s
Quality                         : High
Add ID3 tag                     : No
Command line compressor         : C:\Program Files (x86)\Exact Audio Copy\Flac\flac.exe
Additional command line options : -8 -V -T "ARTIST=%artist%" -T "TITLE=%title%" -T "ALBUM=%albumtitle%" -T "DATE=%year%" -T "TRACKNUMBER=%tracknr%" -T "TOTALTRACKS=%numtracks%" -T "GENRE=%genre%" -T "ALBUMARTIST=%albumartist%" -T "ALBUM ARTIST=%albumartist%" -T "COMMENT=EAC Secure Mode, Test & Copy, AccurateRip, FLAC -8" %source%
TOC of the extracted CD
     Track |   Start  |  Length  | Start sector | End sector
    ---------------------------------------------------------
        1  |  0:00.00 |  4:06.12 |         0    |    18461
        2  |  4:06.12 |  3:15.15 |     18462    |    33101
        3  |  7:21.27 |  5:40.08 |     33102    |    58609
        4  | 13:01.35 |  3:51.32 |     58610    |    75966
        5  | 16:52.67 |  3:58.08 |     75967    |    93824
        6  | 20:51.00 |  3:17.40 |     93825    |   108639
        7  | 24:08.40 |  5:23.45 |    108640    |   132909
        8  | 29:32.10 |  4:26.70 |    132910    |   152929
        9  | 33:59.05 |  3:44.55 |    152930    |   169784
       10  | 37:43.60 |  3:28.40 |    169785    |   185424
Track  1
     Filename C:\Users\biafr_000\Music\Richard Clapton - Past Hits & Previews (1992) [FLAC]\01 - Stepping Across The Line.wav
     Pre-gap length  0:00:02.00
     Peak level 94.1 %
     Extraction speed 4.6 X
     Track quality 100.0 %
     Test CRC 95AE561E
     Copy CRC 95AE561E
     Accurately ripped (confidence 2)  [F7E37ACB]  (AR v1)
     Copy OK
Track  2
     Filename C:\Users\biafr_000\Music\Richard Clapton - Past Hits & Previews (1992) [FLAC]\02 - Girls On The Avenue.wav
     Pre-gap length  0:00:01.22
     Peak level 100.0 %
     Extraction speed 4.2 X
     Track quality 99.9 %
     Test CRC CB32CE66
     Copy CRC CB32CE66
     Accurately ripped (confidence 2)  [75584F5D]  (AR v1)
     Copy OK
Track  3
     Filename C:\Users\biafr_000\Music\Richard Clapton - Past Hits & Previews (1992) [FLAC]\03 - Goodbye Tiger.wav
     Pre-gap length  0:00:02.05
     Peak level 100.0 %
     Extraction speed 5.6 X
     Track quality 100.0 %
     Test CRC 2EA5011E
     Copy CRC 2EA5011E
     Accurately ripped (confidence 2)  [7A655FBA]  (AR v1)
     Copy OK
Track  4
     Filename C:\Users\biafr_000\Music\Richard Clapton - Past Hits & Previews (1992) [FLAC]\04 - Capricorn Dancer.wav
     Pre-gap length  0:00:00.58
     Peak level 100.0 %
     Extraction speed 5.0 X
     Track quality 99.9 %
     Test CRC EFC51CB1
     Copy CRC EFC51CB1
     Accurately ripped (confidence 2)  [B96B5A74]  (AR v1)
     Copy OK
Track  5
     Filename C:\Users\biafr_000\Music\Richard Clapton - Past Hits & Previews (1992) [FLAC]\05 - I Wanna Be A Survivor.wav
     Pre-gap length  0:00:02.32
     Peak level 95.9 %
     Extraction speed 6.1 X
     Track quality 100.0 %
     Test CRC 26341B6D
     Copy CRC 26341B6D
     Accurately ripped (confidence 2)  [B9FB3640]  (AR v1)
     Copy OK
Track  6
     Filename C:\Users\biafr_000\Music\Richard Clapton - Past Hits & Previews (1992) [FLAC]\06 - When The Heat's Off.wav
     Pre-gap length  0:00:02.13
     Peak level 95.9 %
     Extraction speed 5.3 X
     Track quality 99.9 %
     Test CRC E3A83462
     Copy CRC E3A83462
     Accurately ripped (confidence 2)  [7469AAE3]  (AR v1)
     Copy OK
Track  7
     Filename C:\Users\biafr_000\Music\Richard Clapton - Past Hits & Previews (1992) [FLAC]\07 - Deep Water.wav
     Pre-gap length  0:00:01.30
     Peak level 100.0 %
     Extraction speed 6.8 X
     Track quality 100.0 %
     Test CRC BC4AFC9A
     Copy CRC BC4AFC9A
     Accurately ripped (confidence 2)  [18813A23]  (AR v1)
     Copy OK
Track  8
     Filename C:\Users\biafr_000\Music\Richard Clapton - Past Hits & Previews (1992) [FLAC]\08 - Blue Bay Blues.wav
     Pre-gap length  0:00:01.05
     Peak level 98.0 %
     Extraction speed 6.2 X
     Track quality 99.9 %
     Test CRC 1A50554A
     Copy CRC 1A50554A
     Accurately ripped (confidence 2)  [B47396D4]  (AR v1)
     Copy OK
Track  9
     Filename C:\Users\biafr_000\Music\Richard Clapton - Past Hits & Previews (1992) [FLAC]\09 - Need A Visionary.wav
     Pre-gap length  0:00:01.15
     Peak level 96.8 %
     Extraction speed 6.2 X
     Track quality 99.9 %
     Test CRC C9D39F14
     Copy CRC C9D39F14
     Accurately ripped (confidence 2)  [7CF599AA]  (AR v1)
     Copy OK
Track 10
     Filename C:\Users\biafr_000\Music\Richard Clapton - Past Hits & Previews (1992) [FLAC]\10 - Suit Yourself.wav
     Pre-gap length  0:00:01.38
     Peak level 100.0 %
     Extraction speed 6.2 X
     Track quality 99.9 %
     Test CRC 90207D5F
     Copy CRC 90207D5F
     Accurately ripped (confidence 2)  [911DC0B8]  (AR v1)
     Copy OK
All tracks accurately ripped
No errors occurred
End of status report
==== Log checksum A4FF878360CD7E071FC37A420EEBFBDCA39FCA00D6441A488216252560500D30 ====
Код:
REM GENRE Rock
REM DATE 1992
REM DISCID 7109A80A
REM COMMENT "ExactAudioCopy v1.0b3"
PERFORMER "Richard Clapton"
TITLE "Past Hits & Previews"
FILE "01 - Stepping Across The Line.wav" WAVE
  TRACK 01 AUDIO
    TITLE "Stepping Across The Line"
    PERFORMER "Richard Clapton"
    INDEX 01 00:00:00
  TRACK 02 AUDIO
    TITLE "Girls On The Avenue"
    PERFORMER "Richard Clapton"
    INDEX 00 04:04:65
FILE "02 - Girls On The Avenue.wav" WAVE
    INDEX 01 00:00:00
  TRACK 03 AUDIO
    TITLE "Goodbye Tiger"
    PERFORMER "Richard Clapton"
    INDEX 00 03:13:10
FILE "03 - Goodbye Tiger.wav" WAVE
    INDEX 01 00:00:00
  TRACK 04 AUDIO
    TITLE "Capricorn Dancer"
    PERFORMER "Richard Clapton"
    INDEX 00 05:39:25
FILE "04 - Capricorn Dancer.wav" WAVE
    INDEX 01 00:00:00
  TRACK 05 AUDIO
    TITLE "I Wanna Be A Survivor"
    PERFORMER "Richard Clapton"
    INDEX 00 03:49:00
FILE "05 - I Wanna Be A Survivor.wav" WAVE
    INDEX 01 00:00:00
  TRACK 06 AUDIO
    TITLE "When The Heat's Off"
    PERFORMER "Richard Clapton"
    INDEX 00 03:55:70
FILE "06 - When The Heat's Off.wav" WAVE
    INDEX 01 00:00:00
  TRACK 07 AUDIO
    TITLE "Deep Water"
    PERFORMER "Richard Clapton"
    INDEX 00 03:16:10
FILE "07 - Deep Water.wav" WAVE
    INDEX 01 00:00:00
  TRACK 08 AUDIO
    TITLE "Blue Bay Blues"
    PERFORMER "Richard Clapton"
    INDEX 00 05:22:40
FILE "08 - Blue Bay Blues.wav" WAVE
    INDEX 01 00:00:00
  TRACK 09 AUDIO
    TITLE "Need A Visionary"
    PERFORMER "Richard Clapton"
    INDEX 00 04:25:55
FILE "09 - Need A Visionary.wav" WAVE
    INDEX 01 00:00:00
  TRACK 10 AUDIO
    TITLE "Suit Yourself"
    PERFORMER "Richard Clapton"
    INDEX 00 03:43:17
FILE "10 - Suit Yourself.wav" WAVE
    INDEX 01 00:00:00
Код:
AUDIOCHECKER v2.0 beta (build 457) - by Dester - opdester@freemail.hu
~~~~~~~~~~~~~~~~~~~~~~~~~~~~~~~~~~
-=== DO NOT EDIT THIS FILE! ===-
Path: ...\1978. Richard Clapton - Past Hits & Previews
01 -=- 01 - Stepping Across The Line.flac -=- CDDA (99%)
02 -=- 02 - Girls On The Avenue.flac -=- CDDA (100%)
03 -=- 03 - Goodbye Tiger.flac -=- CDDA (100%)
04 -=- 04 - Capricorn Dancer.flac -=- MPEG (79%)
05 -=- 05 - I Wanna Be A Survivor.flac -=- MPEG (79%)
06 -=- 06 - When The Heat's Off.flac -=- CDDA (100%)
07 -=- 07 - Deep Water.flac -=- CDDA (100%)
08 -=- 08 - Blue Bay Blues.flac -=- ERROR
09 -=- 09 - Need A Visionary.flac -=- MPEG (79%)
10 -=- 10 - Suit Yourself.flac -=- CDDA (100%)
Summary 73,56% CDDA
#777Страна-производитель диска: Australia
Год первого выпуска: 1999
Год настоящего издания: 1999
Издатель (лейбл): WEA Records
Номер по каталогу: 3984294362
Format: 2xCD, Compilation, Enhanced, Limited Edition, Remastered
Аудиокодек: FLAC (*.flac)
Тип рипа: tracks+.cue
Битрейт аудио: lossless
Источник (релизер): What.CD
Наличие сканов в содержимом раздачи: да
Продолжительность: 01:15:02
Треклист:
01. Girls On The Avenue
(03:17)
02. Capricorn Dancer (03:26)
03. Down In The Lucky Country (03:42)
04. Deep Water (05:28)
05. Goodbye Tiger (05:44)
06. Get Back To Shelter (03:56)
07. I Am An Island
(05:04)
08. The Best Years Of Our Lives (05:09)
09. Solidarity (05:11)
10. Trust Somebody (04:22)
11. Glory Road (04:33)
12. Ace Of Hearts (04:38)
13. Distant Thunder (05:27)
14. Oceans Of The Heart (04:34)
15. Calling For You (04:36)
16. Little Pilgrims (05:49)
Код:
Exact Audio Copy V1.0 beta 1 from 15. November 2010
EAC extraction logfile from 27. January 2011, 13:35
Richard Clapton / The Definitive Anthology - CD1
Used drive  : ASUS    DRW-1612BL   Adapter: 0  ID: 0
Read mode               : Secure
Utilize accurate stream : Yes
Defeat audio cache      : Yes
Make use of C2 pointers : No
Read offset correction                      : 6
Overread into Lead-In and Lead-Out          : No
Fill up missing offset samples with silence : Yes
Delete leading and trailing silent blocks   : No
Null samples used in CRC calculations       : Yes
Used interface                              : Native Win32 interface for Win NT & 2000
Gap handling                                : Appended to previous track
Used output format              : User Defined Encoder
Selected bitrate                : 128 kBit/s
Quality                         : High
Add ID3 tag                     : No
Command line compressor         : C:\Program Files\Exact Audio Copy\Flac\flac.exe
Additional command line options : -V -8 -T "artist=%a" -T "title=%t" -T "album=%g" -T "date=%y" -T "tracknumber=%n" -T "genre=%m" %s
TOC of the extracted CD
     Track |   Start  |  Length  | Start sector | End sector
    ---------------------------------------------------------
        1  |  0:00.00 |  3:17.25 |         0    |    14799
        2  |  3:17.25 |  3:26.58 |     14800    |    30307
        3  |  6:44.08 |  3:42.71 |     30308    |    47028
        4  | 10:27.04 |  5:28.25 |     47029    |    71653
        5  | 15:55.29 |  5:44.28 |     71654    |    97481
        6  | 21:39.57 |  3:56.04 |     97482    |   115185
        7  | 25:35.61 |  5:04.27 |    115186    |   138012
        8  | 30:40.13 |  5:09.04 |    138013    |   161191
        9  | 35:49.17 |  5:11.51 |    161192    |   184567
       10  | 41:00.68 |  4:22.06 |    184568    |   204223
       11  | 45:22.74 |  4:33.03 |    204224    |   224701
       12  | 49:56.02 |  4:38.29 |    224702    |   245580
       13  | 54:34.31 |  5:27.34 |    245581    |   270139
       14  | 60:01.65 |  4:34.57 |    270140    |   290746
       15  | 64:36.47 |  4:36.06 |    290747    |   311452
       16  | 69:12.53 |  5:49.55 |    311453    |   337682
Track  1
     Filename D:\Richard Clapton - The Definitive Anthology - flac\CD1\Richard Clapton - The Definitive Anthology - CD1 - 01 - Girls On The Avenue.wav
     Pre-gap length  0:00:02.00
     Peak level 100.0 %
     Extraction speed 4.0 X
     Track quality 100.0 %
     Test CRC F8A83676
     Copy CRC F8A83676
     Accurately ripped (confidence 14)  [A76261B8]
     Copy OK
Track  2
     Filename D:\Richard Clapton - The Definitive Anthology - flac\CD1\Richard Clapton - The Definitive Anthology - CD1 - 02 - Capricorn Dancer.wav
     Peak level 100.0 %
     Extraction speed 4.1 X
     Track quality 100.0 %
     Test CRC 22D4447A
     Copy CRC 22D4447A
     Accurately ripped (confidence 15)  [3B175C71]
     Copy OK
Track  3
     Filename D:\Richard Clapton - The Definitive Anthology - flac\CD1\Richard Clapton - The Definitive Anthology - CD1 - 03 - Down In The Lucky Country.wav
     Peak level 100.0 %
     Extraction speed 4.2 X
     Track quality 100.0 %
     Test CRC CAD68030
     Copy CRC CAD68030
     Accurately ripped (confidence 12)  [6AC714CC]
     Copy OK
Track  4
     Filename D:\Richard Clapton - The Definitive Anthology - flac\CD1\Richard Clapton - The Definitive Anthology - CD1 - 04 - Deep Water.wav
     Peak level 100.0 %
     Extraction speed 4.3 X
     Track quality 100.0 %
     Test CRC 35ABB7C9
     Copy CRC 35ABB7C9
     Accurately ripped (confidence 14)  [3A4B827E]
     Copy OK
Track  5
     Filename D:\Richard Clapton - The Definitive Anthology - flac\CD1\Richard Clapton - The Definitive Anthology - CD1 - 05 - Goodbye Tiger.wav
     Peak level 100.0 %
     Extraction speed 4.4 X
     Track quality 100.0 %
     Test CRC 4DD8CF4D
     Copy CRC 4DD8CF4D
     Accurately ripped (confidence 14)  [37024886]
     Copy OK
Track  6
     Filename D:\Richard Clapton - The Definitive Anthology - flac\CD1\Richard Clapton - The Definitive Anthology - CD1 - 06 - Get Back To The Shelter.wav
     Peak level 100.0 %
     Extraction speed 4.2 X
     Track quality 100.0 %
     Test CRC 0AA0A5FA
     Copy CRC 0AA0A5FA
     Accurately ripped (confidence 13)  [A0AEC4A1]
     Copy OK
Track  7
     Filename D:\Richard Clapton - The Definitive Anthology - flac\CD1\Richard Clapton - The Definitive Anthology - CD1 - 07 - I Am An Island.wav
     Peak level 100.0 %
     Extraction speed 4.4 X
     Track quality 100.0 %
     Test CRC 301A23AD
     Copy CRC 301A23AD
     Accurately ripped (confidence 14)  [2E30ED27]
     Copy OK
Track  8
     Filename D:\Richard Clapton - The Definitive Anthology - flac\CD1\Richard Clapton - The Definitive Anthology - CD1 - 08 - The Best Years Of Our Lives.wav
     Peak level 100.0 %
     Extraction speed 4.4 X
     Track quality 100.0 %
     Test CRC 93A81929
     Copy CRC 93A81929
     Accurately ripped (confidence 14)  [CC127C5E]
     Copy OK
Track  9
     Filename D:\Richard Clapton - The Definitive Anthology - flac\CD1\Richard Clapton - The Definitive Anthology - CD1 - 09 - Solidarity.wav
     Peak level 100.0 %
     Extraction speed 4.4 X
     Track quality 100.0 %
     Test CRC C2B63D7F
     Copy CRC C2B63D7F
     Accurately ripped (confidence 14)  [32A71E3A]
     Copy OK
Track 10
     Filename D:\Richard Clapton - The Definitive Anthology - flac\CD1\Richard Clapton - The Definitive Anthology - CD1 - 10 - Trust Somebody.wav
     Peak level 100.0 %
     Extraction speed 4.4 X
     Track quality 100.0 %
     Test CRC F094C0CB
     Copy CRC F094C0CB
     Accurately ripped (confidence 14)  [EAE45563]
     Copy OK
Track 11
     Filename D:\Richard Clapton - The Definitive Anthology - flac\CD1\Richard Clapton - The Definitive Anthology - CD1 - 11 - Glory Road.wav
     Peak level 100.0 %
     Extraction speed 4.4 X
     Track quality 100.0 %
     Test CRC D458B87F
     Copy CRC D458B87F
     Accurately ripped (confidence 13)  [001CA66F]
     Copy OK
Track 12
     Filename D:\Richard Clapton - The Definitive Anthology - flac\CD1\Richard Clapton - The Definitive Anthology - CD1 - 12 - Ace Of Hearts.wav
     Peak level 100.0 %
     Extraction speed 4.4 X
     Track quality 100.0 %
     Test CRC 8E323440
     Copy CRC 8E323440
     Accurately ripped (confidence 14)  [C6445716]
     Copy OK
Track 13
     Filename D:\Richard Clapton - The Definitive Anthology - flac\CD1\Richard Clapton - The Definitive Anthology - CD1 - 13 - Distant Thunder.wav
     Peak level 100.0 %
     Extraction speed 4.5 X
     Track quality 100.0 %
     Test CRC 53D068C0
     Copy CRC 53D068C0
     Accurately ripped (confidence 14)  [D9E3E366]
     Copy OK
Track 14
     Filename D:\Richard Clapton - The Definitive Anthology - flac\CD1\Richard Clapton - The Definitive Anthology - CD1 - 14 - Oceans Of The Heart.wav
     Peak level 100.0 %
     Extraction speed 4.4 X
     Track quality 100.0 %
     Test CRC C2E8D78A
     Copy CRC C2E8D78A
     Accurately ripped (confidence 14)  [2A797F9E]
     Copy OK
Track 15
     Filename D:\Richard Clapton - The Definitive Anthology - flac\CD1\Richard Clapton - The Definitive Anthology - CD1 - 15 - Calling For You.wav
     Peak level 100.0 %
     Extraction speed 4.4 X
     Track quality 100.0 %
     Test CRC E169BBFA
     Copy CRC E169BBFA
     Accurately ripped (confidence 14)  [D83B4C86]
     Copy OK
Track 16
     Filename D:\Richard Clapton - The Definitive Anthology - flac\CD1\Richard Clapton - The Definitive Anthology - CD1 - 16 - Little Pilgrims.wav
     Peak level 100.0 %
     Extraction speed 4.5 X
     Track quality 100.0 %
     Test CRC 509FF96E
     Copy CRC 509FF96E
     Accurately ripped (confidence 14)  [A6FF0518]
     Copy OK
All tracks accurately ripped
No errors occurred
End of status report
==== Log checksum 438D6AE48078CFFE8F549FA51300CDD0CEAD67EA488CAC7A0A088F39861CE1E3 ====
Код:
REM GENRE Rock
REM DATE 1999
REM DISCID F1119610
REM COMMENT "ExactAudioCopy v1.0b1"
PERFORMER "Richard Clapton"
TITLE "The Definitive Anthology"
FILE "01 - Girls On The Avenue.wav" WAVE
  TRACK 01 AUDIO
    TITLE "Girls On The Avenue"
    PERFORMER "Richard Clapton"
    INDEX 01 00:00:00
FILE "02 - Capricorn Dancer.wav" WAVE
  TRACK 02 AUDIO
    TITLE "Capricorn Dancer"
    PERFORMER "Richard Clapton"
    INDEX 01 00:00:00
FILE "03 - Down In The Lucky Country.wav" WAVE
  TRACK 03 AUDIO
    TITLE "Down In The Lucky Country"
    PERFORMER "Richard Clapton"
    INDEX 01 00:00:00
FILE "04 - Deep Water.wav" WAVE
  TRACK 04 AUDIO
    TITLE "Deep Water"
    PERFORMER "Richard Clapton"
    INDEX 01 00:00:00
FILE "05 - Goodbye Tiger.wav" WAVE
  TRACK 05 AUDIO
    TITLE "Goodbye Tiger"
    PERFORMER "Richard Clapton"
    INDEX 01 00:00:00
FILE "06 - Get Back To The Shelter.wav" WAVE
  TRACK 06 AUDIO
    TITLE "Get Back To The Shelter"
    PERFORMER "Richard Clapton"
    INDEX 01 00:00:00
FILE "07 - I Am An Island.wav" WAVE
  TRACK 07 AUDIO
    TITLE "I Am An Island"
    PERFORMER "Richard Clapton"
    INDEX 01 00:00:00
FILE "08 - The Best Years Of Our Lives.wav" WAVE
  TRACK 08 AUDIO
    TITLE "The Best Years Of Our Lives"
    PERFORMER "Richard Clapton"
    INDEX 01 00:00:00
FILE "09 - Solidarity.wav" WAVE
  TRACK 09 AUDIO
    TITLE "Solidarity"
    PERFORMER "Richard Clapton"
    INDEX 01 00:00:00
FILE "10 - Trust Somebody.wav" WAVE
  TRACK 10 AUDIO
    TITLE "Trust Somebody"
    PERFORMER "Richard Clapton"
    INDEX 01 00:00:00
FILE "11 - Glory Road.wav" WAVE
  TRACK 11 AUDIO
    TITLE "Glory Road"
    PERFORMER "Richard Clapton"
    INDEX 01 00:00:00
FILE "12 - Ace Of Hearts.wav" WAVE
  TRACK 12 AUDIO
    TITLE "Ace Of Hearts"
    PERFORMER "Richard Clapton"
    INDEX 01 00:00:00
FILE "13 - Distant Thunder.wav" WAVE
  TRACK 13 AUDIO
    TITLE "Distant Thunder"
    PERFORMER "Richard Clapton"
    INDEX 01 00:00:00
FILE "14 - Oceans Of The Heart.wav" WAVE
  TRACK 14 AUDIO
    TITLE "Oceans Of The Heart"
    PERFORMER "Richard Clapton"
    INDEX 01 00:00:00
FILE "15 - Calling For You.wav" WAVE
  TRACK 15 AUDIO
    TITLE "Calling For You"
    PERFORMER "Richard Clapton"
    INDEX 01 00:00:00
FILE "16 - Little Pilgrims.wav" WAVE
  TRACK 16 AUDIO
    TITLE "Little Pilgrims"
    PERFORMER "Richard Clapton"
    INDEX 01 00:00:00
Код:
AUDIOCHECKER v2.0 beta (build 457) - by Dester - opdester@freemail.hu
~~~~~~~~~~~~~~~~~~~~~~~~~~~~~~~~~~
-=== DO NOT EDIT THIS FILE! ===-
Path: ...\CD1
01 -=- 01 - Girls On The Avenue.flac -=- CDDA (99%)
02 -=- 02 - Capricorn Dancer.flac -=- CDDA (100%)
03 -=- 03 - Down In The Lucky Country.flac -=- CDDA (100%)
04 -=- 04 - Deep Water.flac -=- CDDA (99%)
05 -=- 05 - Goodbye Tiger.flac -=- CDDA (99%)
06 -=- 06 - Get Back To The Shelter.flac -=- CDDA (100%)
07 -=- 07 - I Am An Island.flac -=- CDDA (100%)
08 -=- 08 - The Best Years Of Our Lives.flac -=- MPEG (95%)
09 -=- 09 - Solidarity.flac -=- CDDA (100%)
10 -=- 10 - Trust Somebody.flac -=- CDDA (100%)
11 -=- 11 - Glory Road.flac -=- CDDA (99%)
12 -=- 12 - Ace Of Hearts.flac -=- CDDA (100%)
13 -=- 13 - Distant Thunder.flac -=- CDDA (100%)
14 -=- 14 - Oceans Of The Heart.flac -=- CDDA (100%)
15 -=- 15 - Calling For You.flac -=- CDDA (100%)
16 -=- 16 - Little Pilgrims.flac -=- CDDA (100%)
Summary 93,81% CDDA
Продолжительность: 00:33:32
Треклист:
01. Blue Bay Blues (04:50)
02. The Universal (04:33)
03. Walk On Water (04:32)
04. Angelou (04:06)
05. Real Love (05:34)
06. Love Is Strong (04:12)
07. Everybody's Making Money (05:43)
Код:
Exact Audio Copy V1.0 beta 1 from 15. November 2010
EAC extraction logfile from 27. January 2011, 13:55
Richard Clapton / The Definitive Anthology - CD2
Used drive  : ASUS    DRW-1612BL   Adapter: 0  ID: 0
Read mode               : Secure
Utilize accurate stream : Yes
Defeat audio cache      : Yes
Make use of C2 pointers : No
Read offset correction                      : 6
Overread into Lead-In and Lead-Out          : No
Fill up missing offset samples with silence : Yes
Delete leading and trailing silent blocks   : No
Null samples used in CRC calculations       : Yes
Used interface                              : Native Win32 interface for Win NT & 2000
Gap handling                                : Appended to previous track
Used output format              : User Defined Encoder
Selected bitrate                : 128 kBit/s
Quality                         : High
Add ID3 tag                     : No
Command line compressor         : C:\Program Files\Exact Audio Copy\Flac\flac.exe
Additional command line options : -V -8 -T "artist=%a" -T "title=%t" -T "album=%g" -T "date=%y" -T "tracknumber=%n" -T "genre=%m" %s
TOC of the extracted CD
     Track |   Start  |  Length  | Start sector | End sector
    ---------------------------------------------------------
        1  |  0:00.00 |  4:50.15 |         0    |    21764
        2  |  4:50.15 |  4:33.60 |     21765    |    42299
        3  |  9:24.00 |  4:32.30 |     42300    |    62729
        4  | 13:56.30 |  4:06.04 |     62730    |    81183
        5  | 18:02.34 |  5:34.15 |     81184    |   106248
        6  | 23:36.49 |  4:12.62 |    106249    |   125210
        7  | 27:49.36 |  5:43.00 |    125211    |   150935
        8  | 36:04.36 | 27:01.01 |    162336    |   283911
Track  1
     Filename D:\Richard Clapton - The Definitive Anthology - flac\CD2\Richard Clapton - The Definitive Anthology - CD2 - 01 - Blue Bay Blues.wav
     Pre-gap length  0:00:02.00
     Peak level 98.8 %
     Extraction speed 3.7 X
     Track quality 99.9 %
     Test CRC 24F4F058
     Copy CRC 24F4F058
     Accurately ripped (confidence 14)  [17EA981A]
     Copy OK
Track  2
     Filename D:\Richard Clapton - The Definitive Anthology - flac\CD2\Richard Clapton - The Definitive Anthology - CD2 - 02 - The Universal.wav
     Pre-gap length  0:00:02.00
     Peak level 98.8 %
     Extraction speed 4.3 X
     Track quality 100.0 %
     Test CRC D27FBC84
     Copy CRC D27FBC84
     Accurately ripped (confidence 14)  [8EFA53BC]
     Copy OK
Track  3
     Filename D:\Richard Clapton - The Definitive Anthology - flac\CD2\Richard Clapton - The Definitive Anthology - CD2 - 03 - Walk On Water.wav
     Pre-gap length  0:00:02.00
     Peak level 81.4 %
     Extraction speed 4.4 X
     Track quality 100.0 %
     Test CRC 55BDDCC2
     Copy CRC 55BDDCC2
     Accurately ripped (confidence 14)  [260BC604]
     Copy OK
Track  4
     Filename D:\Richard Clapton - The Definitive Anthology - flac\CD2\Richard Clapton - The Definitive Anthology - CD2 - 04 - Angelou.wav
     Pre-gap length  0:00:02.00
     Peak level 98.8 %
     Extraction speed 3.8 X
     Track quality 99.9 %
     Test CRC 78CADE5D
     Copy CRC 78CADE5D
     Accurately ripped (confidence 14)  [4FE899E0]
     Copy OK
Track  5
     Filename D:\Richard Clapton - The Definitive Anthology - flac\CD2\Richard Clapton - The Definitive Anthology - CD2 - 05 - Real Love.wav
     Pre-gap length  0:00:02.00
     Peak level 98.8 %
     Extraction speed 4.5 X
     Track quality 100.0 %
     Test CRC 926D624C
     Copy CRC 926D624C
     Accurately ripped (confidence 14)  [B4C0711E]
     Copy OK
Track  6
     Filename D:\Richard Clapton - The Definitive Anthology - flac\CD2\Richard Clapton - The Definitive Anthology - CD2 - 06 - Love Is Strong.wav
     Pre-gap length  0:00:02.00
     Peak level 98.8 %
     Extraction speed 4.4 X
     Track quality 100.0 %
     Test CRC 74B84344
     Copy CRC 74B84344
     Accurately ripped (confidence 14)  [B84CB52E]
     Copy OK
Track  7
     Filename D:\Richard Clapton - The Definitive Anthology - flac\CD2\Richard Clapton - The Definitive Anthology - CD2 - 07 - Everybody's Making Money (except me).wav
     Pre-gap length  0:00:02.00
     Peak level 98.8 %
     Extraction speed 4.1 X
     Track quality 99.9 %
     Test CRC E1EBC3E1
     Copy CRC E1EBC3E1
     Accurately ripped (confidence 14)  [AAE7C706]
     Copy OK
All tracks accurately ripped
No errors occurred
End of status report
==== Log checksum F14E83E159F243C222B2FB8A02DADC7FAB0DFBBBB6972FA7BF33D25A2A9B4E69 ====
Код:
REM GENRE Rock
REM DATE 1999
REM DISCID 6C0EC908
REM COMMENT "ExactAudioCopy v1.0b1"
PERFORMER "Richard Clapton"
TITLE "The Definitive Anthology"
FILE "01 - Blue Bay Blues.wav" WAVE
  TRACK 01 AUDIO
    TITLE "Blue Bay Blues"
    PERFORMER "Richard Clapton"
    INDEX 01 00:00:00
  TRACK 02 AUDIO
    TITLE "The Universal"
    PERFORMER "Richard Clapton"
    INDEX 00 04:48:15
FILE "02 - The Universal.wav" WAVE
    INDEX 01 00:00:00
  TRACK 03 AUDIO
    TITLE "Walk On Water"
    PERFORMER "Richard Clapton"
    INDEX 00 04:31:60
FILE "03 - Walk On Water.wav" WAVE
    INDEX 01 00:00:00
  TRACK 04 AUDIO
    TITLE "Angelou"
    PERFORMER "Richard Clapton"
    INDEX 00 04:30:30
FILE "04 - Angelou.wav" WAVE
    INDEX 01 00:00:00
  TRACK 05 AUDIO
    TITLE "Real Love"
    PERFORMER "Richard Clapton"
    INDEX 00 04:04:04
FILE "05 - Real Love.wav" WAVE
    INDEX 01 00:00:00
  TRACK 06 AUDIO
    TITLE "Love Is Strong"
    PERFORMER "Richard Clapton"
    INDEX 00 05:32:15
FILE "06 - Love Is Strong.wav" WAVE
    INDEX 01 00:00:00
  TRACK 07 AUDIO
    TITLE "Everybody's Making Money (except me)"
    PERFORMER "Richard Clapton"
    INDEX 00 04:10:62
FILE "07 - Everybody's Making Money (except me).wav" WAVE
    INDEX 01 00:00:00
Код:
AUDIOCHECKER v2.0 beta (build 457) - by Dester - opdester@freemail.hu
~~~~~~~~~~~~~~~~~~~~~~~~~~~~~~~~~~
-=== DO NOT EDIT THIS FILE! ===-
Path: ...\CD2
01 -=- 01 - Blue Bay Blues.flac -=- CDDA (100%)
02 -=- 02 - The Universal.flac -=- CDDA (100%)
03 -=- 03 - Walk On Water.flac -=- CDDA (100%)
04 -=- 04 - Angelou.flac -=- CDDA (100%)
05 -=- 05 - Real Love.flac -=- CDDA (100%)
06 -=- 06 - Love Is Strong.flac -=- CDDA (100%)
07 -=- 07 - Everybody's Making Money (except me).flac -=- CDDA (100%)
Summary 100,00% CDDA
Доп. информация: Достаточно известный в Австралии рок-певец.

Studio albums
1973 Prussian Blue
1975 Girls on the Avenue
1976 Main Street Jive
1977 Goodbye Tiger
1979 Hearts on the Nightline
1980 Dark Spaces
1982 The Great Escape
1984 Solidarity
1987 Glory Road
1993 Distant Thunder
1996 Angeltown
2004 Diamond Mine
2012 Harlequin Nights
Compilation albums
1978 Past Hits and Previews
1982 The Very Best of Richard Clapton
1999 The Definitive Anthology
2004 The Definitive Collection
2006 Rewired
2010 The Essential Hits
2014 Best Years 1974–2014: The 40th Anniversary Collection
Live albums
1989 The Best Years of Our Lives
2001 Up and Down the Glory Road
2008 Live at the State Theatre
Soundtrack
1976 Highway One
С удовольствием отдам эту или любую другую свою раздачу для коллекции или дискографии.
Правила, инструкции, FAQ!!!
Торрент  Добавлен [26 мар 2019, 21:09] Скачать торрент Магнет ссылка
Скачать торрент
[ Размер 24.15 КБ / Просмотров 8 ]

Статус
Проверен 
 
Размер  1.38 ГБ
Приватный: Нет (DHT включён)
.torrent скачан  0
 


     Отправить личное сообщение
   
Страница 1 из 1
Показать сообщения за:  Поле сортировки  
Начать новую тему Ответить на тему


Сейчас этот форум просматривают: нет зарегистрированных пользователей и гости: 0


Вы не можете начинать темы
Вы не можете отвечать на сообщения
Вы не можете редактировать свои сообщения
Вы не можете удалять свои сообщения
Вы не можете добавлять вложения

Перейти:  
cron