Начать новую тему Ответить на тему
Статистика раздачи
Размер: 467.44 МБ | Добавлен: 26 мар 2019, 18:37 | Скачали: 1
Сидеров: 6  [0 байт/сек]    Личеров: 3  [0 байт/сек]
Пред. тема | След. тема 

Автор
Сообщение

СообщениеДобавлено: 26 мар 2019, 18:37 

Ответить с цитатой 

Eric Carmen - Eric Carmen the Definitive Collection
Жанр: Classic rock, pop-rock
Год выпуска диска: 1997
Производитель диска: USA, Arista
Аудио кодек: FLAC
Тип рипа: tracks+.cue
Битрейт аудио: lossless
Продолжительность: 1:13:13
Трэклист:
01. Go All The Way 03:20
02. I Wanna Be With You 03:03
03. Let's Pretend 03:39
04. Tonight 03:41
05. Overnight Sensation 05:22
06. All By Myself 04:32
07. Sunrise 05:23
08. That's Rock N' Roll 03:10
09. Never Gonna Fall In Love Again (2) 03:45
10. No Hard Feelings 05:38
11. Boats Against The Current 04:22
12. She Did It 03:47
13. Change Of Heart 03:41
14. Hey Deanie 04:29
15. Desperate Fools 03:09
16. The Way We Used To Be 03:16
17. Hungry Eyes 04:02
18. Make Me Lose Control 04:44
Доп. информация:
Exact Audio Copy V0.99 prebeta 5 from 4. May 2009
Отчёт EAC об извлечении, выполненном 6. января 2010, 12:42
Eric Carmen / Eric Carmen the Definitive Collection
Дисковод: Optiarc DVD RW AD-7243S Adapter: 2 ID: 1
Режим чтения : Достоверность
Использование точного потока : Да
Отключение кэша аудио : Да
Использование указателей C2 : Нет
Коррекция смещения при чтении : 48
Способность читать области Lead-in и Lead-out : Нет
Заполнение пропущенных сэмплов тишиной : Да
Удаление блоков с тишиной в начале и конце : Нет
При вычислениях CRC использовались нулевые сэмплы : Да
Интерфейс : Встроенный Win32-интерфейс для Win NT/2000
Обработка зазоров : Добавлено к предыдущему треку
Выходной формат : Пользовательский кодировщик
Выбранный битрейт : 1024 kBit/s
Качество : Высокий
Добавление ID3-тэга : Нет
Утилита сжатия : C:\Program Files\Exact Audio Copy\FLAC\FLAC.EXE
Дополнительные параметры : -6 -V -T "ARTIST=%a" -T "TITLE=%t" -T "ALBUM=%g" -T "DATE=%y" -T "TRACKNUMBER=%n" -T "GENRE=%m" -T "COMMENT=%e" %s -o %d
TOC извлечённого CD
Трек | Старт | Длительность | Начальный сектор | Конечный сектор
---------------------------------------------------------------------
1 | 0:00.00 | 3:20.48 | 0 | 15047
2 | 3:20.48 | 3:03.17 | 15048 | 28789
3 | 6:23.65 | 3:39.02 | 28790 | 45216
4 | 10:02.67 | 3:41.20 | 45217 | 61811
5 | 13:44.12 | 5:22.62 | 61812 | 86023
6 | 19:06.74 | 4:32.69 | 86024 | 106492
7 | 23:39.68 | 5:23.10 | 106493 | 130727
8 | 29:03.03 | 3:10.40 | 130728 | 145017
9 | 32:13.43 | 3:45.33 | 145018 | 161925
10 | 35:59.01 | 5:38.53 | 161926 | 187328
11 | 41:37.54 | 4:22.67 | 187329 | 207045
12 | 46:00.46 | 3:47.58 | 207046 | 224128
13 | 49:48.29 | 3:41.23 | 224129 | 240726
14 | 53:29.52 | 4:29.45 | 240727 | 260946
15 | 57:59.22 | 3:09.42 | 260947 | 275163
16 | 61:08.64 | 3:16.66 | 275164 | 289929
17 | 64:25.55 | 4:02.33 | 289930 | 308112
18 | 68:28.13 | 4:44.74 | 308113 | 329486
Трек 1
Имя файла C:\Documents and Settings\Krasnov\Мои документы\Downloads\01 - Go All The Way.wav
Длина предзазора 0:00:02.00
Пиковый уровень 98.8 %
Качество трека 100.0 %
CRC теста 4314CBE9
CRC копии 4314CBE9
Трек не обнаружен в базе AccurateRip
Копирование... OK
Трек 2
Имя файла C:\Documents and Settings\Krasnov\Мои документы\Downloads\02 - I Wanna Be With You.wav
Длина предзазора 0:00:01.74
Пиковый уровень 83.7 %
Качество трека 100.0 %
CRC теста 0F8F4ECE
CRC копии 0F8F4ECE
Трек не обнаружен в базе AccurateRip
Копирование... OK
Трек 3
Имя файла C:\Documents and Settings\Krasnov\Мои документы\Downloads\03 - Let's Pretend.wav
Длина предзазора 0:00:01.74
Пиковый уровень 97.8 %
Качество трека 100.0 %
CRC теста 1A364EB4
CRC копии 1A364EB4
Трек не обнаружен в базе AccurateRip
Копирование... OK
Трек 4
Имя файла C:\Documents and Settings\Krasnov\Мои документы\Downloads\04 - Tonight.wav
Длина предзазора 0:00:01.74
Пиковый уровень 91.5 %
Качество трека 100.0 %
CRC теста 5D97F08D
CRC копии 5D97F08D
Трек не обнаружен в базе AccurateRip
Копирование... OK
Трек 5
Имя файла C:\Documents and Settings\Krasnov\Мои документы\Downloads\05 - Overnight Sensation.wav
Длина предзазора 0:00:01.74
Пиковый уровень 92.4 %
Качество трека 100.0 %
CRC теста 6C419049
CRC копии 6C419049
Трек не обнаружен в базе AccurateRip
Копирование... OK
Трек 6
Имя файла C:\Documents and Settings\Krasnov\Мои документы\Downloads\06 - All By Myself.wav
Длина предзазора 0:00:01.74
Пиковый уровень 98.8 %
Качество трека 99.9 %
CRC теста 40659067
CRC копии 40659067
Трек не обнаружен в базе AccurateRip
Копирование... OK
Трек 7
Имя файла C:\Documents and Settings\Krasnov\Мои документы\Downloads\07 - Sunrise.wav
Длина предзазора 0:00:01.74
Пиковый уровень 97.0 %
Качество трека 100.0 %
CRC теста 342E8649
CRC копии 342E8649
Трек не обнаружен в базе AccurateRip
Копирование... OK
Трек 8
Имя файла C:\Documents and Settings\Krasnov\Мои документы\Downloads\08 - That's Rock N' Roll.wav
Длина предзазора 0:00:01.74
Пиковый уровень 98.8 %
Качество трека 100.0 %
CRC теста DCDEE4EC
CRC копии DCDEE4EC
Трек не обнаружен в базе AccurateRip
Копирование... OK
Трек 9
Имя файла C:\Documents and Settings\Krasnov\Мои документы\Downloads\09 - Never Gonna Fall In Love Again (2).wav
Длина предзазора 0:00:01.74
Пиковый уровень 95.2 %
Качество трека 99.9 %
CRC теста CE2AA48A
CRC копии CE2AA48A
Трек не обнаружен в базе AccurateRip
Копирование... OK
Трек 10
Имя файла C:\Documents and Settings\Krasnov\Мои документы\Downloads\10 - No Hard Feelings.wav
Длина предзазора 0:00:01.74
Пиковый уровень 98.8 %
Качество трека 99.9 %
CRC теста 781935EB
CRC копии 781935EB
Трек не обнаружен в базе AccurateRip
Копирование... OK
Трек 11
Имя файла C:\Documents and Settings\Krasnov\Мои документы\Downloads\11 - Boats Against The Current.wav
Длина предзазора 0:00:01.74
Пиковый уровень 95.1 %
Качество трека 100.0 %
CRC теста EE13C6CD
CRC копии EE13C6CD
Трек не обнаружен в базе AccurateRip
Копирование... OK
Трек 12
Имя файла C:\Documents and Settings\Krasnov\Мои документы\Downloads\12 - She Did It.wav
Длина предзазора 0:00:01.74
Пиковый уровень 98.8 %
Качество трека 99.9 %
CRC теста 45412DDF
CRC копии 45412DDF
Трек не обнаружен в базе AccurateRip
Копирование... OK
Трек 13
Имя файла C:\Documents and Settings\Krasnov\Мои документы\Downloads\13 - Change Of Heart.wav
Длина предзазора 0:00:01.74
Пиковый уровень 89.1 %
Качество трека 100.0 %
CRC теста 7C2D4DD9
CRC копии 7C2D4DD9
Трек не обнаружен в базе AccurateRip
Копирование... OK
Трек 14
Имя файла C:\Documents and Settings\Krasnov\Мои документы\Downloads\14 - Hey Deanie.wav
Длина предзазора 0:00:01.74
Пиковый уровень 98.6 %
Качество трека 100.0 %
CRC теста 2D9AFFB7
CRC копии 2D9AFFB7
Трек не обнаружен в базе AccurateRip
Копирование... OK
Трек 15
Имя файла C:\Documents and Settings\Krasnov\Мои документы\Downloads\15 - Desperate Fools.wav
Длина предзазора 0:00:01.74
Пиковый уровень 96.6 %
Качество трека 100.0 %
CRC теста 915CCDD8
CRC копии 915CCDD8
Трек не обнаружен в базе AccurateRip
Копирование... OK
Трек 16
Имя файла C:\Documents and Settings\Krasnov\Мои документы\Downloads\16 - The Way We Used To Be.wav
Длина предзазора 0:00:01.74
Пиковый уровень 87.7 %
Качество трека 99.9 %
CRC теста 7377BEB7
CRC копии 7377BEB7
Трек не обнаружен в базе AccurateRip
Копирование... OK
Трек 17
Имя файла C:\Documents and Settings\Krasnov\Мои документы\Downloads\17 - Hungry Eyes.wav
Длина предзазора 0:00:01.74
Пиковый уровень 96.5 %
Качество трека 100.0 %
CRC теста 411B0FA6
CRC копии 411B0FA6
Трек не обнаружен в базе AccurateRip
Копирование... OK
Трек 18
Имя файла C:\Documents and Settings\Krasnov\Мои документы\Downloads\18 - Make Me Lose Control.wav
Длина предзазора 0:00:01.74
Пиковый уровень 98.8 %
Качество трека 100.0 %
CRC теста 0D0A8010
CRC копии 0D0A8010
Трек не обнаружен в базе AccurateRip
Копирование... OK
Ни одного трека нет в базе AccurateRip
Ошибок не произошло
Конец отчёта
Правила, инструкции, FAQ!!!
Торрент  Добавлен [26 мар 2019, 18:37] Скачать торрент Магнет ссылка
Скачать торрент
[ Размер 20.19 КБ / Просмотров 16 ]

Статус
Проверен 
 
Размер  467.44 МБ
Приватный: Нет (DHT включён)
.torrent скачан  1
 


     Отправить личное сообщение
   
Страница 1 из 1
Показать сообщения за:  Поле сортировки  
Начать новую тему Ответить на тему


Сейчас этот форум просматривают: нет зарегистрированных пользователей и гости: 0


Вы не можете начинать темы
Вы не можете отвечать на сообщения
Вы не можете редактировать свои сообщения
Вы не можете удалять свои сообщения
Вы не можете добавлять вложения

Перейти:  
cron