Начать новую тему Ответить на тему
Статистика раздачи
Размер: 777.93 МБ | Добавлен: 26 мар 2019, 20:24 | Скачали: 1
Сидеров: 25  [0 байт/сек]    Личеров: 36  [0 байт/сек]
Пред. тема | След. тема 

Автор
Сообщение

СообщениеДобавлено: 26 мар 2019, 20:24 

Ответить с цитатой 

Little River Band-Streams Of Success
Жанр: Classic Rock
Год выпуска диска: 2003
Производитель диска: UK,Snapper music
Аудио кодек: FLAC
Тип рипа: image+.cue
Битрейт аудио: lossless
Продолжительность: 47:58 ;66:29
Трэклист
Studio Album:
1 Where We Started From 3:54
2 This Place Hind 4:30
3 Magazine Girl Gildea 3:26
4 Just You and I 3:50
5 Night Owls 6:15
6 I Think I Left My Heart With You 3:24
7 Who Made the Moon 4:52
8 Look in Your Eyes 4:15
9 American Way 4:36
10 Lead Me to the Water 3:18
11 Cool Change 5:32
Live Album:
1 Man on Your Mind 5:59
2 This Place 4:51
3 Take It Easy on Me 3:50
4 Lonesome Loser 4:20
5 Where We Started From 3:47
6 Reminiscing 3:38
7 Happy Anniversary 4:12
8 Who Made the Moon 5:00
9 The Night Owls 6:15
10 Help Is on Its Way 4:09
11 It's Not a Wonder 4:38
12 I Think I Left My Heart With You 12:44
13 Cool Change 13:44
14 Lady 14:44
Exact Audio Copy V0.99 prebeta 4 from 23. January 2008
EAC extraction logfile from 5. April 2010, 15:20
Litle River Band / Streams of Succes
Used drive : ASUS DRW-1814BL Adapter: 0 ID: 0
Read mode : Secure
Utilize accurate stream : Yes
Defeat audio cache : Yes
Make use of C2 pointers : No
Read offset correction : 6
Overread into Lead-In and Lead-Out : No
Fill up missing offset samples with silence : Yes
Delete leading and trailing silent blocks : No
Null samples used in CRC calculations : No
Used interface : Installed external ASPI interface
Used output format : User Defined Encoder
Selected bitrate : 768 kBit/s
Quality : High
Add ID3 tag : No
Command line compressor : C:\Program Files\Exact Audio Copy\Flac\flac.exe
Additional command line options : -8 -V -T "ARTIST=%a" -T "TITLE=%t" -T "ALBUM=%g" -T "DATE=%y" -T "TRACKNUMBER=%n" -T "GENRE=%m" -T "COMMENT=EAC FLAC -8" %s
TOC of the extracted CD
Track | Start | Length | Start sector | End sector
---------------------------------------------------------
1 | 0:00.00 | 3:54.45 | 0 | 17594
2 | 3:54.45 | 4:30.53 | 17595 | 37897
3 | 8:25.23 | 3:26.60 | 37898 | 53407
4 | 11:52.08 | 3:50.31 | 53408 | 70688
5 | 15:42.39 | 6:15.23 | 70689 | 98836
6 | 21:57.62 | 3:24.38 | 98837 | 114174
7 | 25:22.25 | 4:52.66 | 114175 | 136140
8 | 30:15.16 | 4:15.67 | 136141 | 155332
9 | 34:31.08 | 4:36.01 | 155333 | 176033
10 | 39:07.09 | 3:18.67 | 176034 | 190950
11 | 42:26.01 | 5:32.24 | 190951 | 215874
Range status and errors
Selected range
Filename D:\LRB S of S\Litle River Band - Streams of Succ.wav
Peak level 100.0 %
Range quality 99.9 %
Test CRC 53F941F8
Copy CRC 53F941F8
Copy OK
No errors occurred
AccurateRip summary
Track 1 not present in database
Track 2 not present in database
Track 3 not present in database
Track 4 not present in database
Track 5 not present in database
Track 6 not present in database
Track 7 not present in database
Track 8 not present in database
Track 9 not present in database
Track 10 not present in database
Track 11 not present in database
None of the tracks are present in the AccurateRip database
End of status report
Exact Audio Copy V0.99 prebeta 4 from 23. January 2008
EAC extraction logfile from 5. April 2010, 15:43
Little River Band / Streams Of Success Live Album
Used drive : ASUS DRW-1814BL Adapter: 0 ID: 0
Read mode : Secure
Utilize accurate stream : Yes
Defeat audio cache : Yes
Make use of C2 pointers : No
Read offset correction : 6
Overread into Lead-In and Lead-Out : No
Fill up missing offset samples with silence : Yes
Delete leading and trailing silent blocks : No
Null samples used in CRC calculations : No
Used interface : Installed external ASPI interface
Used output format : User Defined Encoder
Selected bitrate : 768 kBit/s
Quality : High
Add ID3 tag : No
Command line compressor : C:\Program Files\Exact Audio Copy\Flac\flac.exe
Additional command line options : -8 -V -T "ARTIST=%a" -T "TITLE=%t" -T "ALBUM=%g" -T "DATE=%y" -T "TRACKNUMBER=%n" -T "GENRE=%m" -T "COMMENT=EAC FLAC -8" %s
TOC of the extracted CD
Track | Start | Length | Start sector | End sector
---------------------------------------------------------
1 | 0:00.00 | 5:59.09 | 0 | 26933
2 | 5:59.09 | 4:51.15 | 26934 | 48773
3 | 10:50.24 | 3:50.12 | 48774 | 66035
4 | 14:40.36 | 4:20.38 | 66036 | 85573
5 | 19:00.74 | 3:47.64 | 85574 | 102662
6 | 22:48.63 | 3:38.49 | 102663 | 119061
7 | 26:27.37 | 4:12.36 | 119062 | 137997
8 | 30:39.73 | 5:00.46 | 137998 | 160543
9 | 35:40.44 | 6:15.64 | 160544 | 188732
10 | 41:56.33 | 4:09.58 | 188733 | 207465
11 | 46:06.16 | 4:38.44 | 207466 | 228359
12 | 50:44.60 | 3:54.26 | 228360 | 245935
13 | 54:39.11 | 5:57.06 | 245936 | 272716
14 | 60:36.17 | 5:52.49 | 272717 | 299165
Range status and errors
Selected range
Filename D:\LRB S of S\Little River Band - Streams Of Success Live Album.wav
Peak level 95.8 %
Range quality 100.0 %
Test CRC 48741861
Copy CRC 48741861
Copy OK
No errors occurred
AccurateRip summary
Track 1 not present in database
Track 2 not present in database
Track 3 not present in database
Track 4 not present in database
Track 5 not present in database
Track 6 not present in database
Track 7 not present in database
Track 8 not present in database
Track 9 not present in database
Track 10 not present in database
Track 11 not present in database
Track 12 not present in database
Track 13 not present in database
Track 14 not present in database
None of the tracks are present in the AccurateRip database
End of status report
Правила, инструкции, FAQ!!!
Торрент  Добавлен [26 мар 2019, 20:24] Скачать торрент Магнет ссылка
Скачать торрент
[ Размер 16.46 КБ / Просмотров 8 ]

Статус
Проверен 
 
Размер  777.93 МБ
Приватный: Нет (DHT включён)
.torrent скачан  1
 


     Отправить личное сообщение
   
Страница 1 из 1
Показать сообщения за:  Поле сортировки  
Начать новую тему Ответить на тему


Сейчас этот форум просматривают: нет зарегистрированных пользователей и гости: 0


Вы не можете начинать темы
Вы не можете отвечать на сообщения
Вы не можете редактировать свои сообщения
Вы не можете удалять свои сообщения
Вы не можете добавлять вложения

Перейти:  
cron