Начать новую тему Ответить на тему
Статистика раздачи
Размер: 456.78 МБ | Добавлен: 26 мар 2019, 20:24 | Скачали: 0
Сидеров: 0  [0 байт/сек]    Личеров: 0  [0 байт/сек]
Пред. тема | След. тема 

Автор
Сообщение

СообщениеДобавлено: 26 мар 2019, 20:24 

Ответить с цитатой 

Elvis Costello / Extreme Honey
Жанр: Classic Rock
Страна-производитель диска: Germany
Год издания: 1997
Издатель (лейбл): Warner Bros. Rec.
Номер по каталогу: 9382-46801-2
Страна: Uk
Аудиокодек: WavPack (*.wv)
Тип рипа: image+.cue
Битрейт аудио: lossless
Продолжительность: 01:17:25
Источник (релизер): Hand made
Наличие сканов в содержимом раздачи: да
Треклист:
1. The Bridge I Burned
2. Veronica
3. Sulky Girl
4. So Like Candy
5. 13 Steps Lead Down
6. All This Useless Beauty
7. My Dark life
8. The Other Side Of Summer
9. Kinder Murder
10. Deep Dark Truthful Mirror
11. Hurry Down Doomsday
12. Poor Fractured Atlas
13. The Birds Will Still Be Singing
14. London's Brilliant Parade
15. Tramp The Dirt Down
16. Couldn't Call It Unexpected No. 4
17. I Want To Vanish
18. All The Rage
Код:
Exact Audio Copy V0.99 prebeta 5 from 4. May 2009
EAC extraction logfile from 9. March 2013, 15:07
Elvis Costello / Extreme Honey.(Warner Bros.Germany)
Used drive  : Optiarc DVD RW AD-5280S   Adapter: 2  ID: 0
Read mode               : Secure
Utilize accurate stream : Yes
Defeat audio cache      : Yes
Make use of C2 pointers : No
Read offset correction                      : 48
Overread into Lead-In and Lead-Out          : No
Fill up missing offset samples with silence : Yes
Delete leading and trailing silent blocks   : No
Null samples used in CRC calculations       : Yes
Used interface                              : Native Win32 interface for Win NT & 2000
Used output format              : User Defined Encoder
Selected bitrate                : 896 kBit/s
Quality                         : High
Add ID3 tag                     : No
Command line compressor         : C:\Program Files (x86)\Exact Audio Copy\wavpack.exe
Additional command line options : -hlm %s
TOC of the extracted CD
     Track |   Start  |  Length  | Start sector | End sector
    ---------------------------------------------------------
        1  |  0:00.00 |  5:20.60 |         0    |    24059
        2  |  5:20.60 |  3:09.20 |     24060    |    38254
        3  |  8:30.05 |  5:07.22 |     38255    |    61301
        4  | 13:37.27 |  4:36.18 |     61302    |    82019
        5  | 18:13.45 |  3:18.42 |     82020    |    96911
        6  | 21:32.12 |  4:37.50 |     96912    |   117736
        7  | 26:09.62 |  6:19.60 |    117737    |   146221
        8  | 32:29.47 |  3:55.65 |    146222    |   163911
        9  | 36:25.37 |  3:26.08 |    163912    |   179369
       10  | 39:51.45 |  4:06.22 |    179370    |   197841
       11  | 43:57.67 |  4:04.25 |    197842    |   216166
       12  | 48:02.17 |  4:01.18 |    216167    |   234259
       13  | 52:03.35 |  4:22.70 |    234260    |   253979
       14  | 56:26.30 |  4:22.57 |    253980    |   273686
       15  | 60:49.12 |  5:40.63 |    273687    |   299249
       16  | 66:30.00 |  3:50.27 |    299250    |   316526
       17  | 70:20.27 |  3:15.15 |    316527    |   331166
       18  | 73:35.42 |  3:53.08 |    331167    |   348649
Range status and errors
Selected range
     Filename C:\Users\Bishop\Desktop\Elvis Costello - Extreme Honey.(1997.Warner Bros.Germany).wv\Elvis Costello - Extreme Honey.(Warner Bros.Germany).wav
     Peak level 100.0 %
     Range quality 100.0 %
     Test CRC C259C4D7
     Copy CRC C259C4D7
     Copy OK
No errors occurred
AccurateRip summary
Track  1  accurately ripped (confidence 31)  [52662582]
Track  2  accurately ripped (confidence 31)  [94952F75]
Track  3  accurately ripped (confidence 31)  [CBB23268]
Track  4  accurately ripped (confidence 30)  [01B83A55]
Track  5  accurately ripped (confidence 31)  [DE4B6A6F]
Track  6  accurately ripped (confidence 31)  [756C8380]
Track  7  accurately ripped (confidence 31)  [C5ADEDCC]
Track  8  accurately ripped (confidence 31)  [29BA56F0]
Track  9  accurately ripped (confidence 31)  [D3672143]
Track 10  accurately ripped (confidence 32)  [98F319F6]
Track 11  accurately ripped (confidence 31)  [F5902095]
Track 12  accurately ripped (confidence 32)  [8A565719]
Track 13  accurately ripped (confidence 29)  [373F7591]
Track 14  accurately ripped (confidence 30)  [0E44984A]
Track 15  accurately ripped (confidence 29)  [E5D5F424]
Track 16  accurately ripped (confidence 26)  [3401EB72]
Track 17  accurately ripped (confidence 29)  [E062436E]
Track 18  accurately ripped (confidence 29)  [81F49234]
All tracks accurately ripped
End of status report
Код:
REM GENRE Rock
REM DATE 1997
REM DISCID 0F122812
REM COMMENT ExactAudioCopy v0.99pb5
CATALOG 9362468010207
PERFORMER "Elvis Costello"
TITLE "Extreme Honey.(Warner Bros.Germany)"
FILE "Elvis Costello - Extreme Honey.(Warner Bros.Germany).wv" WAVE
  TRACK 01 AUDIO
    TITLE "The Bridge I Burned"
    ISRC USWB19701138
    INDEX 01 00:00:00
  TRACK 02 AUDIO
    TITLE "Veronica"
    ISRC USWB19701139
    INDEX 01 05:20:60
  TRACK 03 AUDIO
    TITLE "Sulky Girl"
    ISRC USWB19701140
    INDEX 00 08:29:22
    INDEX 01 08:30:05
  TRACK 04 AUDIO
    TITLE "So Like Candy"
    ISRC USWB19701141
    INDEX 00 13:36:27
    INDEX 01 13:37:27
  TRACK 05 AUDIO
    TITLE "13 Steps Lead Down"
    ISRC USWB19701142
    INDEX 01 18:13:45
  TRACK 06 AUDIO
    TITLE "All This Useless Beauty"
    ISRC USWB19701143
    INDEX 00 21:31:55
    INDEX 01 21:32:12
  TRACK 07 AUDIO
    TITLE "My Dark Life"
    ISRC USWB19701144
    INDEX 01 26:09:62
  TRACK 08 AUDIO
    TITLE "The Other Side Of Summer"
    ISRC USWB19701145
    INDEX 00 32:29:35
    INDEX 01 32:29:47
  TRACK 09 AUDIO
    TITLE "Kinder Murder"
    ISRC USWB19701146
    INDEX 01 36:25:37
  TRACK 10 AUDIO
    TITLE "Deep Dark Truthful Mirror"
    ISRC USWB19701147
    INDEX 00 39:50:30
    INDEX 01 39:51:45
  TRACK 11 AUDIO
    TITLE "Hurry Down Doomsday"
    ISRC USWB19701148
    INDEX 00 43:54:65
    INDEX 01 43:57:67
  TRACK 12 AUDIO
    TITLE "Poor Fractured Atlas"
    ISRC USWB19701149
    INDEX 00 48:01:45
    INDEX 01 48:02:17
  TRACK 13 AUDIO
    TITLE "The Birds Will Still Be Singing"
    ISRC USWB19701150
    INDEX 00 52:00:70
    INDEX 01 52:03:35
  TRACK 14 AUDIO
    TITLE "London's Brilliant Parade"
    ISRC USWB19701151
    INDEX 01 56:26:30
  TRACK 15 AUDIO
    TITLE "Tramp The Dirt Down"
    ISRC USWB19701152
    INDEX 01 60:49:12
  TRACK 16 AUDIO
    TITLE "Couldn't Call It Unexpected No.4"
    ISRC USWB19701153
    INDEX 01 66:30:00
  TRACK 17 AUDIO
    TITLE "I Want To Vanish"
    ISRC USWB19701154
    INDEX 00 70:17:37
    INDEX 01 70:20:27
  TRACK 18 AUDIO
    TITLE "All The Rage"
    ISRC USWB19701155
    INDEX 00 73:34:15
    INDEX 01 73:35:42
Правила, инструкции, FAQ!!!
Торрент  Добавлен [26 мар 2019, 20:24] Скачать торрент Магнет ссылка
Скачать торрент
[ Размер 18.57 КБ / Просмотров 2 ]

Статус
Проверен 
 
Размер  456.78 МБ
Приватный: Нет (DHT включён)
.torrent скачан  0
 


     Отправить личное сообщение
   
Страница 1 из 1
Показать сообщения за:  Поле сортировки  
Начать новую тему Ответить на тему


Сейчас этот форум просматривают: нет зарегистрированных пользователей и гости: 0


Вы не можете начинать темы
Вы не можете отвечать на сообщения
Вы не можете редактировать свои сообщения
Вы не можете удалять свои сообщения
Вы не можете добавлять вложения

Перейти:  
cron