Начать новую тему Ответить на тему
Статистика раздачи
Размер: 281.04 МБ | Добавлен: 26 мар 2019, 19:54 | Скачали: 0
Сидеров: 0  [0 байт/сек]    Личеров: 0  [0 байт/сек]
Пред. тема | След. тема 

Автор
Сообщение

СообщениеДобавлено: 26 мар 2019, 19:54 

Ответить с цитатой 

America / America (1971)
Жанр: Classic Pop Rock,Folk-Rock
Год издания: 2006
Аудиокодек: FLAC (*.flac)
Тип рипа: image+.cue
Битрейт аудио: lossless
Продолжительность: 46:45
Источник (релизер): my disc
Наличие сканов в содержимом раздачи: да
Треклист:
01. Riverside [0:03:05.48]
02. Sandman [0:05:08.35]
03. Three Roses [0:03:56.45]
04. Children [0:03:08.07]
05. A Horse With No Name [0:04:17.45]
06. Here [0:05:34.68]
07. I Need You [0:03:08.10]
08. Rainy Day [0:02:55.32]
09. Never Found The Time [0:03:50.60]
10. Clarice [0:04:01.18]
11. Donkey Jaw [0:05:19.47]
12. Pigeon Song [0:02:18.15]
Код:
Exact Audio Copy V0.99 prebeta 4 from 23. January 2008
Отчёт EAC об извлечении, выполненном 28. апреля 2012, 20:25
America / America'71
Дисковод: ASUS    DRW-1814BL   Adapter: 1  ID: 0
Режим чтения                 : Достоверность
Использование точного потока : Да
Отключение кэша аудио        : Да
Использование указателей C2  : Нет
Коррекция смещения при чтении                     : 6
Способность читать области Lead-in и Lead-out     : Нет
Заполнение пропущенных сэмплов тишиной            : Да
Удаление блоков с тишиной в начале и конце        : Нет
При вычислениях CRC использовались нулевые сэмплы : Да
Интерфейс                                         : Установленный внешний ASPI-интерфейс
Выходной формат          : Пользовательский кодировщик
Выбранный битрейт        : 1024 kBit/s
Качество                 : Высокий
Добавление ID3-тэга      : Нет
Утилита сжатия           : C:\Program Files\Exact Audio Copy\FLAC\FLAC.EXE
Дополнительные параметры : -6 -V -T "ARTIST=%a" -T "TITLE=%t" -T "ALBUM=%g" -T "DATE=%y" -T "TRACKNUMBER=%n" -T "GENRE=%m" -T "COMMENT=%e" %s -o %d
TOC извлечённого CD
     Трек |   Старт  | Длительность | Начальный сектор | Конечный сектор
    ---------------------------------------------------------------------
       1  |  0:00.00 |    3:05.48   |           0      |      13922
       2  |  3:05.48 |    5:08.35   |       13923      |      37057
       3  |  8:14.08 |    3:56.45   |       37058      |      54802
       4  | 12:10.53 |    3:08.07   |       54803      |      68909
       5  | 15:18.60 |    4:17.45   |       68910      |      88229
       6  | 19:36.30 |    5:34.68   |       88230      |     113347
       7  | 25:11.23 |    3:08.10   |      113348      |     127457
       8  | 28:19.33 |    2:55.32   |      127458      |     140614
       9  | 31:14.65 |    3:50.60   |      140615      |     157924
      10  | 35:05.50 |    4:01.18   |      157925      |     176017
      11  | 39:06.68 |    5:19.47   |      176018      |     199989
      12  | 44:26.40 |    2:18.15   |      199990      |     210354
Характеристики диапазона извлечения и сообщения об ошибках
Выбранный диапазон
     Имя файла D:\loSSleSS\america'71\America - America'71.wav
     Пиковый уровень 100.0 %
     Качество диапазона 100.0 %
     CRC теста 0E0371C7
     CRC копии 0E0371C7
     Копирование... OK
Ошибок не произошло
Конец отчёта
"America" – фолк-роковая команда, в начале 70-х несколько раз побывавшая в горячей десятке с вещами типа "A Horse With No Name" и "Sister Golden Hair". Ученики высшей школы Дьюи Баннелл, Дэн Пик и Джерри Бекли познакомились в конце 60-х годов. Все трое были сыновьями офицеров воздушных сил США, служивших в Англии. В 1970-м они замутили свой первый фолк-роковый проект, "Daze", куда входил еще один человек, имя которого история не сохранила. Вскоре квартет сократился до трио, а вывеску поменяли на "America". Новоиспеченная команда заключила контракт с промоутером Джеффом Декстером. Этот тип пристроил коллектив разогревать известных артистов, а потом подписал его к "Warner Bros. Records". К концу 1970 года парни засели в одной из лондонских студий для записи дебютного альбома, продюсированием которого занимались Декстер и Ян Сэмвелл.Осенью 1971-го на свет появился сингл "A Horse With No Name" с песней, очень напоминавшей акустические номера Нила Янга. В январе следующего года эта композиция взлетела на третью строчку в британских чартах. Следом был выпущен дебютный альбом, сделанный примерно в том же ключе и также занявший неплохую позицию (14-е место).После успеха в Англии группа отправилась покорять Северную Америку, начав с тура в поддержку "Everly Brothers". Весной в Штатах был переиздан "A Horse With No Name", вскоре обосновавшийся на вершине тамошних чартов и скинувший оттуда "Heart of Gold" Нила Янга. Забив еще один сингл ("I Need You") в горячую десятку, "America" засела за создание второго лонгплея. Пока пластинка готовилась, миньон "Ventura Highway" также оказался в Топ 10. По итогам 1972 года группа получила "Грэмми" в номинации "Best New Artist". "Homecoming", увидевший свет в январе 1973-го, в Англии занял всего лишь 21-е место, зато в Америке он снова был в лучшей десятке. Саунд команды практически не изменился, правда, стал немного более отполированным. Начиная с этого момента количество хитов поубавилось, и композиции "America" теперь присутствовали лишь в Топ 40.Альбом "Hat Trick", вышедший в конце 1973-го, еле вырулил на 28-ю строчку американских хит-парадов. Группа в поисках утерянного успеха решила сменить продюсера, и это дало ощутимый результат. Записанный с Джорджем Мартином "Holiday" вернул группу на вершину чартов. Последовал ряд хитовых синглов, а компиляция "History: America's Greatest Hits" была распродана тиражом свыше четырех миллионов экземпляров.Хотя пластинка 1976 года, "Hideaway" (11 место), и получила "золото", команда постепенно стала терять свою аудиторию. После выхода "Harbor" группу покинул Дэн Пик, решивший заняться христианской музыкой. Оставшийся дуэт записал свой последний альбом с Мартином, "Silent Letter", но этот релиз особого успеха не имел. Лишь в 1982-м положение было несколько поправлено при помощи вливания в фолк-рок синтезаторов, благодаря чему композиция "You Can Do Magic" побывала в горячей десятке. На следующий год "американцы" в последний раз поприсутствовали в Топ 40 – их песня "The Border" заняла 33-е место. Конец 80-х и начало 90-х "America" провела в основном на гастролях. Кроме того, в 1995-м Бекли параллельно занялся выпуском сольных дисков.Студийные работы самого коллектива стали выходить значительно реже, но зато в продаже регулярно появлялись всевозможные сборники и концертные записи. Впрочем, все эти релизы помогали поддерживать некоторую популярность группы, и в начале нового тысячелетия интерес к творчеству "America" стал возвращаться. Обрадованные музыканты не преминули воспользоваться возможностью, и в 2007-м выпустили новый альбом, включавший в себя как свежий оригинальный материал, так и ряд каверов.
Dewey Bunnell:6 string acoustic guitar,12 string acoustic guitar,vocals
Gerry Beckley:6 string acoustic guitar,piano,chimes,bass,vocals
Dan Peek:acoustic & electric guitar,piano,bass,vocals
Правила, инструкции, FAQ!!!
Торрент  Добавлен [26 мар 2019, 19:54] Скачать торрент Магнет ссылка
Скачать торрент
[ Размер 11.86 КБ / Просмотров 4 ]

Статус
Проверен 
 
Размер  281.04 МБ
Приватный: Нет (DHT включён)
.torrent скачан  0
 


     Отправить личное сообщение
   
Страница 1 из 1
Показать сообщения за:  Поле сортировки  
Начать новую тему Ответить на тему


Сейчас этот форум просматривают: нет зарегистрированных пользователей и гости: 0


Вы не можете начинать темы
Вы не можете отвечать на сообщения
Вы не можете редактировать свои сообщения
Вы не можете удалять свои сообщения
Вы не можете добавлять вложения

Перейти:  
cron