Начать новую тему Ответить на тему
Статистика раздачи
Размер: 545.88 МБ | Добавлен: 23 июл 2020, 21:42 | Скачали: 2
Сидеров: 2  [0 байт/сек]    Личеров: 0  [0 байт/сек]
Пред. тема | След. тема 

Автор
Сообщение

СообщениеДобавлено: 01 май 2014, 23:48 

Ответить с цитатой 

Christie / Greatest Hits

Жанр: British Rock/Pop, Oldies
Год издания диска: 2009
Страна: Великобритания
Аудио кодек: FLAC (*.flac)
Тип рипа: image+.cue
Битрейт аудио: lossless
Источник (релизер): Kulida61
Наличие сканов в содержимом раздачи: да

Треклист:

1. Iron Horse
2. Alabama
3. Yellow River
4. Until The Dawn
5. San Bernadino
6. New York City
7. I'm Alive
8. Pleasure & Pain
9. Down The Mississippi Line
10. Inside Looking Out
11. Gotta Be Free
12. Country Boy
13. The Dealer (Down And Losin')
14. For All Mankind
15. Johnny One Time
16. Picture Painter
17. Everything's Gonna Be Alright
18. If Only
19. Coming Home Tonight
20. I’ve Got A Feeling
21. Fools Gold
22. Magic Highway
23. Peace Lovin' Man
24. Put Your Money Down
Exact Audio Copy V0.99 prebeta 4 from 23. January 2008

Отчёт EAC об извлечении, выполненном 30. декабря 2009, 16:16

Christie / Greatest Hits

Дисковод: Optiarc DVD RW AD-5200A Adapter: 1 ID: 0

Режим чтения : Достоверность
Использование точного потока : Да
Отключение кэша аудио : Нет
Использование указателей C2 : Нет

Комбинированное смещение чтения/записи : 0
Способность читать области Lead-in и Lead-out : Нет
Заполнение пропущенных сэмплов тишиной : Да
Удаление блоков с тишиной в начале и конце : Нет
При вычислениях CRC использовались нулевые сэмплы : Нет
Интерфейс : Встроенный Win32-интерфейс для Win NT/2000

Выходной формат : Внутренние WAV-операции
Формат сэмплов : 44.100 Гц; 16 бит; стерео
Смещение при сжатии : 0

TOC извлечённого CD

Трек | Старт | Длительность | Начальный сектор | Конечный сектор
---------------------------------------------------------------------
1 | 0:00.00 | 2:52.53 | 0 | 12952
2 | 2:52.53 | 3:42.00 | 12953 | 29602
3 | 6:34.53 | 2:46.51 | 29603 | 42103
4 | 9:21.29 | 3:30.17 | 42104 | 57870
5 | 12:51.46 | 3:14.27 | 57871 | 72447
6 | 16:05.73 | 3:09.01 | 72448 | 86623
7 | 19:14.74 | 3:41.67 | 86624 | 103265
8 | 22:56.66 | 2:43.30 | 103266 | 115520
9 | 25:40.21 | 2:53.27 | 115521 | 128522
10 | 28:33.48 | 2:44.01 | 128523 | 140823
11 | 31:17.49 | 3:12.27 | 140824 | 155250
12 | 34:30.01 | 2:39.51 | 155251 | 167226
13 | 37:09.52 | 2:57.05 | 167227 | 180506
14 | 40:06.57 | 4:14.32 | 180507 | 199588
15 | 44:21.14 | 3:27.02 | 199589 | 215115
16 | 47:48.16 | 3:08.45 | 215116 | 229260
17 | 50:56.61 | 2:37.33 | 229261 | 241068
18 | 53:34.19 | 4:22.38 | 241069 | 260756
19 | 57:56.57 | 3:00.05 | 260757 | 274261
20 | 60:56.62 | 2:52.02 | 274262 | 287163
21 | 63:48.64 | 3:10.10 | 287164 | 301423
22 | 66:58.74 | 5:39.52 | 301424 | 326900
23 | 72:38.51 | 3:06.22 | 326901 | 340872
24 | 75:44.73 | 2:45.01 | 340873 | 353248

Характеристики диапазона извлечения и сообщения об ошибках

Выбранный диапазон

Имя файла C:\My Music\Christie - Greatest Hits.wav

Пиковый уровень 100.0 %
Качество диапазона 99.9 %
CRC копии B4564222
Копирование... OK

Ошибок не произошло

Конец отчёта

REM DATE 2009
REM DISCID 68126518
REM COMMENT "ExactAudioCopy v0.99pb4"
PERFORMER "Christie"
TITLE "Greatest Hits"
FILE "Christie - Greatest Hits.flac" wave
TRACK 01 AUDIO
TITLE "Track01"
PERFORMER "Christie"
INDEX 01 00:00:00
TRACK 02 AUDIO
TITLE "Track02"
PERFORMER "Christie"
INDEX 01 02:52:53
TRACK 03 AUDIO
TITLE "Track03"
PERFORMER "Christie"
INDEX 01 06:34:53
TRACK 04 AUDIO
TITLE "Track04"
PERFORMER "Christie"
INDEX 01 09:21:29
TRACK 05 AUDIO
TITLE "Track05"
PERFORMER "Christie"
INDEX 01 12:51:46
TRACK 06 AUDIO
TITLE "Track06"
PERFORMER "Christie"
INDEX 01 16:05:73
TRACK 07 AUDIO
TITLE "Track07"
PERFORMER "Christie"
INDEX 01 19:14:74
TRACK 08 AUDIO
TITLE "Track08"
PERFORMER "Christie"
INDEX 01 22:56:66
TRACK 09 AUDIO
TITLE "Track09"
PERFORMER "Christie"
INDEX 01 25:40:21
TRACK 10 AUDIO
TITLE "Track10"
PERFORMER "Christie"
INDEX 01 28:33:48
TRACK 11 AUDIO
TITLE "Track11"
PERFORMER "Christie"
INDEX 01 31:17:49
TRACK 12 AUDIO
TITLE "Track12"
PERFORMER "Christie"
INDEX 01 34:30:01
TRACK 13 AUDIO
TITLE "Track13"
PERFORMER "Christie"
INDEX 01 37:09:52
TRACK 14 AUDIO
TITLE "Track14"
PERFORMER "Christie"
INDEX 01 40:06:57
TRACK 15 AUDIO
TITLE "Track15"
PERFORMER "Christie"
INDEX 01 44:21:14
TRACK 16 AUDIO
TITLE "Track16"
PERFORMER "Christie"
INDEX 01 47:48:16
TRACK 17 AUDIO
TITLE "Track17"
PERFORMER "Christie"
INDEX 01 50:56:61
TRACK 18 AUDIO
TITLE "Track18"
PERFORMER "Christie"
INDEX 01 53:34:19
TRACK 19 AUDIO
TITLE "Track19"
PERFORMER "Christie"
INDEX 01 57:56:57
TRACK 20 AUDIO
TITLE "Track20"
PERFORMER "Christie"
INDEX 01 60:56:62
TRACK 21 AUDIO
TITLE "Track21"
PERFORMER "Christie"
INDEX 01 63:48:64
TRACK 22 AUDIO
TITLE "Track22"
PERFORMER "Christie"
INDEX 01 66:58:74
TRACK 23 AUDIO
TITLE "Track23"
PERFORMER "Christie"
INDEX 01 72:38:51
TRACK 24 AUDIO
TITLE "Track24"
PERFORMER "Christie"
INDEX 01 75:44:73

The Christie sound is simple — unpretentious pop music with a driving beat, or in the case of their ballads, a lilting melody to carry the track through. The band were even dubbed the "English Creedence". The majority of the songs were the product of Jeff Christie's songwriting genius — the composer of the supremely magnificent Yellow River managed to come up with several other pieces which, while all commercial and catchy in their own way, did not suffer from being similar to each other.
Правила, инструкции, FAQ!!!
Торрент  Добавлен [23 июл 2020, 21:42] Скачать торрент Магнет ссылка
Скачать торрент
[ Размер 12.1 КБ / Просмотров 25 ]

Статус
Проверен 
 
Размер  545.88 МБ
Приватный: Нет (DHT включён)
.torrent скачан  2
 


     Отправить личное сообщение
   

СообщениеДобавлено: 07 июн 2020, 15:47 

Ответить с цитатой 

Зарегистрированные пользователи
Зарегистрированные пользователи

Стаж: 2 месяца 5 дней
Раздал: 0 байт
Скачал: 0 байт
Ратио: Inf.
Торренты: 0
дайте докачать пожалуйста!! Спасибо!!!


Профиль     Отправить личное сообщение
   

СообщениеДобавлено: 23 июл 2020, 18:48 

Ответить с цитатой 

Зарегистрированные пользователи
Зарегистрированные пользователи

Стаж: 2 месяца 5 дней
Раздал: 0 байт
Скачал: 0 байт
Ратио: Inf.
Торренты: 0
за полтора месяца скачалась половина!!! Спасибо!!! здорово у вас тут раздают!!!


Профиль     Отправить личное сообщение
   

СообщениеДобавлено: 23 июл 2020, 21:49 

Ответить с цитатой 

Администратор
Администратор

Стаж: 7 лет 9 месяцев 28 дней
Раздал: 296.18 ГБ
Скачал: 158.38 ГБ
Ратио: 1.870
Торренты: 13
Раздачу полностью заменил с другого трекера, скачайте торрент-файл заново и ждите раздающего, по крайней мере полный источник был сегодня.

_________________
Не скачивается раздача? напишите об этом в теме!


Профиль     Отправить личное сообщение
   
Страница 1 из 1
Показать сообщения за:  Поле сортировки  
Начать новую тему Ответить на тему


Сейчас этот форум просматривают: нет зарегистрированных пользователей и гости: 0


Вы не можете начинать темы
Вы не можете отвечать на сообщения
Вы не можете редактировать свои сообщения
Вы не можете удалять свои сообщения
Вы не можете добавлять вложения

Перейти:  
cron