Начать новую тему Ответить на тему
Статистика раздачи
Размер: 1.25 ГБ | Добавлен: 26 мар 2019, 19:35 | Скачали: 0
Сидеров: 0  [0 байт/сек]    Личеров: 0  [0 байт/сек]
Пред. тема | След. тема 

Автор
Сообщение

СообщениеДобавлено: 26 мар 2019, 19:35 

Ответить с цитатой 

Steven Curtis Chapman (3 альбома)
Жанр: Christian rock
Год издания диска: 1999-2003
Аудиокодек: FLAC (*.flac)
Тип рипа: tracks
Битрейт аудио: lossless
Источник: скачано из сети
Наличие сканов в содержимом раздачи: нет
#7771 Dive
2 Speechless
3 The Change
4 Great Expectations
5 Next 5 Minutes
6 Fingerprints of God
7 The Invitation
8 Whatever
9 I Do Believe
10 What I Really Want To Say
11 With Hope
12 The Journey
13 Be Still And Know
Код:
Exact Audio Copy V0.99 prebeta 5 from 4. May 2009
EAC extraction logfile from 12. December 2009, 16:07
Steven Curtis Chapman / Speechless
Used drive  : SONY    DVD RW DRU-V200S   Adapter: 2  ID: 1
Read mode               : Secure
Utilize accurate stream : Yes
Defeat audio cache      : No
Make use of C2 pointers : No
Read offset correction                      : 48
Overread into Lead-In and Lead-Out          : No
Fill up missing offset samples with silence : Yes
Delete leading and trailing silent blocks   : No
Null samples used in CRC calculations       : No
Used interface                              : Native Win32 interface for Win NT & 2000
Gap handling                                : Appended to previous track
Used output format              : User Defined Encoder
Selected bitrate                : 768 kBit/s
Quality                         : High
Add ID3 tag                     : Yes
Command line compressor         : C:\Program Files\Exact Audio Copy\FLAC\FLAC.EXE
Additional command line options : -6 -V -T "ARTIST=%a" -T "TITLE=%t" -T "ALBUM=%g" -T "DATE=%y" -T "TRACKNUMBER=%n" -T "GENRE=%m" -T "COMMENT=%e" %s -o %d
TOC of the extracted CD
     Track |   Start  |  Length  | Start sector | End sector
    ---------------------------------------------------------
        1  |  0:00.00 |  3:58.47 |         0    |    17896
        2  |  3:58.47 |  5:07.03 |     17897    |    40924
        3  |  9:05.50 |  3:46.17 |     40925    |    57891
        4  | 12:51.67 |  5:03.60 |     57892    |    80676
        5  | 17:55.52 |  4:21.43 |     80677    |   100294
        6  | 22:17.20 |  4:04.15 |    100295    |   118609
        7  | 26:21.35 |  4:58.37 |    118610    |   140996
        8  | 31:19.72 |  4:02.20 |    140997    |   159166
        9  | 35:22.17 |  4:02.50 |    159167    |   177366
       10  | 39:24.67 |  4:22.70 |    177367    |   197086
       11  | 43:47.62 |  5:12.63 |    197087    |   220549
       12  | 49:00.50 |  3:05.42 |    220550    |   234466
       13  | 52:06.17 |  3:19.30 |    234467    |   249421
Track  1
     Filename D:\Public\Archive Music\Steven Curtis Chapman\Speechless\01 - Dive.wav
     Pre-gap length  0:00:02.00
     Suspicious position 0:00:03 - 0:00:04
     Peak level 99.8 %
     Track quality 99.4 %
     Test CRC D455D830
     Copy CRC 7BC2B199
     Cannot be verified as accurate (confidence 49)  [CF25151F], AccurateRip returned [810A03BD]
     Copy finished
Track  2
     Filename D:\Public\Archive Music\Steven Curtis Chapman\Speechless\02 - Speechless.wav
     Pre-gap length  0:00:00.05
     Peak level 99.8 %
     Track quality 100.0 %
     Test CRC A7210E08
     Copy CRC A7210E08
     Accurately ripped (confidence 52)  [D9151D07]
     Copy OK
Track  3
     Filename D:\Public\Archive Music\Steven Curtis Chapman\Speechless\03 - The Change.wav
     Peak level 99.8 %
     Track quality 100.0 %
     Test CRC 27DEC57E
     Copy CRC 27DEC57E
     Accurately ripped (confidence 51)  [211768F2]
     Copy OK
Track  4
     Filename D:\Public\Archive Music\Steven Curtis Chapman\Speechless\04 - Great Expectations.wav
     Pre-gap length  0:00:00.07
     Peak level 99.8 %
     Track quality 100.0 %
     Test CRC 3AA81094
     Copy CRC 3AA81094
     Accurately ripped (confidence 52)  [4A45302D]
     Copy OK
Track  5
     Filename D:\Public\Archive Music\Steven Curtis Chapman\Speechless\05 - Next 5 Minutes.wav
     Peak level 99.8 %
     Track quality 100.0 %
     Test CRC 29A80730
     Copy CRC 29A80730
     Accurately ripped (confidence 51)  [3277A0C7]
     Copy OK
Track  6
     Filename D:\Public\Archive Music\Steven Curtis Chapman\Speechless\06 - Fingerprints Of God.wav
     Peak level 99.8 %
     Track quality 100.0 %
     Test CRC 436E6B67
     Copy CRC 436E6B67
     Accurately ripped (confidence 52)  [06AC5774]
     Copy OK
Track  7
     Filename D:\Public\Archive Music\Steven Curtis Chapman\Speechless\07 - The Invitation.wav
     Peak level 99.8 %
     Track quality 100.0 %
     Test CRC 36BEAF16
     Copy CRC 36BEAF16
     Accurately ripped (confidence 51)  [BE036CB4]
     Copy OK
Track  8
     Filename D:\Public\Archive Music\Steven Curtis Chapman\Speechless\08 - Whatever.wav
     Pre-gap length  0:00:01.45
     Peak level 99.8 %
     Track quality 100.0 %
     Test CRC 1E1AC3C7
     Copy CRC 1E1AC3C7
     Accurately ripped (confidence 52)  [DCB892B8]
     Copy OK
Track  9
     Filename D:\Public\Archive Music\Steven Curtis Chapman\Speechless\09 - I Do Believe.wav
     Pre-gap length  0:00:00.09
     Peak level 99.8 %
     Track quality 100.0 %
     Test CRC D029463B
     Copy CRC D029463B
     Accurately ripped (confidence 50)  [2DB9519F]
     Copy OK
Track 10
     Filename D:\Public\Archive Music\Steven Curtis Chapman\Speechless\10 - What I Really Want To Say.wav
     Pre-gap length  0:00:00.09
     Peak level 99.8 %
     Track quality 100.0 %
     Test CRC 24547026
     Copy CRC 24547026
     Accurately ripped (confidence 50)  [901F4FE6]
     Copy OK
Track 11
     Filename D:\Public\Archive Music\Steven Curtis Chapman\Speechless\11 - With Hope.wav
     Pre-gap length  0:00:00.11
     Peak level 99.8 %
     Track quality 100.0 %
     Test CRC 33E4996A
     Copy CRC 33E4996A
     Accurately ripped (confidence 50)  [CF7FDFFE]
     Copy OK
Track 12
     Filename D:\Public\Archive Music\Steven Curtis Chapman\Speechless\12 - The Journey.wav
     Peak level 99.8 %
     Track quality 100.0 %
     Test CRC 7259530B
     Copy CRC 7259530B
     Accurately ripped (confidence 51)  [A735B482]
     Copy OK
Track 13
     Filename D:\Public\Archive Music\Steven Curtis Chapman\Speechless\13 - Be Still And Know.wav
     Peak level 99.8 %
     Track quality 100.0 %
     Test CRC 41753EB0
     Copy CRC 41753EB0
     Cannot be verified as accurate (confidence 51)  [5BF532B0], AccurateRip returned [5A6C4EC4]
     Copy OK
11 track(s) accurately ripped
 2 track(s) could not be verified as accurate
Some tracks could not be verified as accurate
There were errors
End of status report
#7771 Live Out Loud
2 This Day
3 Jesus Is Life
4 No Greater Love
5 God Is God
6 See The Glory
7 Bring It On
8 When Love Takes You In
9 Magnificent Obsession
10 Declaration Of Dependence
11 God Follower
12 Carry You To Jesus
13 Savior
Код:
Exact Audio Copy V0.99 prebeta 5 from 4. May 2009
EAC extraction logfile from 15. December 2009, 13:40
Steven Curtis Chapman / Declaration
Used drive  : SONY    DVD RW DRU-V200S   Adapter: 2  ID: 1
Read mode               : Secure
Utilize accurate stream : Yes
Defeat audio cache      : No
Make use of C2 pointers : No
Read offset correction                      : 48
Overread into Lead-In and Lead-Out          : No
Fill up missing offset samples with silence : Yes
Delete leading and trailing silent blocks   : No
Null samples used in CRC calculations       : No
Used interface                              : Native Win32 interface for Win NT & 2000
Gap handling                                : Appended to previous track
Used output format              : User Defined Encoder
Selected bitrate                : 768 kBit/s
Quality                         : High
Add ID3 tag                     : Yes
Command line compressor         : C:\Program Files\Exact Audio Copy\FLAC\FLAC.EXE
Additional command line options : -6 -V -T "ARTIST=%a" -T "TITLE=%t" -T "ALBUM=%g" -T "DATE=%y" -T "TRACKNUMBER=%n" -T "GENRE=%m" -T "COMMENT=%e" %s -o %d
TOC of the extracted CD
     Track |   Start  |  Length  | Start sector | End sector
    ---------------------------------------------------------
        1  |  0:00.00 |  3:55.52 |         0    |    17676
        2  |  3:55.52 |  4:36.73 |     17677    |    38449
        3  |  8:32.50 |  3:32.60 |     38450    |    54409
        4  | 12:05.35 |  4:58.52 |     54410    |    76811
        5  | 17:04.12 |  4:17.00 |     76812    |    96086
        6  | 21:21.12 |  3:36.65 |     96087    |   112351
        7  | 24:58.02 |  4:16.18 |    112352    |   131569
        8  | 29:14.20 |  4:43.32 |    131570    |   152826
        9  | 33:57.52 |  5:02.60 |    152827    |   175536
       10  | 39:00.37 |  3:51.20 |    175537    |   192881
       11  | 42:51.57 |  4:19.05 |    192882    |   212311
       12  | 47:10.62 |  4:05.65 |    212312    |   230751
       13  | 51:16.52 |  5:36.08 |    230752    |   255959
Track  1
     Filename D:\Public\Archive Music\Steven Curtis Chapman\Declaration\01 - Live Out Loud.wav
     Pre-gap length  0:00:02.00
     Peak level 96.6 %
     Track quality 100.0 %
     Test CRC 7D247050
     Copy CRC 7D247050
     Accurately ripped (confidence 2)  [CE284C92]
     Copy OK
Track  2
     Filename D:\Public\Archive Music\Steven Curtis Chapman\Declaration\02 - This Day.wav
     Pre-gap length  0:00:00.02
     Peak level 96.6 %
     Track quality 100.0 %
     Test CRC 0F5DE051
     Copy CRC 0F5DE051
     Accurately ripped (confidence 2)  [BB2B89B8]
     Copy OK
Track  3
     Filename D:\Public\Archive Music\Steven Curtis Chapman\Declaration\03 - Jesus Is Life.wav
     Pre-gap length  0:00:00.10
     Peak level 96.6 %
     Track quality 100.0 %
     Test CRC B82808A9
     Copy CRC B82808A9
     Accurately ripped (confidence 2)  [F67D29B6]
     Copy OK
Track  4
     Filename D:\Public\Archive Music\Steven Curtis Chapman\Declaration\04 - No Greater Love.wav
     Pre-gap length  0:00:01.43
     Peak level 96.6 %
     Track quality 99.6 %
     Test CRC 2E63F612
     Copy CRC 2E63F612
     Accurately ripped (confidence 2)  [C2170109]
     Copy OK
Track  5
     Filename D:\Public\Archive Music\Steven Curtis Chapman\Declaration\05 - God Is God.wav
     Peak level 96.6 %
     Track quality 99.9 %
     Test CRC 3B8E288C
     Copy CRC 3B8E288C
     Accurately ripped (confidence 2)  [598AE35F]
     Copy OK
Track  6
     Filename D:\Public\Archive Music\Steven Curtis Chapman\Declaration\06 - See the Glory.wav
     Pre-gap length  0:00:00.08
     Peak level 96.6 %
     Track quality 100.0 %
     Test CRC C5C4E61E
     Copy CRC C5C4E61E
     Accurately ripped (confidence 2)  [E4883465]
     Copy OK
Track  7
     Filename D:\Public\Archive Music\Steven Curtis Chapman\Declaration\07 - Bring It On.wav
     Peak level 96.6 %
     Track quality 100.0 %
     Test CRC 54926A1C
     Copy CRC 54926A1C
     Accurately ripped (confidence 2)  [D40A2BBD]
     Copy OK
Track  8
     Filename D:\Public\Archive Music\Steven Curtis Chapman\Declaration\08 - When Love Takes You In.wav
     Pre-gap length  0:00:00.02
     Peak level 96.6 %
     Track quality 100.0 %
     Test CRC DE6B0CC0
     Copy CRC DE6B0CC0
     Accurately ripped (confidence 2)  [6A49D551]
     Copy OK
Track  9
     Filename D:\Public\Archive Music\Steven Curtis Chapman\Declaration\09 - Magnificent Obsession.wav
     Peak level 96.6 %
     Track quality 100.0 %
     Test CRC B3AF2919
     Copy CRC B3AF2919
     Accurately ripped (confidence 2)  [F9AB6E0E]
     Copy OK
Track 10
     Filename D:\Public\Archive Music\Steven Curtis Chapman\Declaration\10 - Declaration of Dependence.wav
     Pre-gap length  0:00:01.22
     Peak level 96.6 %
     Track quality 100.0 %
     Test CRC 92918F67
     Copy CRC 92918F67
     Accurately ripped (confidence 2)  [DD30B097]
     Copy OK
Track 11
     Filename D:\Public\Archive Music\Steven Curtis Chapman\Declaration\11 - God Follower.wav
     Pre-gap length  0:00:01.44
     Peak level 96.6 %
     Track quality 100.0 %
     Test CRC FF352093
     Copy CRC FF352093
     Accurately ripped (confidence 2)  [9812ACDE]
     Copy OK
Track 12
     Filename D:\Public\Archive Music\Steven Curtis Chapman\Declaration\12 - Carry You to Jesus.wav
     Pre-gap length  0:00:00.12
     Peak level 96.6 %
     Track quality 100.0 %
     Test CRC 0931E593
     Copy CRC 0931E593
     Accurately ripped (confidence 2)  [147428D2]
     Copy OK
Track 13
     Filename D:\Public\Archive Music\Steven Curtis Chapman\Declaration\13 - Savior.wav
     Pre-gap length  0:00:00.12
     Peak level 96.6 %
     Track quality 100.0 %
     Test CRC FD6A270B
     Copy CRC FD6A270B
     Cannot be verified as accurate (confidence 20)  [BD7FC77B], AccurateRip returned [2BF4F3FA]
     Copy OK
12 track(s) accurately ripped
 1 track(s) could not be verified as accurate
Some tracks could not be verified as accurate
No errors occurred
End of status report
#7771 All About Love
2 Your Side of the World
3 How Do I Love Her
4 11-6-64
5 You've Got Me
6 I'm Gonna Be (500 Miles)
7 Echoes of Eden
8 Holding a Mystery
9 We Will Dance
10 We Belong Together (Tarzan and Jane)
11 With Every Little Kiss
12 Miracle of You
13 I'll Take Care of You
14 I Will Be Here
15 Moment Made for Worshipping
16 When Love Takes You In
Код:
Exact Audio Copy V0.99 prebeta 5 from 4. May 2009
Отчёт EAC об извлечении, выполненном 8. апреля 2011, 13:47
Steven Curtis Chapman / All about love
Дисковод: HL-DT-STDVDRAM GSA-4167B   Adapter: 0  ID: 0
Режим чтения                 : Достоверность
Использование точного потока : Да
Отключение кэша аудио        : Да
Использование указателей C2  : Нет
Комбинированное смещение чтения/записи            : 0
Способность читать области Lead-in и Lead-out     : Нет
Заполнение пропущенных сэмплов тишиной            : Да
Удаление блоков с тишиной в начале и конце        : Нет
При вычислениях CRC использовались нулевые сэмплы : Нет
Интерфейс                                         : Встроенный Win32-интерфейс для Win NT/2000
Обработка зазоров                                 : Добавлено к предыдущему треку
Выходной формат          : Пользовательский кодировщик
Выбранный битрейт        : 1024 kBit/s
Качество                 : Высокий
Добавление ID3-тэга      : Нет
Утилита сжатия           : C:\Program Files\Exact Audio Copy\FLAC\FLAC.EXE
Дополнительные параметры : -8 -V -T "ARTIST=%a" -T "TITLE=%t" -T "ALBUM=%g" -T "DATE=%y" -T"TRACKNUMBER=%n" -T "GENRE=%m" -T "COMMENT=EAC FLAC -8" %s
TOC извлечённого CD
     Трек |   Старт  | Длительность | Начальный сектор | Конечный сектор
    ---------------------------------------------------------------------
       1  |  0:00.00 |    3:42.70   |           0      |      16719
       2  |  3:42.70 |    4:25.00   |       16720      |      36594
       3  |  8:07.70 |    4:57.50   |       36595      |      58919
       4  | 13:05.45 |    3:07.25   |       58920      |      72969
       5  | 16:12.70 |    3:45.22   |       72970      |      89866
       6  | 19:58.17 |    3:44.15   |       89867      |     106681
       7  | 23:42.32 |    5:04.35   |      106682      |     129516
       8  | 28:46.67 |    4:22.00   |      129517      |     149166
       9  | 33:08.67 |    4:40.65   |      149167      |     170231
      10  | 37:49.57 |    3:16.18   |      170232      |     184949
      11  | 41:06.00 |    3:13.17   |      184950      |     199441
      12  | 44:19.17 |    3:35.18   |      199442      |     215584
      13  | 47:54.35 |    4:23.55   |      215585      |     235364
      14  | 52:18.15 |    4:13.00   |      235365      |     254339
      15  | 56:31.15 |    6:10.65   |      254340      |     282154
      16  | 62:42.05 |    4:47.07   |      282155      |     303686
Трек  1
     Имя файла J:\Музыка\Сборник англ\Steven Curtis Chapman\01 All About Love.wav
     Длина предзазора  0:00:02.00
     Пиковый уровень 99.8 %
     Качество трека 100.0 %
     CRC теста FC2B3722
     CRC копии FC2B3722
     Копирование... OK
Трек  2
     Имя файла J:\Музыка\Сборник англ\Steven Curtis Chapman\02 Your Side Of The World.wav
     Длина предзазора  0:00:00.13
     Пиковый уровень 99.8 %
     Качество трека 99.9 %
     CRC теста 66CA8173
     CRC копии 66CA8173
     Копирование... OK
Трек  3
     Имя файла J:\Музыка\Сборник англ\Steven Curtis Chapman\03 How Do I Love Her.wav
     Длина предзазора  0:00:01.18
     Пиковый уровень 99.8 %
     Качество трека 100.0 %
     CRC теста 71C3A967
     CRC копии 71C3A967
     Копирование... OK
Трек  4
     Имя файла J:\Музыка\Сборник англ\Steven Curtis Chapman\04 11-6-64.wav
     Пиковый уровень 92.0 %
     Качество трека 100.0 %
     CRC теста 9AC73295
     CRC копии 9AC73295
     Копирование... OK
Трек  5
     Имя файла J:\Музыка\Сборник англ\Steven Curtis Chapman\05 You've Got Me.wav
     Длина предзазора  0:00:00.15
     Пиковый уровень 99.8 %
     Качество трека 100.0 %
     CRC теста 218D0ADE
     CRC копии 218D0ADE
     Копирование... OK
Трек  6
     Имя файла J:\Музыка\Сборник англ\Steven Curtis Chapman\06 I'm Gonna Be (500 Miles).wav
     Пиковый уровень 99.7 %
     Качество трека 100.0 %
     CRC теста F908929B
     CRC копии F908929B
     Копирование... OK
Трек  7
     Имя файла J:\Музыка\Сборник англ\Steven Curtis Chapman\07 Echoes Of Eden.wav
     Длина предзазора  0:00:00.45
     Пиковый уровень 94.1 %
     Качество трека 100.0 %
     CRC теста 8A61923D
     CRC копии 8A61923D
     Копирование... OK
Трек  8
     Имя файла J:\Музыка\Сборник англ\Steven Curtis Chapman\08 Holding A Mystery.wav
     Пиковый уровень 99.8 %
     Качество трека 99.9 %
     CRC теста D0C136BD
     CRC копии D0C136BD
     Копирование... OK
Трек  9
     Имя файла J:\Музыка\Сборник англ\Steven Curtis Chapman\09 We Will Dance.wav
     Пиковый уровень 99.8 %
     Качество трека 100.0 %
     CRC теста 47D7C5E7
     CRC копии 47D7C5E7
     Копирование... OK
Трек 10
     Имя файла J:\Музыка\Сборник англ\Steven Curtis Chapman\10 We Belong Together.wav
     Длина предзазора  0:00:01.42
     Пиковый уровень 99.7 %
     Качество трека 99.9 %
     CRC теста 478A5E8E
     CRC копии 478A5E8E
     Копирование... OK
Трек 11
     Имя файла J:\Музыка\Сборник англ\Steven Curtis Chapman\11 With Every Little Kiss.wav
     Длина предзазора  0:00:00.35
     Пиковый уровень 99.7 %
     Качество трека 100.0 %
     CRC теста C4E1EBBC
     CRC копии C4E1EBBC
     Копирование... OK
Трек 12
     Имя файла J:\Музыка\Сборник англ\Steven Curtis Chapman\12 Miracle Of You.wav
     Пиковый уровень 99.8 %
     Качество трека 100.0 %
     CRC теста 1B80EEC6
     CRC копии 1B80EEC6
     Копирование... OK
Трек 13
     Имя файла J:\Музыка\Сборник англ\Steven Curtis Chapman\13 I'll Take Care Of You.wav
     Длина предзазора  0:00:01.25
     Пиковый уровень 83.9 %
     Качество трека 100.0 %
     CRC теста 2344F1DA
     CRC копии 2344F1DA
     Копирование... OK
Трек 14
     Имя файла J:\Музыка\Сборник англ\Steven Curtis Chapman\14 I Will Be Here.wav
     Длина предзазора  0:00:00.45
     Пиковый уровень 99.7 %
     Качество трека 100.0 %
     CRC теста F1348696
     CRC копии F1348696
     Копирование... OK
Трек 15
     Имя файла J:\Музыка\Сборник англ\Steven Curtis Chapman\15 Moment Made For Worshipping.wav
     Пиковый уровень 99.7 %
     Качество трека 100.0 %
     CRC теста 748FE40E
     CRC копии 748FE40E
     Копирование... OK
Трек 16
     Имя файла J:\Музыка\Сборник англ\Steven Curtis Chapman\16 When Love Takes You In.wav
     Длина предзазора  0:00:01.43
     Пиковый уровень 97.3 %
     Качество трека 100.0 %
     CRC теста E9135AC3
     CRC копии E9135AC3
     Копирование... OK
Ошибок не произошло
Конец отчёта
Что нашёл в интернете- то и выложил. Альбомы разбиты потреково; сканов нет; в двух файлах были приложены .cue - я их сохранил; какой лог был- такой и записал. Лучше этого найти не получится, что уж есть.
Надеюсь, кому-то помогу.
mp3-дискография здесь: http://rutracker.org/forum/viewtopic.php?t=3062255
Комментарии приветствуются!
Правила, инструкции, FAQ!!!
Торрент  Добавлен [26 мар 2019, 19:35] Скачать торрент Магнет ссылка
Скачать торрент
[ Размер 16.64 КБ / Просмотров 4 ]

Статус
Проверен 
 
Размер  1.25 ГБ
Приватный: Нет (DHT включён)
.torrent скачан  0
 


     Отправить личное сообщение
   
Страница 1 из 1
Показать сообщения за:  Поле сортировки  
Начать новую тему Ответить на тему


Сейчас этот форум просматривают: нет зарегистрированных пользователей и гости: 0


Вы не можете начинать темы
Вы не можете отвечать на сообщения
Вы не можете редактировать свои сообщения
Вы не можете удалять свои сообщения
Вы не можете добавлять вложения

Перейти:  
cron