Начать новую тему Ответить на тему
Статистика раздачи
Размер: 284.71 МБ | Добавлен: 26 мар 2019, 19:13 | Скачали: 0
Сидеров: 0  [0 байт/сек]    Личеров: 0  [0 байт/сек]
Пред. тема | След. тема 

Автор
Сообщение

СообщениеДобавлено: 26 мар 2019, 19:13 

Ответить с цитатой 

Sixteen Cities - Sixteen Cities (2010)
Жанр: Christian Rock
Год выпуска диска: 2010
Страна: Portland, Oregon, U.S.A.
Аудио кодек: FLAC
Тип рипа: tracks+.cue
Битрейт аудио: lossless
Продолжительность: 39:11
Источник: waffles.fm (soniclover27)
Треклист:
01. Just Wanna Dance (3:44)
02. Save Me From Myself (3:20)
03. Sing Along (3:00)
04. Pray Through You (3:31)
05. Only After You (3:33)
06. Come As You Are (3:46)
07. Innocent (3:25)
08. Captured By Your Love (3:46)
09. Someone's Work Of Art (3:59)
10. Bleeding For You (3:08)
11. Winter (4:04)
Код:
TITLE "Sixteen Cities"
PERFORMER "Sixteen Cities"
CATALOG 0829619109122
REM GENRE "Contemporary Christian"
REM DATE 2010
FILE "01 Sixteen Cities - Just Wanna Dance.wav" WAVE
  TRACK 01 AUDIO
    TITLE "Just Wanna Dance"
    PERFORMER "Sixteen Cities"
    SONGWRITER "Sixteen Cities"
    ISRC US8390900178
    INDEX 01 00:00:00
FILE "02 Sixteen Cities - Save Me From Myself.wav" WAVE
  TRACK 02 AUDIO
    TITLE "Save Me From Myself"
    PERFORMER "Sixteen Cities"
    SONGWRITER "Sixteen Cities"
    ISRC US8390900176
    INDEX 01 00:00:00
FILE "03 Sixteen Cities - Sing Along.wav" WAVE
  TRACK 03 AUDIO
    TITLE "Sing Along"
    PERFORMER "Sixteen Cities"
    SONGWRITER "Sixteen Cities"
    ISRC US8390900099
    INDEX 01 00:00:00
FILE "04 Sixteen Cities - Pray Through You.wav" WAVE
  TRACK 04 AUDIO
    TITLE "Pray Through You"
    PERFORMER "Sixteen Cities"
    SONGWRITER "Sixteen Cities"
    ISRC US8390900098
    INDEX 01 00:00:00
FILE "05 Sixteen Cities - Only After You.wav" WAVE
  TRACK 05 AUDIO
    TITLE "Only After You"
    PERFORMER "Sixteen Cities"
    SONGWRITER "Sixteen Cities"
    ISRC US8390900101
    INDEX 01 00:00:00
FILE "06 Sixteen Cities - Come As You Are.wav" WAVE
  TRACK 06 AUDIO
    TITLE "Come As You Are"
    PERFORMER "Sixteen Cities"
    SONGWRITER "Sixteen Cities"
    ISRC US8390900100
    INDEX 01 00:00:00
FILE "07 Sixteen Cities - Innocent.wav" WAVE
  TRACK 07 AUDIO
    TITLE "Innocent"
    PERFORMER "Sixteen Cities"
    SONGWRITER "Sixteen Cities"
    ISRC US8390900175
    INDEX 01 00:00:00
FILE "08 Sixteen Cities - Captured By Your Love.wav" WAVE
  TRACK 08 AUDIO
    TITLE "Captured By Your Love"
    PERFORMER "Sixteen Cities"
    SONGWRITER "Sixteen Cities"
    ISRC US8390900102
    INDEX 01 00:00:00
FILE "09 Sixteen Cities - Someone's Work Of Art.wav" WAVE
  TRACK 09 AUDIO
    TITLE "Someone's Work Of Art"
    PERFORMER "Sixteen Cities"
    SONGWRITER "Sixteen Cities"
    ISRC US8390900097
    INDEX 01 00:00:00
FILE "10 Sixteen Cities - Bleeding For You.wav" WAVE
  TRACK 10 AUDIO
    TITLE "Bleeding For You"
    PERFORMER "Sixteen Cities"
    SONGWRITER "Sixteen Cities"
    ISRC US8390900177
    INDEX 01 00:00:00
FILE "11 Sixteen Cities - Winter.wav" WAVE
  TRACK 11 AUDIO
    TITLE "Winter"
    PERFORMER "Sixteen Cities"
    SONGWRITER "Sixteen Cities"
    ISRC US8390900104
    INDEX 01 00:00:00
Код:
X Lossless Decoder version 20100424 (118.0)
XLD extraction logfile from 2010-04-24 11:25:28 -0400
Sixteen Cities / Sixteen Cities
Used drive : MATSHITA DVD-R   UJ-868 (revision KB19)
Use cdparanoia mode     : YES (CDParanoia III 10.2 engine)
Disable audio cache     : OK for the drive with cache less than 2750KB
Make use of C2 pointers : NO
Read offset correction  : 102
Max retry count         : 100
TOC of the extracted CD
     Track |   Start  |  Length  | Start sector | End sector
    ---------------------------------------------------------
        1  | 00:00:00 | 03:43:47 |         0    |    16771
        2  | 03:43:47 | 03:20:33 |     16772    |    31804
        3  | 07:04:05 | 02:59:48 |     31805    |    45277
        4  | 10:03:53 | 03:30:47 |     45278    |    61074
        5  | 13:34:25 | 03:32:52 |     61075    |    77026
        6  | 17:07:02 | 03:46:11 |     77027    |    93987
        7  | 20:53:13 | 03:25:30 |     93988    |   109392
        8  | 24:18:43 | 03:46:05 |    109393    |   126347
        9  | 28:04:48 | 03:59:08 |    126348    |   144280
       10  | 32:03:56 | 03:08:37 |    144281    |   158417
       11  | 35:12:18 | 04:03:47 |    158418    |   176689
All Tracks
    Album gain             : -10.47 dB
    Peak                   : 1.000000
Track 01
    Filename : /Users/ssn/XLD Rips/Sixteen Cities - Sixteen Cities - 2010 - FLAC/01 Sixteen Cities - Just Wanna Dance.flac
               /Users/ssn/XLD Rips/Sixteen Cities - Sixteen Cities - 2010 - FLAC/01 Sixteen Cities - Just Wanna Dance.mp3
    Pre-gap length : 00:02:00
    Track gain             : -9.97 dB
    Peak                   : 1.000000
    CRC32 hash (test run)  : E59E3C2F
    CRC32 hash             : E59E3C2F
    CRC32 hash (skip zero) : AB2BB326
    AccurateRip signature  : D15012B0
        ->Track not present in AccurateRip database.
    Statistics
        Read error                           : 0
        Skipped (treated as error)           : 0
        Edge jitter error (maybe fixed)      : 0
        Atom jitter error (maybe fixed)      : 0
        Drift error (maybe fixed)            : 0
        Dropped bytes error (maybe fixed)    : 0
        Duplicated bytes error (maybe fixed) : 0
        Inconsistency in error sectors       : 0
Track 02
    Filename : /Users/ssn/XLD Rips/Sixteen Cities - Sixteen Cities - 2010 - FLAC/02 Sixteen Cities - Save Me From Myself.flac
               /Users/ssn/XLD Rips/Sixteen Cities - Sixteen Cities - 2010 - FLAC/02 Sixteen Cities - Save Me From Myself.mp3
    Track gain             : -10.53 dB
    Peak                   : 1.000000
    CRC32 hash (test run)  : 09E4F699
    CRC32 hash             : 09E4F699
    CRC32 hash (skip zero) : 93D0C9C2
    AccurateRip signature  : B8A791DE
        ->Track not present in AccurateRip database.
    Statistics
        Read error                           : 0
        Skipped (treated as error)           : 0
        Edge jitter error (maybe fixed)      : 0
        Atom jitter error (maybe fixed)      : 0
        Drift error (maybe fixed)            : 0
        Dropped bytes error (maybe fixed)    : 0
        Duplicated bytes error (maybe fixed) : 0
        Inconsistency in error sectors       : 0
Track 03
    Filename : /Users/ssn/XLD Rips/Sixteen Cities - Sixteen Cities - 2010 - FLAC/03 Sixteen Cities - Sing Along.flac
               /Users/ssn/XLD Rips/Sixteen Cities - Sixteen Cities - 2010 - FLAC/03 Sixteen Cities - Sing Along.mp3
    Track gain             : -9.14 dB
    Peak                   : 0.998871
    CRC32 hash (test run)  : 80B5DACA
    CRC32 hash             : 80B5DACA
    CRC32 hash (skip zero) : 614CC04F
    AccurateRip signature  : 69408EFF
        ->Track not present in AccurateRip database.
    Statistics
        Read error                           : 0
        Skipped (treated as error)           : 0
        Edge jitter error (maybe fixed)      : 0
        Atom jitter error (maybe fixed)      : 0
        Drift error (maybe fixed)            : 0
        Dropped bytes error (maybe fixed)    : 0
        Duplicated bytes error (maybe fixed) : 0
        Inconsistency in error sectors       : 0
Track 04
    Filename : /Users/ssn/XLD Rips/Sixteen Cities - Sixteen Cities - 2010 - FLAC/04 Sixteen Cities - Pray Through You.flac
               /Users/ssn/XLD Rips/Sixteen Cities - Sixteen Cities - 2010 - FLAC/04 Sixteen Cities - Pray Through You.mp3
    Track gain             : -10.52 dB
    Peak                   : 0.998871
    CRC32 hash (test run)  : C20059DE
    CRC32 hash             : C20059DE
    CRC32 hash (skip zero) : 932CFC2A
    AccurateRip signature  : 32CE6204
        ->Track not present in AccurateRip database.
    Statistics
        Read error                           : 0
        Skipped (treated as error)           : 0
        Edge jitter error (maybe fixed)      : 0
        Atom jitter error (maybe fixed)      : 0
        Drift error (maybe fixed)            : 0
        Dropped bytes error (maybe fixed)    : 0
        Duplicated bytes error (maybe fixed) : 0
        Inconsistency in error sectors       : 0
Track 05
    Filename : /Users/ssn/XLD Rips/Sixteen Cities - Sixteen Cities - 2010 - FLAC/05 Sixteen Cities - Only After You.flac
               /Users/ssn/XLD Rips/Sixteen Cities - Sixteen Cities - 2010 - FLAC/05 Sixteen Cities - Only After You.mp3
    Track gain             : -10.94 dB
    Peak                   : 0.999054
    CRC32 hash (test run)  : 14154A71
    CRC32 hash             : 14154A71
    CRC32 hash (skip zero) : D5B117A2
    AccurateRip signature  : EB86D389
        ->Track not present in AccurateRip database.
    Statistics
        Read error                           : 0
        Skipped (treated as error)           : 0
        Edge jitter error (maybe fixed)      : 0
        Atom jitter error (maybe fixed)      : 0
        Drift error (maybe fixed)            : 0
        Dropped bytes error (maybe fixed)    : 0
        Duplicated bytes error (maybe fixed) : 0
        Inconsistency in error sectors       : 0
Track 06
    Filename : /Users/ssn/XLD Rips/Sixteen Cities - Sixteen Cities - 2010 - FLAC/06 Sixteen Cities - Come As You Are.flac
               /Users/ssn/XLD Rips/Sixteen Cities - Sixteen Cities - 2010 - FLAC/06 Sixteen Cities - Come As You Are.mp3
    Track gain             : -11.21 dB
    Peak                   : 0.998840
    CRC32 hash (test run)  : 4B170653
    CRC32 hash             : 4B170653
    CRC32 hash (skip zero) : 7655816C
    AccurateRip signature  : 11F2A65C
        ->Track not present in AccurateRip database.
    Statistics
        Read error                           : 0
        Skipped (treated as error)           : 0
        Edge jitter error (maybe fixed)      : 0
        Atom jitter error (maybe fixed)      : 0
        Drift error (maybe fixed)            : 0
        Dropped bytes error (maybe fixed)    : 0
        Duplicated bytes error (maybe fixed) : 0
        Inconsistency in error sectors       : 0
Track 07
    Filename : /Users/ssn/XLD Rips/Sixteen Cities - Sixteen Cities - 2010 - FLAC/07 Sixteen Cities - Innocent.flac
               /Users/ssn/XLD Rips/Sixteen Cities - Sixteen Cities - 2010 - FLAC/07 Sixteen Cities - Innocent.mp3
    Track gain             : -8.99 dB
    Peak                   : 1.000000
    CRC32 hash (test run)  : E2B553B7
    CRC32 hash             : E2B553B7
    CRC32 hash (skip zero) : AFC10BD3
    AccurateRip signature  : 568F0085
        ->Track not present in AccurateRip database.
    Statistics
        Read error                           : 0
        Skipped (treated as error)           : 0
        Edge jitter error (maybe fixed)      : 0
        Atom jitter error (maybe fixed)      : 0
        Drift error (maybe fixed)            : 0
        Dropped bytes error (maybe fixed)    : 0
        Duplicated bytes error (maybe fixed) : 0
        Inconsistency in error sectors       : 0
Track 08
    Filename : /Users/ssn/XLD Rips/Sixteen Cities - Sixteen Cities - 2010 - FLAC/08 Sixteen Cities - Captured By Your Love.flac
               /Users/ssn/XLD Rips/Sixteen Cities - Sixteen Cities - 2010 - FLAC/08 Sixteen Cities - Captured By Your Love.mp3
    Track gain             : -10.61 dB
    Peak                   : 0.998840
    CRC32 hash (test run)  : 1FC36AA6
    CRC32 hash             : 1FC36AA6
    CRC32 hash (skip zero) : 870EE06C
    AccurateRip signature  : 67E8F688
        ->Track not present in AccurateRip database.
    Statistics
        Read error                           : 0
        Skipped (treated as error)           : 0
        Edge jitter error (maybe fixed)      : 0
        Atom jitter error (maybe fixed)      : 0
        Drift error (maybe fixed)            : 0
        Dropped bytes error (maybe fixed)    : 0
        Duplicated bytes error (maybe fixed) : 0
        Inconsistency in error sectors       : 0
Track 09
    Filename : /Users/ssn/XLD Rips/Sixteen Cities - Sixteen Cities - 2010 - FLAC/09 Sixteen Cities - Someone's Work Of Art.flac
               /Users/ssn/XLD Rips/Sixteen Cities - Sixteen Cities - 2010 - FLAC/09 Sixteen Cities - Someone's Work Of Art.mp3
    Track gain             : -10.03 dB
    Peak                   : 0.998840
    CRC32 hash (test run)  : 976345AA
    CRC32 hash             : 976345AA
    CRC32 hash (skip zero) : 166265E3
    AccurateRip signature  : 48F17FAC
        ->Track not present in AccurateRip database.
    Statistics
        Read error                           : 0
        Skipped (treated as error)           : 0
        Edge jitter error (maybe fixed)      : 0
        Atom jitter error (maybe fixed)      : 0
        Drift error (maybe fixed)            : 0
        Dropped bytes error (maybe fixed)    : 0
        Duplicated bytes error (maybe fixed) : 0
        Inconsistency in error sectors       : 0
Track 10
    Filename : /Users/ssn/XLD Rips/Sixteen Cities - Sixteen Cities - 2010 - FLAC/10 Sixteen Cities - Bleeding For You.flac
               /Users/ssn/XLD Rips/Sixteen Cities - Sixteen Cities - 2010 - FLAC/10 Sixteen Cities - Bleeding For You.mp3
    Track gain             : -10.16 dB
    Peak                   : 0.980133
    CRC32 hash (test run)  : EED65DC4
    CRC32 hash             : EED65DC4
    CRC32 hash (skip zero) : 1313F369
    AccurateRip signature  : F77061C0
        ->Track not present in AccurateRip database.
    Statistics
        Read error                           : 0
        Skipped (treated as error)           : 0
        Edge jitter error (maybe fixed)      : 0
        Atom jitter error (maybe fixed)      : 0
        Drift error (maybe fixed)            : 0
        Dropped bytes error (maybe fixed)    : 0
        Duplicated bytes error (maybe fixed) : 0
        Inconsistency in error sectors       : 0
Track 11
    Filename : /Users/ssn/XLD Rips/Sixteen Cities - Sixteen Cities - 2010 - FLAC/11 Sixteen Cities - Winter.flac
               /Users/ssn/XLD Rips/Sixteen Cities - Sixteen Cities - 2010 - FLAC/11 Sixteen Cities - Winter.mp3
    Track gain             : -7.81 dB
    Peak                   : 0.999115
    CRC32 hash (test run)  : CD2CE2D7
    CRC32 hash             : CD2CE2D7
    CRC32 hash (skip zero) : 36087DFD
    AccurateRip signature  : F8CDF47C
        ->Track not present in AccurateRip database.
    Statistics
        Read error                           : 0
        Skipped (treated as error)           : 0
        Edge jitter error (maybe fixed)      : 0
        Atom jitter error (maybe fixed)      : 0
        Drift error (maybe fixed)            : 0
        Dropped bytes error (maybe fixed)    : 0
        Duplicated bytes error (maybe fixed) : 0
        Inconsistency in error sectors       : 0
No errors occurred
End of status report
Правила, инструкции, FAQ!!!
Торрент  Добавлен [26 мар 2019, 19:13] Скачать торрент Магнет ссылка
Скачать торрент
[ Размер 12.46 КБ / Просмотров 1 ]

Статус
Проверен 
 
Размер  284.71 МБ
Приватный: Нет (DHT включён)
.torrent скачан  0
 


     Отправить личное сообщение
   
Страница 1 из 1
Показать сообщения за:  Поле сортировки  
Начать новую тему Ответить на тему


Сейчас этот форум просматривают: нет зарегистрированных пользователей и гости: 0


Вы не можете начинать темы
Вы не можете отвечать на сообщения
Вы не можете редактировать свои сообщения
Вы не можете удалять свои сообщения
Вы не можете добавлять вложения

Перейти:  
cron