Начать новую тему Ответить на тему
Статистика раздачи
Размер: 467.39 МБ | Добавлен: 26 мар 2019, 18:49 | Скачали: 0
Сидеров: 0  [0 байт/сек]    Личеров: 0  [0 байт/сек]
Пред. тема | След. тема 

Автор
Сообщение

СообщениеДобавлено: 26 мар 2019, 18:49 

Ответить с цитатой 

Gateway Worship - Wake Up The World
Жанр: Christian Rock, Praise & Worship
Год издания диска: 2008
Издатель (лейбл): Integrity
Страна: US
Аудиокодек: FLAC (*.flac)
Тип рипа: tracks+.cue
Битрейт аудио: lossless
Продолжительность: 1:05:24
Источник (релизер): blessing
Наличие сканов в содержимом раздачи: нет
Треклист:
01. New Doxology (4:06)
02. New Doxology Anthem (1:50)
03. The Lord Reigns (4:12)
04. Real (4:16)
05. God Of My Days (3:59)
06. You Are Good (5:25)
07. Alabaster Jar (7:59)
08. We Cry Out (6:31)
09. Save Me (4:16)
10. When I Speak Your Name (5:13)
11. We'll Make It Loud (4:13)
12. Wake Up The World (3:28)
13. Call Your Name (4:25)
14. Beautiful (5:31)

Код:
Exact Audio Copy V0.99 prebeta 4 from 23. January 2008
EAC extraction logfile from 4. September 2009, 8:52
Gateway Worship / Wake Up The World
Used drive  : LITE-ON DVDRW LH-20A1S   Adapter: 1  ID: 0
Read mode               : Secure
Utilize accurate stream : Yes
Defeat audio cache      : Yes
Make use of C2 pointers : No
Read offset correction                      : 6
Overread into Lead-In and Lead-Out          : No
Fill up missing offset samples with silence : Yes
Delete leading and trailing silent blocks   : No
Null samples used in CRC calculations       : Yes
Used interface                              : Installed external ASPI interface
Gap handling                                : Appended to previous track
Used output format              : User Defined Encoder
Selected bitrate                : 768 kBit/s
Quality                         : High
Add ID3 tag                     : No
Command line compressor         : C:\Program Files\Exact Audio Copy\FLAC\FLAC.EXE
Additional command line options : -6 -V -T "ARTIST=%a" -T "TITLE=%t" -T "ALBUM=%g" -T "DATE=%y" -T "TRACKNUMBER=%n" -T "GENRE=%m" -T "COMMENT=%e" %s -o %d
TOC of the extracted CD
     Track |   Start  |  Length  | Start sector | End sector
    ---------------------------------------------------------
        1  |  0:00.00 |  4:05.51 |         0    |    18425
        2  |  4:05.51 |  1:50.37 |     18426    |    26712
        3  |  5:56.13 |  4:11.42 |     26713    |    45579
        4  | 10:07.55 |  4:15.43 |     45580    |    64747
        5  | 14:23.23 |  3:59.01 |     64748    |    82673
        6  | 18:22.24 |  5:24.68 |     82674    |   107041
        7  | 23:47.17 |  7:59.04 |    107042    |   142970
        8  | 31:46.21 |  6:31.26 |    142971    |   172321
        9  | 38:17.47 |  4:16.29 |    172322    |   191550
       10  | 42:34.01 |  5:13.16 |    191551    |   215041
       11  | 47:47.17 |  4:12.39 |    215042    |   233980
       12  | 51:59.56 |  3:28.26 |    233981    |   249606
       13  | 55:28.07 |  4:24.51 |    249607    |   269457
       14  | 59:52.58 |  5:30.69 |    269458    |   294276
Track  1
     Filename C:\Documents and Settings\Lenny\My Documents\01. New Doxology.wav
     Peak level 100.0 %
     Track quality 100.0 %
     Test CRC 171124C0
     Copy CRC 171124C0
     Accurately ripped (confidence 1)  [5C1A13D7]
     Copy OK
Track  2
     Filename C:\Documents and Settings\Lenny\My Documents\02. New Doxology Anthem.wav
     Peak level 100.0 %
     Track quality 100.0 %
     Test CRC 40A7362D
     Copy CRC 40A7362D
     Accurately ripped (confidence 1)  [A86D9E27]
     Copy OK
Track  3
     Filename C:\Documents and Settings\Lenny\My Documents\03. The Lord Reigns.wav
     Peak level 100.0 %
     Track quality 100.0 %
     Test CRC E33446D5
     Copy CRC E33446D5
     Accurately ripped (confidence 1)  [BD6AA5CC]
     Copy OK
Track  4
     Filename C:\Documents and Settings\Lenny\My Documents\04. Real.wav
     Peak level 100.0 %
     Track quality 100.0 %
     Test CRC 337C998D
     Copy CRC 337C998D
     Accurately ripped (confidence 1)  [F3103892]
     Copy OK
Track  5
     Filename C:\Documents and Settings\Lenny\My Documents\05. God Of My Days.wav
     Peak level 100.0 %
     Track quality 100.0 %
     Test CRC CFE76A92
     Copy CRC CFE76A92
     Accurately ripped (confidence 1)  [8A93E176]
     Copy OK
Track  6
     Filename C:\Documents and Settings\Lenny\My Documents\06. You Are Good.wav
     Peak level 100.0 %
     Track quality 100.0 %
     Test CRC 3F9D97E1
     Copy CRC 3F9D97E1
     Accurately ripped (confidence 1)  [01A89DA1]
     Copy OK
Track  7
     Filename C:\Documents and Settings\Lenny\My Documents\07. Alabaster Jar.wav
     Peak level 100.0 %
     Track quality 100.0 %
     Test CRC E6EFCCCE
     Copy CRC E6EFCCCE
     Accurately ripped (confidence 1)  [36130FA3]
     Copy OK
Track  8
     Filename C:\Documents and Settings\Lenny\My Documents\08. We Cry Out.wav
     Peak level 100.0 %
     Track quality 100.0 %
     Test CRC E00D2275
     Copy CRC E00D2275
     Accurately ripped (confidence 1)  [016D1C77]
     Copy OK
Track  9
     Filename C:\Documents and Settings\Lenny\My Documents\09. Save Me.wav
     Peak level 100.0 %
     Track quality 100.0 %
     Test CRC CB574EA1
     Copy CRC CB574EA1
     Accurately ripped (confidence 1)  [A423CB0B]
     Copy OK
Track 10
     Filename C:\Documents and Settings\Lenny\My Documents\10. When I Speak Your Name.wav
     Peak level 100.0 %
     Track quality 100.0 %
     Test CRC 59CEAAE0
     Copy CRC 59CEAAE0
     Accurately ripped (confidence 1)  [094D51C7]
     Copy OK
Track 11
     Filename C:\Documents and Settings\Lenny\My Documents\11. We'll Make It Loud.wav
     Peak level 100.0 %
     Track quality 100.0 %
     Test CRC CF55A83B
     Copy CRC CF55A83B
     Accurately ripped (confidence 1)  [CE20DF87]
     Copy OK
Track 12
     Filename C:\Documents and Settings\Lenny\My Documents\12. Wake Up The World.wav
     Peak level 100.0 %
     Track quality 100.0 %
     Test CRC 29CB7B54
     Copy CRC 29CB7B54
     Accurately ripped (confidence 1)  [DD0E8BDC]
     Copy OK
Track 13
     Filename C:\Documents and Settings\Lenny\My Documents\13. Call Your Name.wav
     Peak level 100.0 %
     Track quality 99.9 %
     Test CRC 2D0A71B8
     Copy CRC 2D0A71B8
     Accurately ripped (confidence 1)  [C64CC9C7]
     Copy OK
Track 14
     Filename C:\Documents and Settings\Lenny\My Documents\14. Beautiful.wav
     Peak level 100.0 %
     Track quality 100.0 %
     Test CRC F4347DC8
     Copy CRC F4347DC8
     Accurately ripped (confidence 1)  [5B032912]
     Copy OK
All tracks accurately ripped
No errors occurred
End of status report
Код:
REM GENRE "Modern Worship"
REM DATE 2008
REM DISCID CF0F530E
REM COMMENT "ExactAudioCopy v0.99pb4"
PERFORMER "Gateway Worship"
TITLE "Wake Up The World"
FILE "01. New Doxology.wav" WAVE
  TRACK 01 AUDIO
    TITLE "New Doxology"
    PERFORMER "Gateway Worship"
    ISRC 000000000000
    INDEX 01 00:00:00
FILE "02. New Doxology Anthem.wav" WAVE
  TRACK 02 AUDIO
    TITLE "New Doxology Anthem"
    PERFORMER "Gateway Worship"
    ISRC 000000000000
    INDEX 01 00:00:00
FILE "03. The Lord Reigns.wav" WAVE
  TRACK 03 AUDIO
    TITLE "The Lord Reigns"
    PERFORMER "Gateway Worship"
    ISRC 000000000000
    INDEX 01 00:00:00
FILE "04. Real.wav" WAVE
  TRACK 04 AUDIO
    TITLE "Real"
    PERFORMER "Gateway Worship"
    ISRC 000000000000
    INDEX 01 00:00:00
FILE "05. God Of My Days.wav" WAVE
  TRACK 05 AUDIO
    TITLE "God Of My Days"
    PERFORMER "Gateway Worship"
    ISRC 000000000000
    INDEX 01 00:00:00
FILE "06. You Are Good.wav" WAVE
  TRACK 06 AUDIO
    TITLE "You Are Good"
    PERFORMER "Gateway Worship"
    ISRC 000000000000
    INDEX 01 00:00:00
FILE "07. Alabaster Jar.wav" WAVE
  TRACK 07 AUDIO
    TITLE "Alabaster Jar"
    PERFORMER "Gateway Worship"
    ISRC 000000000000
    INDEX 01 00:00:00
FILE "08. We Cry Out.wav" WAVE
  TRACK 08 AUDIO
    TITLE "We Cry Out"
    PERFORMER "Gateway Worship"
    ISRC 000000000000
    INDEX 01 00:00:00
FILE "09. Save Me.wav" WAVE
  TRACK 09 AUDIO
    TITLE "Save Me"
    PERFORMER "Gateway Worship"
    ISRC 000000000000
    INDEX 01 00:00:00
FILE "10. When I Speak Your Name.wav" WAVE
  TRACK 10 AUDIO
    TITLE "When I Speak Your Name"
    PERFORMER "Gateway Worship"
    ISRC 000000000000
    INDEX 01 00:00:00
FILE "11. We'll Make It Loud.wav" WAVE
  TRACK 11 AUDIO
    TITLE "We'll Make It Loud"
    PERFORMER "Gateway Worship"
    ISRC 000000000000
    INDEX 01 00:00:00
FILE "12. Wake Up The World.wav" WAVE
  TRACK 12 AUDIO
    TITLE "Wake Up The World"
    PERFORMER "Gateway Worship"
    ISRC 000000000000
    INDEX 01 00:00:00
FILE "13. Call Your Name.wav" WAVE
  TRACK 13 AUDIO
    TITLE "Call Your Name"
    PERFORMER "Gateway Worship"
    ISRC 000000000000
    INDEX 01 00:00:00
FILE "14. Beautiful.wav" WAVE
  TRACK 14 AUDIO
    TITLE "Beautiful"
    PERFORMER "Gateway Worship"
    ISRC 000000000000
    INDEX 01 00:00:00
Код:
AUDIOCHECKER v2.0 beta (build 457) - by Dester - opdester@freemail.hu
~~~~~~~~~~~~~~~~~~~~~~~~~~~~~~~~~~
-=== DO NOT EDIT THIS FILE! ===-
Path: ...\2008 - Wake Up The World
01 -=- 01. New Doxology.flac -=- CDDA (100%)
02 -=- 02. New Doxology Anthem.flac -=- CDDA (100%)
03 -=- 03. The Lord Reigns.flac -=- CDDA (100%)
04 -=- 04. Real.flac -=- CDDA (100%)
05 -=- 05. God Of My Days.flac -=- CDDA (100%)
06 -=- 06. You Are Good.flac -=- CDDA (100%)
07 -=- 07. Alabaster Jar.flac -=- CDDA (99%)
08 -=- 08. We Cry Out.flac -=- CDDA (99%)
09 -=- 09. Save Me.flac -=- CDDA (100%)
10 -=- 10. When I Speak Your Name.flac -=- CDDA (99%)
11 -=- 11. We'll Make It Loud.flac -=- CDDA (100%)
12 -=- 12. Wake Up The World.flac -=- CDDA (100%)
13 -=- 13. Call Your Name.flac -=- CDDA (100%)
14 -=- 14. Beautiful.flac -=- CDDA (100%)
Summary 99,79% CDDA
113937844


Правила, инструкции, FAQ!!!
Торрент  Добавлен [26 мар 2019, 18:49] Скачать торрент Магнет ссылка
Скачать торрент
[ Размер 38.66 КБ / Просмотров 2 ]

Статус
Проверен 
 
Размер  467.39 МБ
Приватный: Нет (DHT включён)
.torrent скачан  0
 


     Отправить личное сообщение
   
Страница 1 из 1
Показать сообщения за:  Поле сортировки  
Начать новую тему Ответить на тему


Сейчас этот форум просматривают: нет зарегистрированных пользователей и гости: 0


Вы не можете начинать темы
Вы не можете отвечать на сообщения
Вы не можете редактировать свои сообщения
Вы не можете удалять свои сообщения
Вы не можете добавлять вложения

Перейти:  
cron