Начать новую тему Ответить на тему
Статистика раздачи
Размер: 272.73 МБ | Добавлен: 26 мар 2019, 19:13 | Скачали: 0
Сидеров: 0  [0 байт/сек]    Личеров: 0  [0 байт/сек]
Пред. тема | След. тема 

Автор
Сообщение

СообщениеДобавлено: 26 мар 2019, 19:13 

Ответить с цитатой 

Esterlyn - Woven
Жанр: Christian Rock, Pop-Rock
Год издания: 2012
Издатель (лейбл): EMI CMG
Страна: US
Аудиокодек: FLAC (*.flac)
Тип рипа: tracks+.cue
Битрейт аудио: lossless
Продолжительность: 00:41:59
Источник (релизер): what.cd (riddlemaze)
Наличие сканов в содержимом раздачи: нет
Треклист:
01. Woven (0:41)
02. Holy (3:08)
03. Everyday Your Love Is New (3:41)
04. Praise the Lord (3:31)
05. We Exalt You (3:41)
06. 6.8.28 (0:57)
07. Reflexion (3:38)
08. White (4:27)
09. Psalm 23 (3:44)
10. How Great Is Your Love (5:27)
11. God of Compassion (4:18)
12. You Are the Way (4:45)
Код:
Exact Audio Copy V1.0 beta 3 from 29. August 2011
EAC extraction logfile from 8. October 2012, 14:15
Esterlyn / Woven
Used drive  : TSSTcorpCD/DVDW SH-S182M   Adapter: 0  ID: 0
Read mode               : Secure
Utilize accurate stream : Yes
Defeat audio cache      : Yes
Make use of C2 pointers : No
Read offset correction                      : 6
Overread into Lead-In and Lead-Out          : No
Fill up missing offset samples with silence : Yes
Delete leading and trailing silent blocks   : No
Null samples used in CRC calculations       : Yes
Used interface                              : Native Win32 interface for Win NT & 2000
Gap handling                                : Appended to previous track
Used output format              : User Defined Encoder
Selected bitrate                : 1024 kBit/s
Quality                         : High
Add ID3 tag                     : No
Command line compressor         : C:\Program Files (x86)\Exact Audio Copy\Flac\flac.exe
Additional command line options : -8 -V -T "ARTIST=%artist%" -T "TITLE=%title%" -T "ALBUM=%albumtitle%" -T "DATE=%year%" -T "TRACKNUMBER=%tracknr%" -T "GENRE=%genre%" -T "PERFORMER=%albuminterpret%" -T "COMPOSER=%composer%" %haslyrics%--tag-from-file=LYRICS="%lyricsfile%"%haslyrics% -T "ALBUMARTIST=%albumartist%" -T "DISCNUMBER=%cdnumber%" -T "TOTALDISCS=%totalcds%" -T "TOTALTRACKS=%numtracks%" -T "COMMENT=%comment%" %source% -o %dest%
TOC of the extracted CD
     Track |   Start  |  Length  | Start sector | End sector
    ---------------------------------------------------------
        1  |  0:00.00 |  0:41.27 |         0    |     3101
        2  |  0:41.27 |  3:08.28 |      3102    |    17229
        3  |  3:49.55 |  3:40.59 |     17230    |    33788
        4  |  7:30.39 |  3:30.69 |     33789    |    49607
        5  | 11:01.33 |  3:41.27 |     49608    |    66209
        6  | 14:42.60 |  0:57.34 |     66210    |    70518
        7  | 15:40.19 |  3:37.39 |     70519    |    86832
        8  | 19:17.58 |  4:26.52 |     86833    |   106834
        9  | 23:44.35 |  3:44.20 |    106835    |   123654
       10  | 27:28.55 |  5:26.38 |    123655    |   148142
       11  | 32:55.18 |  4:18.34 |    148143    |   167526
       12  | 37:13.52 |  4:44.65 |    167527    |   188891
Track  1
     Filename C:\Rippityrip\Esterlyn - Woven (2012) [FLAC]\01 - Woven.wav
     Pre-gap length  0:00:02.00
     Peak level 94.2 %
     Extraction speed 2.8 X
     Track quality 100.0 %
     Test CRC 34025CB6
     Copy CRC 34025CB6
     Track not present in AccurateRip database
     Copy OK
Track  2
     Filename C:\Rippityrip\Esterlyn - Woven (2012) [FLAC]\02 - Holy.wav
     Peak level 94.2 %
     Extraction speed 4.7 X
     Track quality 100.0 %
     Test CRC 32EFEB4F
     Copy CRC 32EFEB4F
     Track not present in AccurateRip database
     Copy OK
Track  3
     Filename C:\Rippityrip\Esterlyn - Woven (2012) [FLAC]\03 - Everyday Your Love Is New.wav
     Peak level 94.2 %
     Extraction speed 4.6 X
     Track quality 99.9 %
     Test CRC 0B7ECF00
     Copy CRC 0B7ECF00
     Track not present in AccurateRip database
     Copy OK
Track  4
     Filename C:\Rippityrip\Esterlyn - Woven (2012) [FLAC]\04 - Praise the Lord.wav
     Peak level 94.2 %
     Extraction speed 5.6 X
     Track quality 100.0 %
     Test CRC 364014B6
     Copy CRC 364014B6
     Track not present in AccurateRip database
     Copy OK
Track  5
     Filename C:\Rippityrip\Esterlyn - Woven (2012) [FLAC]\05 - We Exalt You.wav
     Peak level 94.2 %
     Extraction speed 5.9 X
     Track quality 100.0 %
     Test CRC 51182F86
     Copy CRC 51182F86
     Track not present in AccurateRip database
     Copy OK
Track  6
     Filename C:\Rippityrip\Esterlyn - Woven (2012) [FLAC]\06 - 6.8.28.wav
     Peak level 94.2 %
     Extraction speed 3.1 X
     Track quality 99.8 %
     Test CRC 6553D87D
     Copy CRC 6553D87D
     Track not present in AccurateRip database
     Copy OK
Track  7
     Filename C:\Rippityrip\Esterlyn - Woven (2012) [FLAC]\07 - Reflexion.wav
     Peak level 94.2 %
     Extraction speed 6.3 X
     Track quality 100.0 %
     Test CRC 48E9DAC0
     Copy CRC 48E9DAC0
     Track not present in AccurateRip database
     Copy OK
Track  8
     Filename C:\Rippityrip\Esterlyn - Woven (2012) [FLAC]\08 - White.wav
     Peak level 94.2 %
     Extraction speed 6.8 X
     Track quality 100.0 %
     Test CRC 40DE7E75
     Copy CRC 40DE7E75
     Track not present in AccurateRip database
     Copy OK
Track  9
     Filename C:\Rippityrip\Esterlyn - Woven (2012) [FLAC]\09 - Psalm 23.wav
     Peak level 94.2 %
     Extraction speed 7.0 X
     Track quality 100.0 %
     Test CRC 5A3E926D
     Copy CRC 5A3E926D
     Track not present in AccurateRip database
     Copy OK
Track 10
     Filename C:\Rippityrip\Esterlyn - Woven (2012) [FLAC]\10 - How Great Is Your Love.wav
     Peak level 94.2 %
     Extraction speed 7.6 X
     Track quality 100.0 %
     Test CRC E1006383
     Copy CRC E1006383
     Track not present in AccurateRip database
     Copy OK
Track 11
     Filename C:\Rippityrip\Esterlyn - Woven (2012) [FLAC]\11 - God of Compassion.wav
     Peak level 94.2 %
     Extraction speed 7.7 X
     Track quality 100.0 %
     Test CRC 5427ABF3
     Copy CRC 5427ABF3
     Track not present in AccurateRip database
     Copy OK
Track 12
     Filename C:\Rippityrip\Esterlyn - Woven (2012) [FLAC]\12 - You Are the Way.wav
     Peak level 94.2 %
     Extraction speed 7.3 X
     Track quality 99.9 %
     Test CRC F90CD78A
     Copy CRC F90CD78A
     Track not present in AccurateRip database
     Copy OK
None of the tracks are present in the AccurateRip database
No errors occurred
End of status report
---- CUETools DB Plugin V2.1.3
[CTDB TOCID: uHS76L9.XxSmpn1pepaJ3CU76do-] disk not present in database, Submit result: uHS76L9.XxSmpn1pepaJ3CU76do- has been uploaded
==== Log checksum AD2F611CFC82478678B3471386480EAE660C0BEC359BA34C3B6F0FC5FE564040 ====
Код:
REM GENRE "Christian Rock"
REM DATE 2012
REM DISCID 9909D60C
REM COMMENT "ExactAudioCopy v1.0b3"
PERFORMER "Esterlyn"
TITLE "Woven"
FILE "01 - Woven.wav" WAVE
  TRACK 01 AUDIO
    PERFORMER "Esterlyn"
    TITLE "Woven"
    INDEX 01 00:00:00
FILE "02 - Holy.wav" WAVE
  TRACK 02 AUDIO
    PERFORMER "Esterlyn"
    TITLE "Holy"
    INDEX 01 00:00:00
FILE "03 - Everyday Your Love Is New.wav" WAVE
  TRACK 03 AUDIO
    PERFORMER "Esterlyn"
    TITLE "Everyday Your Love Is New"
    INDEX 01 00:00:00
FILE "04 - Praise the Lord.wav" WAVE
  TRACK 04 AUDIO
    PERFORMER "Esterlyn"
    TITLE "Praise the Lord"
    INDEX 01 00:00:00
FILE "05 - We Exalt You.wav" WAVE
  TRACK 05 AUDIO
    PERFORMER "Esterlyn"
    TITLE "We Exalt You"
    INDEX 01 00:00:00
FILE "06 - 6.8.28.wav" WAVE
  TRACK 06 AUDIO
    PERFORMER "Esterlyn"
    TITLE "6.8.28"
    INDEX 01 00:00:00
FILE "07 - Reflexion.wav" WAVE
  TRACK 07 AUDIO
    PERFORMER "Esterlyn"
    TITLE "Reflexion"
    INDEX 01 00:00:00
FILE "08 - White.wav" WAVE
  TRACK 08 AUDIO
    PERFORMER "Esterlyn"
    TITLE "White"
    INDEX 01 00:00:00
FILE "09 - Psalm 23.wav" WAVE
  TRACK 09 AUDIO
    PERFORMER "Esterlyn"
    TITLE "Psalm 23"
    INDEX 01 00:00:00
FILE "10 - How Great Is Your Love.wav" WAVE
  TRACK 10 AUDIO
    PERFORMER "Esterlyn"
    TITLE "How Great Is Your Love"
    INDEX 01 00:00:00
FILE "11 - God of Compassion.wav" WAVE
  TRACK 11 AUDIO
    PERFORMER "Esterlyn"
    TITLE "God of Compassion"
    INDEX 01 00:00:00
FILE "12 - You Are the Way.wav" WAVE
  TRACK 12 AUDIO
    PERFORMER "Esterlyn"
    TITLE "You Are the Way"
    INDEX 01 00:00:00
Код:
AUDIOCHECKER v2.0 beta (build 457) - by Dester - opdester@freemail.hu
~~~~~~~~~~~~~~~~~~~~~~~~~~~~~~~~~~
-=== DO NOT EDIT THIS FILE! ===-
Path: ...\2012 - Woven
01 -=- 01 - Woven.flac -=- CDDA (100%)
02 -=- 02 - Holy.flac -=- CDDA (100%)
03 -=- 03 - Everyday Your Love Is New.flac -=- CDDA (100%)
04 -=- 04 - Praise the Lord.flac -=- MPEG (95%)
05 -=- 05 - We Exalt You.flac -=- CDDA (100%)
06 -=- 06 - 6.8.28.flac -=- CDDA (100%)
07 -=- 07 - Reflexion.flac -=- CDDA (100%)
08 -=- 08 - White.flac -=- CDDA (100%)
09 -=- 09 - Psalm 23.flac -=- CDDA (100%)
10 -=- 10 - How Great Is Your Love.flac -=- CDDA (100%)
11 -=- 11 - God of Compassion.flac -=- CDDA (100%)
12 -=- 12 - You Are the Way.flac -=- CDDA (100%)
Summary 92,08% CDDA
145855204


Правила, инструкции, FAQ!!!
Торрент  Добавлен [26 мар 2019, 19:13] Скачать торрент Магнет ссылка
Скачать торрент
[ Размер 23.22 КБ / Просмотров 1 ]

Статус
Проверен 
 
Размер  272.73 МБ
Приватный: Нет (DHT включён)
.torrent скачан  0
 


     Отправить личное сообщение
   
Страница 1 из 1
Показать сообщения за:  Поле сортировки  
Начать новую тему Ответить на тему


Сейчас этот форум просматривают: нет зарегистрированных пользователей и гости: 0


Вы не можете начинать темы
Вы не можете отвечать на сообщения
Вы не можете редактировать свои сообщения
Вы не можете удалять свои сообщения
Вы не можете добавлять вложения

Перейти:  
cron