Начать новую тему Ответить на тему
Статистика раздачи
Размер: 6.07 ГБ | Добавлен: 26 мар 2019, 21:02 | Скачали: 0
Сидеров: 0  [0 байт/сек]    Личеров: 0  [0 байт/сек]
Пред. тема | След. тема 

Автор
Сообщение

СообщениеДобавлено: 26 мар 2019, 21:02 

Ответить с цитатой 

Newsboys - Дискография (1988-2011)


Жанр: Christian Rock | Pop Rock | CCM || Год выпуска дисков: 1988-2011 || Страна: Mooloolaba, Queensland, Australia || Аудио кодек: FLAC || Тип рипа: tracks+.cue || Битрейт аудио: lossless || Источник: what.cd
Members:
• Michael Tait - Lead Vocals
• Duncan Phillips - Drums
• Jeff Frankenstein - Keys, Bass, Vox
• Jody Davis - Guitars, Vocals
Studio Albums:
Источник: what.cd (tocy777)
Издатель (лейбл): Refuge Records
Продолжительность: 38:51
Трэклист:
01. I Got Your Number (4:45)
02. Listen for the Shout (3:21)
03. Lighthouse (3:17)
04. It's Joy (3:48)
05. You're Still There (3:05)
06. Read All About It (4:45)
07. Hold On Tight (3:56)
08. Never Surrender (4:09)
09. The Big Time (3:56)
10. He's Coming Back (3:48)
Код:
REM GENRE "Christian Rock"
REM DATE 1988
REM DISCID 94091B0A
REM COMMENT "ExactAudioCopy v0.99pb5"
FILE "Newsboys - 1988 - Read All About It [FLAC]\01 I Got Your Number.flac" WAVE
  TRACK 01 AUDIO
    INDEX 01 00:00:00
  TRACK 02 AUDIO
    INDEX 00 04:42:65
FILE "Newsboys - 1988 - Read All About It [FLAC]\02 Listen for the Shout.flac" WAVE
    INDEX 01 00:00:00
  TRACK 03 AUDIO
    INDEX 00 03:18:50
FILE "Newsboys - 1988 - Read All About It [FLAC]\03 Lighthouse.flac" WAVE
    INDEX 01 00:00:00
  TRACK 04 AUDIO
    INDEX 00 03:15:16
FILE "Newsboys - 1988 - Read All About It [FLAC]\04 It's Joy.flac" WAVE
    INDEX 01 00:00:00
  TRACK 05 AUDIO
    INDEX 00 03:46:12
FILE "Newsboys - 1988 - Read All About It [FLAC]\05 You're Still There.flac" WAVE
    INDEX 01 00:00:00
  TRACK 06 AUDIO
    INDEX 00 03:03:32
FILE "Newsboys - 1988 - Read All About It [FLAC]\06 Read All About It.flac" WAVE
    INDEX 01 00:00:00
  TRACK 07 AUDIO
    INDEX 00 04:43:31
FILE "Newsboys - 1988 - Read All About It [FLAC]\07 Hold On Tight.flac" WAVE
    INDEX 01 00:00:00
  TRACK 08 AUDIO
    INDEX 00 03:54:08
FILE "Newsboys - 1988 - Read All About It [FLAC]\08 Never Surrender.flac" WAVE
    INDEX 01 00:00:00
  TRACK 09 AUDIO
    INDEX 00 04:07:20
FILE "Newsboys - 1988 - Read All About It [FLAC]\09 The Big Time.flac" WAVE
    INDEX 01 00:00:00
  TRACK 10 AUDIO
    INDEX 00 03:54:16
FILE "Newsboys - 1988 - Read All About It [FLAC]\10 He's Coming Back.flac" WAVE
    INDEX 01 00:00:00
Код:
Exact Audio Copy V0.99 prebeta 5 from 4. May 2009
EAC extraction logfile from 1. February 2010, 8:41
Newsboys / Read All About It
Used drive  : TSSTcorpCD/DVDW SH-S183L   Adapter: 3  ID: 0
Read mode               : Secure
Utilize accurate stream : Yes
Defeat audio cache      : Yes
Make use of C2 pointers : No
Read offset correction                      : 6
Overread into Lead-In and Lead-Out          : No
Fill up missing offset samples with silence : Yes
Delete leading and trailing silent blocks   : No
Null samples used in CRC calculations       : Yes
Used interface                              : Native Win32 interface for Win NT & 2000
Gap handling                                : Appended to previous track
Used output format              : User Defined Encoder
Selected bitrate                : 128 kBit/s
Quality                         : High
Add ID3 tag                     : No
Command line compressor         : C:\Program Files\Exact Audio Copy\Flac\flac.exe
Additional command line options : -V -8 -T "artist=%a" -T "title=%t" -T "album=%g" -T "date=%y" -T "tracknumber=%n" -T "genre=%m" %s
TOC of the extracted CD
     Track |   Start  |  Length  | Start sector | End sector
    ---------------------------------------------------------
        1  |  0:00.00 |  4:44.62 |         0    |    21361
        2  |  4:44.62 |  3:20.47 |     21362    |    36408
        3  |  8:05.34 |  3:17.13 |     36409    |    51196
        4  | 11:22.47 |  3:48.10 |     51197    |    68306
        5  | 15:10.57 |  3:05.31 |     68307    |    82212
        6  | 18:16.13 |  4:45.30 |     82213    |   103617
        7  | 23:01.43 |  3:56.06 |    103618    |   121323
        8  | 26:57.49 |  4:09.19 |    121324    |   140017
        9  | 31:06.68 |  3:56.14 |    140018    |   157731
       10  | 35:03.07 |  3:48.25 |    157732    |   174856
Track  1
     Filename C:\Users\Justice\CD Rips\FLAC\Newsboys - 1988 - Read All About It [FLAC]\01 I Got Your Number.wav
     Pre-gap length  0:00:02.00
     Peak level 75.5 %
     Track quality 100.0 %
     Test CRC 5542BCB2
     Copy CRC 5542BCB2
     Track not present in AccurateRip database
     Copy OK
Track  2
     Filename C:\Users\Justice\CD Rips\FLAC\Newsboys - 1988 - Read All About It [FLAC]\02 Listen for the Shout.wav
     Pre-gap length  0:00:01.96
     Peak level 66.2 %
     Track quality 100.0 %
     Test CRC 9EE73235
     Copy CRC 9EE73235
     Track not present in AccurateRip database
     Copy OK
Track  3
     Filename C:\Users\Justice\CD Rips\FLAC\Newsboys - 1988 - Read All About It [FLAC]\03 Lighthouse.wav
     Pre-gap length  0:00:01.96
     Peak level 86.8 %
     Track quality 100.0 %
     Test CRC 58647DD2
     Copy CRC 58647DD2
     Track not present in AccurateRip database
     Copy OK
Track  4
     Filename C:\Users\Justice\CD Rips\FLAC\Newsboys - 1988 - Read All About It [FLAC]\04 It's Joy.wav
     Pre-gap length  0:00:01.96
     Peak level 65.1 %
     Track quality 99.9 %
     Test CRC 8CE05441
     Copy CRC 8CE05441
     Track not present in AccurateRip database
     Copy OK
Track  5
     Filename C:\Users\Justice\CD Rips\FLAC\Newsboys - 1988 - Read All About It [FLAC]\05 You're Still There.wav
     Pre-gap length  0:00:01.97
     Peak level 79.6 %
     Track quality 100.0 %
     Test CRC 4B97E70D
     Copy CRC 4B97E70D
     Track not present in AccurateRip database
     Copy OK
Track  6
     Filename C:\Users\Justice\CD Rips\FLAC\Newsboys - 1988 - Read All About It [FLAC]\06 Read All About It.wav
     Pre-gap length  0:00:01.98
     Peak level 63.5 %
     Track quality 100.0 %
     Test CRC 33349F8C
     Copy CRC 33349F8C
     Track not present in AccurateRip database
     Copy OK
Track  7
     Filename C:\Users\Justice\CD Rips\FLAC\Newsboys - 1988 - Read All About It [FLAC]\07 Hold On Tight.wav
     Pre-gap length  0:00:01.98
     Peak level 67.6 %
     Track quality 99.9 %
     Test CRC 237ACF49
     Copy CRC 237ACF49
     Track not present in AccurateRip database
     Copy OK
Track  8
     Filename C:\Users\Justice\CD Rips\FLAC\Newsboys - 1988 - Read All About It [FLAC]\08 Never Surrender.wav
     Pre-gap length  0:00:01.97
     Peak level 59.2 %
     Track quality 100.0 %
     Test CRC 753233E0
     Copy CRC 753233E0
     Track not present in AccurateRip database
     Copy OK
Track  9
     Filename C:\Users\Justice\CD Rips\FLAC\Newsboys - 1988 - Read All About It [FLAC]\09 The Big Time.wav
     Pre-gap length  0:00:01.98
     Peak level 60.8 %
     Track quality 100.0 %
     Test CRC 120F662F
     Copy CRC 120F662F
     Track not present in AccurateRip database
     Copy OK
Track 10
     Filename C:\Users\Justice\CD Rips\FLAC\Newsboys - 1988 - Read All About It [FLAC]\10 He's Coming Back.wav
     Pre-gap length  0:00:01.97
     Peak level 71.6 %
     Track quality 100.0 %
     Test CRC 2752F8A2
     Copy CRC 2752F8A2
     Track not present in AccurateRip database
     Copy OK
None of the tracks are present in the AccurateRip database
No errors occurred
End of status report
#777Источник: what.cd (mfranko88)
Издатель (лейбл): Star Song Communications
Продолжительность: 36:37
Трэклист:
01. Stand Up For Jesus (3:48)
02. In The End (3:15)
03. Simple Man (3:43)
04. All I Can See (4:51)
05. Ten Thousand Miles (3:54)
06. Something's Missing (2:45)
07. Get Up For Love (3:16)
08. Sea of Love (3:14)
09. Love You Tomorrow (3:35)
10. Victory (4:16)
Код:
REM GENRE "Christian Rock"
REM DATE 1990
REM DISCID 8208950A
REM COMMENT "ExactAudioCopy v1.0b3"
PERFORMER "Newsboys"
TITLE "Hell Is For Wimps"
FILE "01 - Stand Up For Jesus.wav" WAVE
  TRACK 01 AUDIO
    TITLE "Stand Up For Jesus"
    PERFORMER "Newsboys"
    INDEX 01 00:00:00
  TRACK 02 AUDIO
    TITLE "In The End"
    PERFORMER "Newsboys"
    INDEX 00 03:47:35
FILE "02 - In The End.wav" WAVE
    INDEX 01 00:00:00
FILE "03 - Simple Man.wav" WAVE
  TRACK 03 AUDIO
    TITLE "Simple Man"
    PERFORMER "Newsboys"
    INDEX 01 00:00:00
FILE "04 - All I Can See.wav" WAVE
  TRACK 04 AUDIO
    TITLE "All I Can See"
    PERFORMER "Newsboys"
    INDEX 01 00:00:00
FILE "05 - Ten Thousand Miles.wav" WAVE
  TRACK 05 AUDIO
    TITLE "Ten Thousand Miles"
    PERFORMER "Newsboys"
    INDEX 01 00:00:00
FILE "06 - Something's Missing.wav" WAVE
  TRACK 06 AUDIO
    TITLE "Something's Missing"
    PERFORMER "Newsboys"
    INDEX 01 00:00:00
FILE "07 - Get Up For Love.wav" WAVE
  TRACK 07 AUDIO
    TITLE "Get Up For Love"
    PERFORMER "Newsboys"
    INDEX 01 00:00:00
FILE "08 - Sea of Love.wav" WAVE
  TRACK 08 AUDIO
    TITLE "Sea of Love"
    PERFORMER "Newsboys"
    INDEX 01 00:00:00
  TRACK 09 AUDIO
    TITLE "Love You Tomorrow"
    PERFORMER "Newsboys"
    INDEX 00 03:13:30
FILE "09 - Love You Tomorrow.wav" WAVE
    INDEX 01 00:00:00
FILE "10 - Victory.wav" WAVE
  TRACK 10 AUDIO
    TITLE "Victory"
    PERFORMER "Newsboys"
    INDEX 01 00:00:00
Код:
Exact Audio Copy V1.0 beta 3 from 29. August 2011
EAC extraction logfile from 11. October 2012, 14:30
Newsboys / Hell Is For Wimps
Used drive  : hp      DVDRAM GT31L   Adapter: 0  ID: 1
Read mode               : Secure
Utilize accurate stream : Yes
Defeat audio cache      : Yes
Make use of C2 pointers : No
Read offset correction                      : 103
Overread into Lead-In and Lead-Out          : No
Fill up missing offset samples with silence : Yes
Delete leading and trailing silent blocks   : No
Null samples used in CRC calculations       : Yes
Used interface                              : Native Win32 interface for Win NT & 2000
Gap handling                                : Appended to previous track
Used output format              : User Defined Encoder
Selected bitrate                : 1024 kBit/s
Quality                         : High
Add ID3 tag                     : No
Command line compressor         : C:\Program Files (x86)\FLAC\flac.exe
Additional command line options : -8 -V -T "ARTIST=%artist%" -T "TITLE=%title%" -T "ALBUM=%albumtitle%" -T "DATE=%year%" -T "TRACKNUMBER=%tracknr%" -T "GENRE=%genre%" -T "PERFORMER=%albuminterpret%" -T "COMPOSER=%composer%" %haslyrics%--tag-from-file=LYRICS="%lyricsfile%"%haslyrics% -T "ALBUMARTIST=%albumartist%" -T "DISCNUMBER=%cdnumber%" -T "TOTALDISCS=%totalcds%" -T "TOTALTRACKS=%numtracks%" -T "COMMENT=%comment%" %source% -o %dest%
TOC of the extracted CD
     Track |   Start  |  Length  | Start sector | End sector
    ---------------------------------------------------------
        1  |  0:00.00 |  3:48.15 |         0    |    17114
        2  |  3:48.15 |  3:14.70 |     17115    |    31734
        3  |  7:03.10 |  3:42.40 |     31735    |    48424
        4  | 10:45.50 |  4:51.17 |     48425    |    70266
        5  | 15:36.67 |  3:54.15 |     70267    |    87831
        6  | 19:31.07 |  2:45.35 |     87832    |   100241
        7  | 22:16.42 |  3:15.68 |    100242    |   114934
        8  | 25:32.35 |  3:14.00 |    114935    |   129484
        9  | 28:46.35 |  3:34.70 |    129485    |   145604
       10  | 32:21.30 |  4:16.27 |    145605    |   164831
Track  1
     Filename C:\EAC\Newsboys - Hell Is For Wimps (1990) [FLAC]\01 - Stand Up For Jesus.wav
     Pre-gap length  0:00:02.00
     Peak level 79.6 %
     Extraction speed 1.2 X
     Track quality 100.0 %
     Test CRC 89C23ED1
     Copy CRC 89C23ED1
     Accurately ripped (confidence 4)  [5ABAE09C]  (AR v1)
     Copy OK
Track  2
     Filename C:\EAC\Newsboys - Hell Is For Wimps (1990) [FLAC]\02 - In The End.wav
     Pre-gap length  0:00:00.73
     Peak level 79.8 %
     Extraction speed 1.3 X
     Track quality 100.0 %
     Test CRC 27985930
     Copy CRC 27985930
     Accurately ripped (confidence 4)  [FEEE9F65]  (AR v1)
     Copy OK
Track  3
     Filename C:\EAC\Newsboys - Hell Is For Wimps (1990) [FLAC]\03 - Simple Man.wav
     Peak level 80.0 %
     Extraction speed 1.3 X
     Track quality 100.0 %
     Test CRC FF2AF566
     Copy CRC FF2AF566
     Accurately ripped (confidence 4)  [F72EFC0F]  (AR v1)
     Copy OK
Track  4
     Filename C:\EAC\Newsboys - Hell Is For Wimps (1990) [FLAC]\04 - All I Can See.wav
     Peak level 79.8 %
     Extraction speed 1.6 X
     Track quality 100.0 %
     Test CRC 6E233324
     Copy CRC 6E233324
     Accurately ripped (confidence 4)  [1D57E242]  (AR v1)
     Copy OK
Track  5
     Filename C:\EAC\Newsboys - Hell Is For Wimps (1990) [FLAC]\05 - Ten Thousand Miles.wav
     Peak level 79.8 %
     Extraction speed 1.6 X
     Track quality 100.0 %
     Test CRC 860123F0
     Copy CRC 860123F0
     Accurately ripped (confidence 4)  [2BEB49C6]  (AR v1)
     Copy OK
Track  6
     Filename C:\EAC\Newsboys - Hell Is For Wimps (1990) [FLAC]\06 - Something's Missing.wav
     Peak level 79.5 %
     Extraction speed 1.7 X
     Track quality 100.0 %
     Test CRC 99B8B637
     Copy CRC 99B8B637
     Accurately ripped (confidence 4)  [A6F4321F]  (AR v1)
     Copy OK
Track  7
     Filename C:\EAC\Newsboys - Hell Is For Wimps (1990) [FLAC]\07 - Get Up For Love.wav
     Peak level 80.1 %
     Extraction speed 1.8 X
     Track quality 100.0 %
     Test CRC DACA14DC
     Copy CRC DACA14DC
     Accurately ripped (confidence 4)  [108C4E7B]  (AR v1)
     Copy OK
Track  8
     Filename C:\EAC\Newsboys - Hell Is For Wimps (1990) [FLAC]\08 - Sea of Love.wav
     Peak level 79.8 %
     Extraction speed 1.8 X
     Track quality 100.0 %
     Test CRC EFD06D12
     Copy CRC EFD06D12
     Accurately ripped (confidence 4)  [77B8BC63]  (AR v1)
     Copy OK
Track  9
     Filename C:\EAC\Newsboys - Hell Is For Wimps (1990) [FLAC]\09 - Love You Tomorrow.wav
     Pre-gap length  0:00:00.60
     Peak level 79.8 %
     Extraction speed 1.9 X
     Track quality 100.0 %
     Test CRC 0CE1A45F
     Copy CRC 0CE1A45F
     Accurately ripped (confidence 4)  [B61F79AC]  (AR v1)
     Copy OK
Track 10
     Filename C:\EAC\Newsboys - Hell Is For Wimps (1990) [FLAC]\10 - Victory.wav
     Peak level 80.1 %
     Extraction speed 2.1 X
     Track quality 100.0 %
     Test CRC 0F8DCBE3
     Copy CRC 0F8DCBE3
     Accurately ripped (confidence 4)  [4A425FF0]  (AR v1)
     Copy OK
All tracks accurately ripped
No errors occurred
End of status report
---- CUETools DB Plugin V2.1.3
[CTDB TOCID: IAphc_AEECE1ini7vYQAAFF9Uws-] found, Submit result: IAphc_AEECE1ini7vYQAAFF9Uws- has been confirmed
[b23bbeed] (1/1) Accurately ripped
==== Log checksum 53C2F3AE4D0603DEB40BC4A7F9B218A7B641CFD3E20E27D02485659649C7FB82 ====
#777Источник: what.cd (Dan33185)
Издатель (лейбл): Star Song Communications
Продолжительность: 40:38
Трэклист:
01. Kingdom Man (3:06)
02. You and Me (3:16)
03. One Heart (4:41)
04. Turn (3:29)
05. Precious Love (5:46)
06. Taste and See (3:03)
07. Not Stand Silent (2:31)
08. Sing Aloud (3:07)
09. Stay With Me (5:20)
10. Isreal (2:52)
11. Taste and See (Reprise) (3:29)
Код:
REM GENRE Rock
REM DATE 1991
REM DISCID 9209860B
REM COMMENT "ExactAudioCopy v0.99pb5"
FILE "01-Newsboys-Boys Will Be Boyz-Kingdom Man.wav" WAVE
  TRACK 01 AUDIO
    INDEX 01 00:00:00
  TRACK 02 AUDIO
    INDEX 00 03:06:05
FILE "02-Newsboys-Boys Will Be Boyz-You and Me.wav" WAVE
    INDEX 01 00:00:00
  TRACK 03 AUDIO
    INDEX 00 03:15:08
FILE "03-Newsboys-Boys Will Be Boyz-One Heart.wav" WAVE
    INDEX 01 00:00:00
  TRACK 04 AUDIO
    INDEX 00 04:41:13
FILE "04-Newsboys-Boys Will Be Boyz-Turn.wav" WAVE
    INDEX 01 00:00:00
  TRACK 05 AUDIO
    INDEX 00 03:28:35
FILE "05-Newsboys-Boys Will Be Boyz-Precious Love.wav" WAVE
    INDEX 01 00:00:00
  TRACK 06 AUDIO
    INDEX 00 05:44:63
FILE "06-Newsboys-Boys Will Be Boyz-Taste and See.wav" WAVE
    INDEX 01 00:00:00
  TRACK 07 AUDIO
    INDEX 00 03:01:40
FILE "07-Newsboys-Boys Will Be Boyz-Not Stand Silent.wav" WAVE
    INDEX 01 00:00:00
FILE "08-Newsboys-Boys Will Be Boyz-Sing Aloud.wav" WAVE
  TRACK 08 AUDIO
    INDEX 01 00:00:00
  TRACK 09 AUDIO
    INDEX 00 03:06:63
FILE "09-Newsboys-Boys Will Be Boyz-Stay With Me.wav" WAVE
    INDEX 01 00:00:00
FILE "10-Newsboys-Boys Will Be Boyz-Isreal.wav" WAVE
  TRACK 10 AUDIO
    INDEX 01 00:00:00
FILE "11-Newsboys-Boys Will Be Boyz-Taste and See (Reprise).wav" WAVE
  TRACK 11 AUDIO
    INDEX 01 00:00:00
Код:
Exact Audio Copy V0.99 prebeta 5 from 4. May 2009
EAC extraction logfile from 1. March 2011, 20:50
Newsboys / Boys Will Be Boyz
Used drive  : TSSTcorpCDDVDW SH-S202J   Adapter: 0  ID: 1
Read mode               : Secure
Utilize accurate stream : Yes
Defeat audio cache      : Yes
Make use of C2 pointers : No
Read offset correction                      : 6
Overread into Lead-In and Lead-Out          : No
Fill up missing offset samples with silence : Yes
Delete leading and trailing silent blocks   : No
Null samples used in CRC calculations       : Yes
Used interface                              : Native Win32 interface for Win NT & 2000
Gap handling                                : Appended to previous track
Used output format              : User Defined Encoder
Selected bitrate                : 768 kBit/s
Quality                         : High
Add ID3 tag                     : No
Command line compressor         : C:\Program Files\Exact Audio Copy\Flac\flac.exe
Additional command line options : -V -8 -T "artist=%a" -T "title=%t" -T "album=%g" -T "date=%y" -T "tracknumber=%n" -T "genre=%m" %s
TOC of the extracted CD
     Track |   Start  |  Length  | Start sector | End sector
    ---------------------------------------------------------
        1  |  0:00.00 |  3:06.22 |         0    |    13971
        2  |  3:06.22 |  3:15.55 |     13972    |    28651
        3  |  6:22.02 |  4:41.15 |     28652    |    49741
        4  | 11:03.17 |  3:28.45 |     49742    |    65386
        5  | 14:31.62 |  5:45.50 |     65387    |    91311
        6  | 20:17.37 |  3:02.50 |     91312    |   105011
        7  | 23:20.12 |  2:30.55 |    105012    |   116316
        8  | 25:50.67 |  3:07.03 |    116317    |   130344
        9  | 28:57.70 |  5:19.42 |    130345    |   154311
       10  | 34:17.37 |  2:52.20 |    154312    |   167231
       11  | 37:09.57 |  3:28.55 |    167232    |   182886
Track  1
     Filename C:\EAC Rips\01-Newsboys-Boys Will Be Boyz-Kingdom Man.wav
     Pre-gap length  0:00:02.00
     Peak level 93.5 %
     Track quality 99.9 %
     Test CRC 2B8D492F
     Copy CRC 2B8D492F
     Cannot be verified as accurate (confidence 1)  [35587B5F], AccurateRip returned [C37DF20D]
     Copy OK
Track  2
     Filename C:\EAC Rips\02-Newsboys-Boys Will Be Boyz-You and Me.wav
     Pre-gap length  0:00:00.22
     Peak level 83.3 %
     Track quality 100.0 %
     Test CRC 7A0CC57D
     Copy CRC 7A0CC57D
     Cannot be verified as accurate (confidence 1)  [E414B631], AccurateRip returned [FA94D8C9]
     Copy OK
Track  3
     Filename C:\EAC Rips\03-Newsboys-Boys Will Be Boyz-One Heart.wav
     Pre-gap length  0:00:00.62
     Peak level 96.8 %
     Track quality 100.0 %
     Test CRC 9FD74EDD
     Copy CRC 9FD74EDD
     Cannot be verified as accurate (confidence 1)  [E635418B], AccurateRip returned [87F39D46]
     Copy OK
Track  4
     Filename C:\EAC Rips\04-Newsboys-Boys Will Be Boyz-Turn.wav
     Pre-gap length  0:00:00.02
     Peak level 95.7 %
     Track quality 100.0 %
     Test CRC FD294DA8
     Copy CRC FD294DA8
     Cannot be verified as accurate (confidence 1)  [F296EA4E], AccurateRip returned [FEECAA5A]
     Copy OK
Track  5
     Filename C:\EAC Rips\05-Newsboys-Boys Will Be Boyz-Precious Love.wav
     Pre-gap length  0:00:00.13
     Peak level 100.0 %
     Track quality 99.9 %
     Test CRC E88A116A
     Copy CRC E88A116A
     Cannot be verified as accurate (confidence 1)  [9DBAAA5D], AccurateRip returned [F9445560]
     Copy OK
Track  6
     Filename C:\EAC Rips\06-Newsboys-Boys Will Be Boyz-Taste and See.wav
     Pre-gap length  0:00:00.82
     Peak level 95.1 %
     Track quality 100.0 %
     Test CRC 87B32940
     Copy CRC 87B32940
     Cannot be verified as accurate (confidence 1)  [D0A3DACB], AccurateRip returned [EA71AD76]
     Copy OK
Track  7
     Filename C:\EAC Rips\07-Newsboys-Boys Will Be Boyz-Not Stand Silent.wav
     Pre-gap length  0:00:01.13
     Peak level 94.6 %
     Track quality 99.9 %
     Test CRC 6841A38B
     Copy CRC 6841A38B
     Cannot be verified as accurate (confidence 1)  [17167EA1], AccurateRip returned [E45A6DE0]
     Copy OK
Track  8
     Filename C:\EAC Rips\08-Newsboys-Boys Will Be Boyz-Sing Aloud.wav
     Peak level 100.0 %
     Track quality 100.0 %
     Test CRC C2C53CA6
     Copy CRC C2C53CA6
     Cannot be verified as accurate (confidence 1)  [1C912D39], AccurateRip returned [85A62454]
     Copy OK
Track  9
     Filename C:\EAC Rips\09-Newsboys-Boys Will Be Boyz-Stay With Me.wav
     Pre-gap length  0:00:00.20
     Peak level 94.9 %
     Track quality 100.0 %
     Test CRC CC88A8D3
     Copy CRC CC88A8D3
     Cannot be verified as accurate (confidence 1)  [2F604CB3], AccurateRip returned [F5C8C12D]
     Copy OK
Track 10
     Filename C:\EAC Rips\10-Newsboys-Boys Will Be Boyz-Isreal.wav
     Peak level 100.0 %
     Track quality 100.0 %
     Test CRC 9EDBC1ED
     Copy CRC 9EDBC1ED
     Cannot be verified as accurate (confidence 1)  [11DD82FB], AccurateRip returned [C264EEF0]
     Copy OK
Track 11
     Filename C:\EAC Rips\11-Newsboys-Boys Will Be Boyz-Taste and See (Reprise).wav
     Peak level 95.9 %
     Track quality 100.0 %
     Test CRC E5F9A71D
     Copy CRC E5F9A71D
     Cannot be verified as accurate (confidence 1)  [10AEE2D5], AccurateRip returned [CA48C489]
     Copy OK
No tracks could be verified as accurate
You may have a different pressing from the one(s) in the database
No errors occurred
End of status report
#777Источник: what.cd (Dan33185)
Издатель (лейбл): Star Song Communications
Продолжительность: 42:12
Трэклист:
01. I Cannot Get You Out Of My System (3:18)
02. I'm Not Ashamed (3:53)
03. Where You Belong/Turn Your Eyes Upon Jesus (5:33)
04. Upon This Rock (4:40)
05. Strong Love (4:03)
06. Dear Shame (3:51)
07. Boycott Hell (3:42)
08. We Come Together (4:36)
09. Love Comes True (3:32)
10. Lost The Sky Again (5:05)
Код:
REM GENRE "Christian Rock"
REM DATE 1992
REM DISCID 7209E40A
REM COMMENT "ExactAudioCopy v0.99pb5"
FILE "01-Newsboys-Not Ashamed-I Cannot Get You Out Of My System.wav" WAVE
  TRACK 01 AUDIO
    PREGAP 00:00:32
    INDEX 01 00:00:00
  TRACK 02 AUDIO
    INDEX 00 03:18:02
FILE "02-Newsboys-Not Ashamed-I'm Not Ashamed.wav" WAVE
    INDEX 01 00:00:00
  TRACK 03 AUDIO
    INDEX 00 03:52:40
FILE "03-Newsboys-Not Ashamed-Where You Belong,Turn Your Eyes Upon Jesus.wav" WAVE
    INDEX 01 00:00:00
  TRACK 04 AUDIO
    INDEX 00 05:31:07
FILE "04-Newsboys-Not Ashamed-Upon This Rock.wav" WAVE
    INDEX 01 00:00:00
  TRACK 05 AUDIO
    INDEX 00 04:39:35
FILE "05-Newsboys-Not Ashamed-Strong Love.wav" WAVE
    INDEX 01 00:00:00
  TRACK 06 AUDIO
    INDEX 00 04:01:29
FILE "06-Newsboys-Not Ashamed-Dear Shame.wav" WAVE
    INDEX 01 00:00:00
  TRACK 07 AUDIO
    INDEX 00 03:50:50
FILE "07-Newsboys-Not Ashamed-Boycott Hell.wav" WAVE
    INDEX 01 00:00:00
  TRACK 08 AUDIO
    INDEX 00 03:41:24
FILE "08-Newsboys-Not Ashamed-We Come Together.wav" WAVE
    INDEX 01 00:00:00
  TRACK 09 AUDIO
    INDEX 00 04:35:67
FILE "09-Newsboys-Not Ashamed-Love Comes True.wav" WAVE
    INDEX 01 00:00:00
  TRACK 10 AUDIO
    INDEX 00 03:31:24
FILE "10-Newsboys-Not Ashamed-Lost The Sky Again.wav" WAVE
    INDEX 01 00:00:00
Код:
Exact Audio Copy V0.99 prebeta 5 from 4. May 2009
EAC extraction logfile from 1. March 2011, 21:19
Newsboys / Not Ashamed
Used drive  : TSSTcorpCDDVDW SH-S202J   Adapter: 0  ID: 1
Read mode               : Secure
Utilize accurate stream : Yes
Defeat audio cache      : Yes
Make use of C2 pointers : No
Read offset correction                      : 6
Overread into Lead-In and Lead-Out          : No
Fill up missing offset samples with silence : Yes
Delete leading and trailing silent blocks   : No
Null samples used in CRC calculations       : Yes
Used interface                              : Native Win32 interface for Win NT & 2000
Gap handling                                : Appended to previous track
Used output format              : User Defined Encoder
Selected bitrate                : 768 kBit/s
Quality                         : High
Add ID3 tag                     : No
Command line compressor         : C:\Program Files\Exact Audio Copy\Flac\flac.exe
Additional command line options : -V -8 -T "artist=%a" -T "title=%t" -T "album=%g" -T "date=%y" -T "tracknumber=%n" -T "genre=%m" %s
TOC of the extracted CD
     Track |   Start  |  Length  | Start sector | End sector
    ---------------------------------------------------------
        1  |  0:00.32 |  3:18.05 |        32    |    14886
        2  |  3:18.37 |  3:52.43 |     14887    |    32329
        3  |  7:11.05 |  5:32.62 |     32330    |    57291
        4  | 12:43.67 |  4:39.48 |     57292    |    78264
        5  | 17:23.40 |  4:02.57 |     78265    |    96471
        6  | 21:26.22 |  3:50.53 |     96472    |   113774
        7  | 25:17.00 |  3:42.00 |    113775    |   130424
        8  | 28:59.00 |  4:35.70 |    130425    |   151119
        9  | 33:34.70 |  3:32.10 |    151120    |   167029
       10  | 37:07.05 |  5:05.30 |    167030    |   189934
Track  1
     Filename C:\EAC Rips\01-Newsboys-Not Ashamed-I Cannot Get You Out Of My System.wav
     Pre-gap length  0:00:02.42
     Peak level 97.3 %
     Track quality 100.0 %
     Test CRC 71A85D3C
     Copy CRC 71A85D3C
     Accurately ripped (confidence 6)  [1715983A]
     Copy OK
Track  2
     Filename C:\EAC Rips\02-Newsboys-Not Ashamed-I'm Not Ashamed.wav
     Pre-gap length  0:00:00.04
     Peak level 97.8 %
     Track quality 100.0 %
     Test CRC EAEF903A
     Copy CRC EAEF903A
     Accurately ripped (confidence 6)  [A3BBD970]
     Copy OK
Track  3
     Filename C:\EAC Rips\03-Newsboys-Not Ashamed-Where You Belong,Turn Your Eyes Upon Jesus.wav
     Pre-gap length  0:00:00.04
     Peak level 97.3 %
     Track quality 100.0 %
     Test CRC 53F0B61F
     Copy CRC 53F0B61F
     Accurately ripped (confidence 6)  [8F4D32B3]
     Copy OK
Track  4
     Filename C:\EAC Rips\04-Newsboys-Not Ashamed-Upon This Rock.wav
     Pre-gap length  0:00:01.73
     Peak level 97.3 %
     Track quality 100.0 %
     Test CRC A9873B6F
     Copy CRC A9873B6F
     Accurately ripped (confidence 6)  [98797530]
     Copy OK
Track  5
     Filename C:\EAC Rips\05-Newsboys-Not Ashamed-Strong Love.wav
     Pre-gap length  0:00:00.17
     Peak level 97.3 %
     Track quality 99.9 %
     Test CRC 8362C248
     Copy CRC 8362C248
     Accurately ripped (confidence 6)  [52673B35]
     Copy OK
Track  6
     Filename C:\EAC Rips\06-Newsboys-Not Ashamed-Dear Shame.wav
     Pre-gap length  0:00:01.37
     Peak level 97.3 %
     Track quality 100.0 %
     Test CRC 90DB484B
     Copy CRC 90DB484B
     Accurately ripped (confidence 6)  [ABB438F7]
     Copy OK
Track  7
     Filename C:\EAC Rips\07-Newsboys-Not Ashamed-Boycott Hell.wav
     Pre-gap length  0:00:00.04
     Peak level 97.5 %
     Track quality 100.0 %
     Test CRC D33C82CF
     Copy CRC D33C82CF
     Accurately ripped (confidence 6)  [527CB803]
     Copy OK
Track  8
     Filename C:\EAC Rips\08-Newsboys-Not Ashamed-We Come Together.wav
     Pre-gap length  0:00:00.68
     Peak level 97.3 %
     Track quality 99.9 %
     Test CRC 6361FE94
     Copy CRC 6361FE94
     Accurately ripped (confidence 6)  [D61F883E]
     Copy OK
Track  9
     Filename C:\EAC Rips\09-Newsboys-Not Ashamed-Love Comes True.wav
     Pre-gap length  0:00:00.04
     Peak level 97.8 %
     Track quality 100.0 %
     Test CRC 866EBC1A
     Copy CRC 866EBC1A
     Accurately ripped (confidence 6)  [D3C0BCFF]
     Copy OK
Track 10
     Filename C:\EAC Rips\10-Newsboys-Not Ashamed-Lost The Sky Again.wav
     Pre-gap length  0:00:00.81
     Peak level 97.3 %
     Track quality 100.0 %
     Test CRC 36A235C8
     Copy CRC 36A235C8
     Accurately ripped (confidence 6)  [66F7FDE3]
     Copy OK
All tracks accurately ripped
No errors occurred
End of status report
#777Источник: what.cd (Ancalagon)
Издатель (лейбл): Star Song Communications
Продолжительность: 36:34
Трэклист:
01. Real Good Thing (2:53)
02. Shine (3:42)
03. Spirit Thing (3:27)
04. Let It Rain (4:18)
05. Going Public (3:31)
06. Truth and Consequences (2:59)
07. Lights Out (3:09)
08. Be Still (3:19)
09. When You Called My Name (4:03)
10. Elle G. (5:13)
Код:
REM GENRE "Christian Rock"
REM DATE 1994
REM DISCID 7A08920A
REM COMMENT "ExactAudioCopy v0.99pb4"
PERFORMER "Newsboys"
TITLE "Going Public"
FILE "01 - Newsboys - Real Good Thing.wav" WAVE
  TRACK 01 AUDIO
    TITLE "Real Good Thing"
    PERFORMER "Newsboys"
    INDEX 01 00:00:00
FILE "02 - Newsboys - Shine.wav" WAVE
  TRACK 02 AUDIO
    TITLE "Shine"
    PERFORMER "Newsboys"
    INDEX 01 00:00:00
FILE "03 - Newsboys - Spirit Thing.wav" WAVE
  TRACK 03 AUDIO
    TITLE "Spirit Thing"
    PERFORMER "Newsboys"
    INDEX 01 00:00:00
  TRACK 04 AUDIO
    TITLE "Let It Rain"
    PERFORMER "Newsboys"
    INDEX 00 03:27:25
FILE "04 - Newsboys - Let It Rain.wav" WAVE
    INDEX 01 00:00:00
  TRACK 05 AUDIO
    TITLE "Going Public"
    PERFORMER "Newsboys"
    INDEX 00 04:14:53
FILE "05 - Newsboys - Going Public.wav" WAVE
    INDEX 01 00:00:00
FILE "06 - Newsboys - Truth and Consequences.wav" WAVE
  TRACK 06 AUDIO
    TITLE "Truth and Consequences"
    PERFORMER "Newsboys"
    INDEX 01 00:00:00
FILE "07 - Newsboys - Lights Out.wav" WAVE
  TRACK 07 AUDIO
    TITLE "Lights Out"
    PERFORMER "Newsboys"
    INDEX 01 00:00:00
  TRACK 08 AUDIO
    TITLE "Be Still"
    PERFORMER "Newsboys"
    INDEX 00 03:06:00
FILE "08 - Newsboys - Be Still.wav" WAVE
    INDEX 01 00:00:00
  TRACK 09 AUDIO
    TITLE "When You Called My Name"
    PERFORMER "Newsboys"
    INDEX 00 03:18:57
FILE "09 - Newsboys - When You Called My Name.wav" WAVE
    INDEX 01 00:00:00
FILE "10 - Newsboys - Elle G..wav" WAVE
  TRACK 10 AUDIO
    TITLE "Elle G."
    PERFORMER "Newsboys"
    INDEX 01 00:00:00
Код:
Exact Audio Copy V0.99 prebeta 4 from 23. January 2008
EAC extraction logfile from 20. May 2008, 19:50
Newsboys / Going Public
Used drive  : Optiarc DVD+-RW AD-5560A   Adapter: 0  ID: 0
Read mode               : Secure
Utilize accurate stream : Yes
Defeat audio cache      : Yes
Make use of C2 pointers : No
Read offset correction                      : 6
Overread into Lead-In and Lead-Out          : No
Fill up missing offset samples with silence : Yes
Delete leading and trailing silent blocks   : No
Null samples used in CRC calculations       : Yes
Used interface                              : Native Win32 interface for Win NT & 2000
Gap handling                                : Appended to previous track
Used output format              : User Defined Encoder
Selected bitrate                : 192 kBit/s
Quality                         : High
Add ID3 tag                     : No
Command line compressor         : C:\Program Files\Exact Audio Copy\flac.exe
Additional command line options :  -8 -V -T "ARTIST=%a" -T "TITLE=%t" -T "ALBUM=%g" -T "DATE=%y" -T "TRACKNUMBER=%n" -T "GENRE=%m" -T "COMMENT=EAC FLAC -8" %s
TOC of the extracted CD
     Track |   Start  |  Length  | Start sector | End sector
    ---------------------------------------------------------
        1  |  0:00.00 |  2:53.12 |         0    |    12986
        2  |  2:53.12 |  3:42.18 |     12987    |    29654
        3  |  6:35.30 |  3:27.27 |     29655    |    45206
        4  | 10:02.57 |  4:17.73 |     45207    |    64554
        5  | 14:20.55 |  3:30.62 |     64555    |    80366
        6  | 17:51.42 |  2:58.45 |     80367    |    93761
        7  | 20:50.12 |  3:09.03 |     93762    |   107939
        8  | 23:59.15 |  3:19.22 |    107940    |   122886
        9  | 27:18.37 |  4:02.68 |    122887    |   141104
       10  | 31:21.30 |  5:12.72 |    141105    |   164576
Track  1
     Filename E:\To Upload\Newsboys - (1994) Going Public [FLAC]\01 - Newsboys - Real Good Thing.wav
     Pre-gap length  0:00:02.00
     Peak level 97.7 %
     Track quality 100.0 %
     Test CRC 16186489
     Copy CRC 16186489
     Accurately ripped (confidence 22)  [DDB8C4C4]
     Copy OK
Track  2
     Filename E:\To Upload\Newsboys - (1994) Going Public [FLAC]\02 - Newsboys - Shine.wav
     Peak level 97.7 %
     Track quality 100.0 %
     Test CRC DCD55B3F
     Copy CRC DCD55B3F
     Accurately ripped (confidence 22)  [A63927DA]
     Copy OK
Track  3
     Filename E:\To Upload\Newsboys - (1994) Going Public [FLAC]\03 - Newsboys - Spirit Thing.wav
     Peak level 96.7 %
     Track quality 100.0 %
     Test CRC B7E8E0D5
     Copy CRC B7E8E0D5
     Accurately ripped (confidence 23)  [81E76301]
     Copy OK
Track  4
     Filename E:\To Upload\Newsboys - (1994) Going Public [FLAC]\04 - Newsboys - Let It Rain.wav
     Pre-gap length  0:00:00.02
     Peak level 97.7 %
     Track quality 100.0 %
     Test CRC 54152F30
     Copy CRC 54152F30
     Accurately ripped (confidence 23)  [6E29AA2E]
     Copy OK
Track  5
     Filename E:\To Upload\Newsboys - (1994) Going Public [FLAC]\05 - Newsboys - Going Public.wav
     Pre-gap length  0:00:03.26
     Peak level 100.0 %
     Track quality 99.9 %
     Test CRC D9AF4E94
     Copy CRC D9AF4E94
     Accurately ripped (confidence 23)  [3B488B45]
     Copy OK
Track  6
     Filename E:\To Upload\Newsboys - (1994) Going Public [FLAC]\06 - Newsboys - Truth and Consequences.wav
     Peak level 99.0 %
     Track quality 100.0 %
     Test CRC 7F19986E
     Copy CRC 7F19986E
     Accurately ripped (confidence 23)  [20C18275]
     Copy OK
Track  7
     Filename E:\To Upload\Newsboys - (1994) Going Public [FLAC]\07 - Newsboys - Lights Out.wav
     Peak level 99.7 %
     Track quality 100.0 %
     Test CRC F83A3D69
     Copy CRC F83A3D69
     Accurately ripped (confidence 23)  [065350CF]
     Copy OK
Track  8
     Filename E:\To Upload\Newsboys - (1994) Going Public [FLAC]\08 - Newsboys - Be Still.wav
     Pre-gap length  0:00:03.04
     Peak level 96.7 %
     Track quality 100.0 %
     Test CRC D3321611
     Copy CRC D3321611
     Accurately ripped (confidence 22)  [3B6E1E2E]
     Copy OK
Track  9
     Filename E:\To Upload\Newsboys - (1994) Going Public [FLAC]\09 - Newsboys - When You Called My Name.wav
     Pre-gap length  0:00:00.53
     Peak level 97.7 %
     Track quality 100.0 %
     Test CRC 970BCC18
     Copy CRC 970BCC18
     Accurately ripped (confidence 22)  [5121E632]
     Copy OK
Track 10
     Filename E:\To Upload\Newsboys - (1994) Going Public [FLAC]\10 - Newsboys - Elle G..wav
     Peak level 97.7 %
     Track quality 100.0 %
     Test CRC 203E5F76
     Copy CRC 203E5F76
     Accurately ripped (confidence 23)  [94630C43]
     Copy OK
All tracks accurately ripped
No errors occurred
End of status report
#777Источник: what.cd (maudineormsby)
Издатель (лейбл): Star Song Communications
Продолжительность: 37:04
Трэклист:
01. God Is Not A Secret (3:09)
02. Take Me To Your Leader (2:58)
03. Breathe (3:15)
04. Reality (3:09)
05. Breakfast (3:40)
06. Let It Go (3:38)
07. Cup O' Tea (2:41)
08. It's All Who You Know (3:12)
09. Miracle Child (3:11)
10. Lost The Plot (4:56)
11. Breathe (Benediction) (3:15)
Код:
REM GENRE "Christian Rock"
REM DATE 1996
REM DISCID 8808B00B
REM COMMENT "ExactAudioCopy v0.99pb4"
FILE "Newsboys\Take Me To Your Leader\01 God Is Not A Secret.wav" WAVE
  TRACK 01 AUDIO
    INDEX 01 00:00:00
FILE "Newsboys\Take Me To Your Leader\02 Take Me To Your Leader.wav" WAVE
  TRACK 02 AUDIO
    INDEX 01 00:00:00
FILE "Newsboys\Take Me To Your Leader\03 Breathe.wav" WAVE
  TRACK 03 AUDIO
    INDEX 01 00:00:00
  TRACK 04 AUDIO
    INDEX 00 03:14:07
FILE "Newsboys\Take Me To Your Leader\04 Reality.wav" WAVE
    INDEX 01 00:00:00
  TRACK 05 AUDIO
    INDEX 00 03:07:72
FILE "Newsboys\Take Me To Your Leader\05 Breakfast.wav" WAVE
    INDEX 01 00:00:00
  TRACK 06 AUDIO
    INDEX 00 03:36:47
FILE "Newsboys\Take Me To Your Leader\06 Let It Go.wav" WAVE
    INDEX 01 00:00:00
  TRACK 07 AUDIO
    INDEX 00 03:37:47
FILE "Newsboys\Take Me To Your Leader\07 Cup O' Tea.wav" WAVE
    INDEX 01 00:00:00
  TRACK 08 AUDIO
    INDEX 00 02:39:50
FILE "Newsboys\Take Me To Your Leader\08 It's All Who You Know.wav" WAVE
    INDEX 01 00:00:00
  TRACK 09 AUDIO
    INDEX 00 03:10:45
FILE "Newsboys\Take Me To Your Leader\09 Miracle Child.wav" WAVE
    INDEX 01 00:00:00
  TRACK 10 AUDIO
    INDEX 00 03:09:52
FILE "Newsboys\Take Me To Your Leader\10 Lost The Plot.wav" WAVE
    INDEX 01 00:00:00
FILE "Newsboys\Take Me To Your Leader\11 Breathe (Benediction).wav" WAVE
  TRACK 11 AUDIO
    INDEX 01 00:00:00
Код:
Exact Audio Copy V0.99 prebeta 4 from 23. January 2008
EAC extraction logfile from 16. April 2009, 0:09
Newsboys / Take Me To Your Leader
Used drive  : Optiarc DVD RW AD-7200S   Adapter: 1  ID: 0
Read mode               : Secure
Utilize accurate stream : Yes
Defeat audio cache      : Yes
Make use of C2 pointers : No
Read offset correction                      : 48
Overread into Lead-In and Lead-Out          : No
Fill up missing offset samples with silence : Yes
Delete leading and trailing silent blocks   : No
Null samples used in CRC calculations       : Yes
Used interface                              : Native Win32 interface for Win NT & 2000
Gap handling                                : Appended to previous track
Used output format              : User Defined Encoder
Selected bitrate                : 128 kBit/s
Quality                         : High
Add ID3 tag                     : No
Command line compressor         : C:\Program Files (x86)\Exact Audio Copy\Flac\flac.exe
Additional command line options : -V -8 -T "artist=%a" -T "title=%t" -T "album=%g" -T "date=%y" -T "tracknumber=%n" -T "genre=%m" %s
TOC of the extracted CD
     Track |   Start  |  Length  | Start sector | End sector
    ---------------------------------------------------------
        1  |  0:00.00 |  3:09.17 |         0    |    14191
        2  |  3:09.17 |  2:58.13 |     14192    |    27554
        3  |  6:07.30 |  3:15.05 |     27555    |    42184
        4  |  9:22.35 |  3:08.55 |     42185    |    56339
        5  | 12:31.15 |  3:40.00 |     56340    |    72839
        6  | 16:11.15 |  3:38.32 |     72840    |    89221
        7  | 19:49.47 |  2:40.58 |     89222    |   101279
        8  | 22:30.30 |  3:11.40 |    101280    |   115644
        9  | 25:41.70 |  3:10.57 |    115645    |   129951
       10  | 28:52.52 |  4:56.15 |    129952    |   152166
       11  | 33:48.67 |  3:15.25 |    152167    |   166816
Track  1
     Filename K:\Music\Newsboys\Take Me To Your Leader\01 God Is Not A Secret.wav
     Pre-gap length  0:00:02.00
     Peak level 95.9 %
     Track quality 100.0 %
     Test CRC 98A783E3
     Copy CRC 98A783E3
     Accurately ripped (confidence 40)  [D102F2B1]
     Copy OK
Track  2
     Filename K:\Music\Newsboys\Take Me To Your Leader\02 Take Me To Your Leader.wav
     Peak level 96.0 %
     Track quality 100.0 %
     Test CRC 1DA584E6
     Copy CRC 1DA584E6
     Accurately ripped (confidence 40)  [C4178B28]
     Copy OK
Track  3
     Filename K:\Music\Newsboys\Take Me To Your Leader\03 Breathe.wav
     Peak level 95.9 %
     Track quality 100.0 %
     Test CRC 4CF41D3F
     Copy CRC 4CF41D3F
     Accurately ripped (confidence 40)  [3607AA2F]
     Copy OK
Track  4
     Filename K:\Music\Newsboys\Take Me To Your Leader\04 Reality.wav
     Pre-gap length  0:00:00.73
     Peak level 95.9 %
     Track quality 100.0 %
     Test CRC B830A427
     Copy CRC B830A427
     Accurately ripped (confidence 40)  [37EEDD7F]
     Copy OK
Track  5
     Filename K:\Music\Newsboys\Take Me To Your Leader\05 Breakfast.wav
     Pre-gap length  0:00:00.58
     Peak level 95.9 %
     Track quality 100.0 %
     Test CRC FC6727BA
     Copy CRC FC6727BA
     Accurately ripped (confidence 40)  [B21E3102]
     Copy OK
Track  6
     Filename K:\Music\Newsboys\Take Me To Your Leader\06 Let It Go.wav
     Pre-gap length  0:00:03.28
     Peak level 95.9 %
     Track quality 100.0 %
     Test CRC 2C1AD7EE
     Copy CRC 2C1AD7EE
     Accurately ripped (confidence 40)  [778F866A]
     Copy OK
Track  7
     Filename K:\Music\Newsboys\Take Me To Your Leader\07 Cup O' Tea.wav
     Pre-gap length  0:00:00.60
     Peak level 95.9 %
     Track quality 100.0 %
     Test CRC EB3E0A4A
     Copy CRC EB3E0A4A
     Accurately ripped (confidence 40)  [2993C8B6]
     Copy OK
Track  8
     Filename K:\Music\Newsboys\Take Me To Your Leader\08 It's All Who You Know.wav
     Pre-gap length  0:00:01.08
     Peak level 99.9 %
     Track quality 100.0 %
     Test CRC C997CFC4
     Copy CRC C997CFC4
     Accurately ripped (confidence 39)  [A4A49445]
     Copy OK
Track  9
     Filename K:\Music\Newsboys\Take Me To Your Leader\09 Miracle Child.wav
     Pre-gap length  0:00:00.70
     Peak level 97.7 %
     Track quality 100.0 %
     Test CRC 76CAF6B6
     Copy CRC 76CAF6B6
     Accurately ripped (confidence 39)  [3159C1D7]
     Copy OK
Track 10
     Filename K:\Music\Newsboys\Take Me To Your Leader\10 Lost The Plot.wav
     Pre-gap length  0:00:01.05
     Peak level 95.9 %
     Track quality 99.9 %
     Test CRC B0A3D27C
     Copy CRC B0A3D27C
     Accurately ripped (confidence 39)  [DF43614F]
     Copy OK
Track 11
     Filename K:\Music\Newsboys\Take Me To Your Leader\11 Breathe (Benediction).wav
     Peak level 99.4 %
     Track quality 100.0 %
     Test CRC B0E7E606
     Copy CRC B0E7E606
     Accurately ripped (confidence 37)  [27DCC73D]
     Copy OK
All tracks accurately ripped
No errors occurred
End of status report
#777Источник: what.cd
Издатель (лейбл): Sparrow Records
Продолжительность: 42:11
Трэклист:
01. WooHoo (3:15)
02. Step Up to the Microphone (3:44)
03. Entertaining Angels (4:19)
04. Believe (4:33)
05. Tuning In (4:17)
06. Truth Be Known / Everybody Gets a Shot (4:00)
07. Deep End (4:06)
08. Hallelujah (3:56)
09. The Tide (5:01)
10. Always (5:01)
Код:
REM GENRE "Contemporary Christian"
REM DATE 1998
REM DISCID 7309E30A
REM COMMENT "ExactAudioCopy v0.95b4"
PERFORMER "Newsboys"
TITLE "Step Up to the Microphone"
FILE "01 - WooHoo.wav" WAVE
  TRACK 01 AUDIO
    TITLE "WooHoo"
    PERFORMER "Newsboys"
    INDEX 01 00:00:00
FILE "02 - Step Up to the Microphone.wav" WAVE
  TRACK 02 AUDIO
    TITLE "Step Up to the Microphone"
    PERFORMER "Newsboys"
    INDEX 01 00:00:00
  TRACK 03 AUDIO
    TITLE "Entertaining Angels"
    PERFORMER "Newsboys"
    INDEX 00 03:42:70
FILE "03 - Entertaining Angels.wav" WAVE
    INDEX 01 00:00:00
  TRACK 04 AUDIO
    TITLE "Believe"
    PERFORMER "Newsboys"
    INDEX 00 04:18:15
FILE "04 - Believe.wav" WAVE
    INDEX 01 00:00:00
FILE "05 - Tuning In.wav" WAVE
  TRACK 05 AUDIO
    TITLE "Tuning In"
    PERFORMER "Newsboys"
    INDEX 01 00:00:00
FILE "06 - Truth Be Known - Everybody Gets a Shot.wav" WAVE
  TRACK 06 AUDIO
    TITLE "Truth Be Known - Everybody Gets a Shot"
    PERFORMER "Newsboys"
    INDEX 01 00:00:00
FILE "07 - Deep End.wav" WAVE
  TRACK 07 AUDIO
    TITLE "Deep End"
    PERFORMER "Newsboys"
    INDEX 01 00:00:00
FILE "08 - Hallelujah.wav" WAVE
  TRACK 08 AUDIO
    TITLE "Hallelujah"
    PERFORMER "Newsboys"
    INDEX 01 00:00:00
FILE "09 - The Tide.wav" WAVE
  TRACK 09 AUDIO
    TITLE "The Tide"
    PERFORMER "Newsboys"
    INDEX 01 00:00:00
FILE "10 - Always.wav" WAVE
  TRACK 10 AUDIO
    TITLE "Always"
    PERFORMER "Newsboys"
    INDEX 01 00:00:00
Код:
EAC extraction logfile from 16. February 2008, 5:31 for CD
Newsboys / Step Up to the Microphone
Used drive  : PIONEER DVD-RW  DVR-106D   Adapter: 1  ID: 0
Read mode   : Secure with NO C2, accurate stream, disable cache
Read offset correction : 48
Overread into Lead-In and Lead-Out : No
Used output format : C:\Program Files\Exact Audio Copy\flac-1.1.4-win\bin\flac.exe   (User Defined Encoder)
                     192 kBit/s
                     Additional command line options : -8 -A tukey(0.25) -A gauss(0.1875) -b 4096 -V -T "artist=%a" -T "title=%t" -T "album=%g" -T "date=%y" -T "tracknumber=%n" -T "genre=%m" %s --sector-align
Other options      :
    Fill up missing offset samples with silence : Yes
    Delete leading and trailing silent blocks : No
    Installed external ASPI interface
Track  1
     Filename C:\Documents and Settings\toddius\Desktop\Newsboys - Step Up to the Microphone FLAC\01 - WooHoo.wav
     Pre-gap length  0:00:02.00
     Peak level 95.5 %
     Track quality 100.0 %
     Test CRC 0DD4F8C3
     Copy CRC 0DD4F8C3
     Copy OK
Track  2
     Filename C:\Documents and Settings\toddius\Desktop\Newsboys - Step Up to the Microphone FLAC\02 - Step Up to the Microphone.wav
     Peak level 95.4 %
     Track quality 100.0 %
     Test CRC 562D48CC
     Copy CRC 562D48CC
     Copy OK
Track  3
     Filename C:\Documents and Settings\toddius\Desktop\Newsboys - Step Up to the Microphone FLAC\03 - Entertaining Angels.wav
     Pre-gap length  0:00:00.80
     Peak level 95.4 %
     Track quality 100.0 %
     Test CRC 2EE67633
     Copy CRC 2EE67633
     Copy OK
Track  4
     Filename C:\Documents and Settings\toddius\Desktop\Newsboys - Step Up to the Microphone FLAC\04 - Believe.wav
     Pre-gap length  0:00:01.06
     Peak level 95.4 %
     Track quality 100.0 %
     Test CRC 240E4D57
     Copy CRC 240E4D57
     Copy OK
Track  5
     Filename C:\Documents and Settings\toddius\Desktop\Newsboys - Step Up to the Microphone FLAC\05 - Tuning In.wav
     Peak level 94.6 %
     Track quality 99.9 %
     Test CRC AB2E93D7
     Copy CRC AB2E93D7
     Copy OK
Track  6
     Filename C:\Documents and Settings\toddius\Desktop\Newsboys - Step Up to the Microphone FLAC\06 - Truth Be Known - Everybody Gets a Shot.wav
     Peak level 95.5 %
     Track quality 100.0 %
     Test CRC 2BC54A6D
     Copy CRC 2BC54A6D
     Copy OK
Track  7
     Filename C:\Documents and Settings\toddius\Desktop\Newsboys - Step Up to the Microphone FLAC\07 - Deep End.wav
     Peak level 95.4 %
     Track quality 100.0 %
     Test CRC 0F4D5ABD
     Copy CRC 0F4D5ABD
     Copy OK
Track  8
     Filename C:\Documents and Settings\toddius\Desktop\Newsboys - Step Up to the Microphone FLAC\08 - Hallelujah.wav
     Peak level 95.4 %
     Track quality 100.0 %
     Test CRC 13EB0064
     Copy CRC 13EB0064
     Copy OK
Track  9
     Filename C:\Documents and Settings\toddius\Desktop\Newsboys - Step Up to the Microphone FLAC\09 - The Tide.wav
     Peak level 94.8 %
     Track quality 100.0 %
     Test CRC 6ABE7D84
     Copy CRC 6ABE7D84
     Copy OK
Track 10
     Filename C:\Documents and Settings\toddius\Desktop\Newsboys - Step Up to the Microphone FLAC\10 - Always.wav
     Peak level 94.7 %
     Track quality 100.0 %
     Test CRC 6A8308F3
     Copy CRC 6A8308F3
     Copy OK
No errors occured
End of status report
#777Источник: what.cd (maudineormsby)
Издатель (лейбл): Sparrow Records
Продолжительность: 35:43
Трэклист:
01. Beautiful Sound (3:46)
02. Love Liberty Disco (3:46)
03. Forever Man (3:14)
04. Good Stuff (2:59)
05. Everyone's Someone (5:14)
06. Say You Need Love (3:18)
07. I Would Give Everything (3:23)
08. Break (3:20)
09. I Surrender All (4:13)
10. Fall on You (2:31)
Код:
REM GENRE Disco
REM DATE 1999
REM DISCID 86085F0A
REM COMMENT "ExactAudioCopy v0.99pb4"
FILE "Newsboys\Love Liberty Disco\01 Beautiful Sound.wav" WAVE
  TRACK 01 AUDIO
    INDEX 01 00:00:00
  TRACK 02 AUDIO
    INDEX 00 03:46:27
FILE "Newsboys\Love Liberty Disco\02 Love Liberty Disco.wav" WAVE
    INDEX 01 00:00:00
  TRACK 03 AUDIO
    INDEX 00 03:45:42
FILE "Newsboys\Love Liberty Disco\03 Forever Man.wav" WAVE
    INDEX 01 00:00:00
  TRACK 04 AUDIO
    INDEX 00 03:13:38
FILE "Newsboys\Love Liberty Disco\04 Good Stuff.wav" WAVE
    INDEX 01 00:00:00
  TRACK 05 AUDIO
    INDEX 00 02:59:17
FILE "Newsboys\Love Liberty Disco\05 Everyone's Someone.wav" WAVE
    INDEX 01 00:00:00
  TRACK 06 AUDIO
    INDEX 00 05:14:13
FILE "Newsboys\Love Liberty Disco\06 Say You Need Love.wav" WAVE
    INDEX 01 00:00:00
  TRACK 07 AUDIO
    INDEX 00 03:18:13
FILE "Newsboys\Love Liberty Disco\07 I Would Give Everything.wav" WAVE
    INDEX 01 00:00:00
  TRACK 08 AUDIO
    INDEX 00 03:22:58
FILE "Newsboys\Love Liberty Disco\08 Break.wav" WAVE
    INDEX 01 00:00:00
  TRACK 09 AUDIO
    INDEX 00 03:20:15
FILE "Newsboys\Love Liberty Disco\09 I Surrender All.wav" WAVE
    INDEX 01 00:00:00
  TRACK 10 AUDIO
    INDEX 00 04:12:60
FILE "Newsboys\Love Liberty Disco\10 Fall on You.wav" WAVE
    INDEX 01 00:00:00
Код:
Exact Audio Copy V0.99 prebeta 4 from 23. January 2008
EAC extraction logfile from 27. January 2009, 21:40
Newsboys / Love Liberty Disco
Used drive  : Optiarc DVD RW AD-7200S   Adapter: 1  ID: 0
Read mode               : Secure
Utilize accurate stream : Yes
Defeat audio cache      : Yes
Make use of C2 pointers : No
Read offset correction                      : 48
Overread into Lead-In and Lead-Out          : No
Fill up missing offset samples with silence : Yes
Delete leading and trailing silent blocks   : No
Null samples used in CRC calculations       : Yes
Used interface                              : Native Win32 interface for Win NT & 2000
Gap handling                                : Appended to previous track
Used output format              : User Defined Encoder
Selected bitrate                : 128 kBit/s
Quality                         : High
Add ID3 tag                     : No
Command line compressor         : C:\Program Files (x86)\Exact Audio Copy\Flac\flac.exe
Additional command line options : -V -8 -T "artist=%a" -T "title=%t" -T "album=%g" -T "date=%y" -T "tracknumber=%n" -T "genre=%m" %s
TOC of the extracted CD
     Track |   Start  |  Length  | Start sector | End sector
    ---------------------------------------------------------
        1  |  0:00.00 |  3:46.30 |         0    |    16979
        2  |  3:46.30 |  3:45.57 |     16980    |    33911
        3  |  7:32.12 |  3:13.43 |     33912    |    48429
        4  | 10:45.55 |  2:59.22 |     48430    |    61876
        5  | 13:45.02 |  5:14.15 |     61877    |    85441
        6  | 18:59.17 |  3:18.15 |     85442    |   100306
        7  | 22:17.32 |  3:22.63 |    100307    |   115519
        8  | 25:40.20 |  3:20.17 |    115520    |   130536
        9  | 29:00.37 |  4:12.65 |    130537    |   149501
       10  | 33:13.27 |  2:30.43 |    149502    |   160794
Track  1
     Filename K:\Music\Newsboys\Love Liberty Disco\01 Beautiful Sound.wav
     Pre-gap length  0:00:02.00
     Peak level 99.8 %
     Track quality 100.0 %
     Test CRC FC15A04D
     Copy CRC FC15A04D
     Accurately ripped (confidence 20)  [1F1D5B9A]
     Copy OK
Track  2
     Filename K:\Music\Newsboys\Love Liberty Disco\02 Love Liberty Disco.wav
     Pre-gap length  0:00:00.03
     Peak level 99.8 %
     Track quality 100.0 %
     Test CRC A6C7CA27
     Copy CRC A6C7CA27
     Accurately ripped (confidence 20)  [D8393258]
     Copy OK
Track  3
     Filename K:\Music\Newsboys\Love Liberty Disco\03 Forever Man.wav
     Pre-gap length  0:00:00.15
     Peak level 96.9 %
     Track quality 99.9 %
     Test CRC EB561528
     Copy CRC EB561528
     Accurately ripped (confidence 20)  [EEC19A38]
     Copy OK
Track  4
     Filename K:\Music\Newsboys\Love Liberty Disco\04 Good Stuff.wav
     Pre-gap length  0:00:00.05
     Peak level 99.8 %
     Track quality 99.9 %
     Test CRC 98CDEB48
     Copy CRC 98CDEB48
     Accurately ripped (confidence 20)  [05A60031]
     Copy OK
Track  5
     Filename K:\Music\Newsboys\Love Liberty Disco\05 Everyone's Someone.wav
     Pre-gap length  0:00:00.05
     Peak level 99.8 %
     Track quality 100.0 %
     Test CRC B6F4B74F
     Copy CRC B6F4B74F
     Accurately ripped (confidence 20)  [BB061D69]
     Copy OK
Track  6
     Filename K:\Music\Newsboys\Love Liberty Disco\06 Say You Need Love.wav
     Pre-gap length  0:00:00.02
     Peak level 99.8 %
     Track quality 100.0 %
     Test CRC 068897D0
     Copy CRC 068897D0
     Accurately ripped (confidence 20)  [2B3823F6]
     Copy OK
Track  7
     Filename K:\Music\Newsboys\Love Liberty Disco\07 I Would Give Everything.wav
     Pre-gap length  0:00:00.02
     Peak level 99.8 %
     Track quality 100.0 %
     Test CRC F0B2AAF0
     Copy CRC F0B2AAF0
     Accurately ripped (confidence 20)  [58A08B37]
     Copy OK
Track  8
     Filename K:\Music\Newsboys\Love Liberty Disco\08 Break.wav
     Pre-gap length  0:00:00.05
     Peak level 99.8 %
     Track quality 99.9 %
     Test CRC F7D391B6
     Copy CRC F7D391B6
     Accurately ripped (confidence 20)  [2929D4BD]
     Copy OK
Track  9
     Filename K:\Music\Newsboys\Love Liberty Disco\09 I Surrender All.wav
     Pre-gap length  0:00:00.02
     Peak level 99.8 %
     Track quality 100.0 %
     Test CRC D51257A8
     Copy CRC D51257A8
     Accurately ripped (confidence 20)  [19348E93]
     Copy OK
Track 10
     Filename K:\Music\Newsboys\Love Liberty Disco\10 Fall on You.wav
     Pre-gap length  0:00:00.05
     Peak level 99.8 %
     Track quality 100.0 %
     Test CRC 3D25F538
     Copy CRC 3D25F538
     Accurately ripped (confidence 20)  [956B26C7]
     Copy OK
All tracks accurately ripped
No errors occurred
End of status report
#777Источник: what.cd (yoda57)
Издатель (лейбл): Sparrow Records
Продолжительность: 37:32
Трэклист:
01. Giving It Over (3:47)
02. Live in Stereo (3:07)
03. Million Pieces (Kissin' Your Cares Goodbye) (4:14)
04. Thrive (3:54)
05. Rescue (4:22)
06. It Is You (4:22)
07. Cornelius (3:31)
08. The Fad of the Land (3:19)
09. John Woo (3:10)
10. Lord (I Don't Know) (3:46)
Код:
Exact Audio Copy V0.99 prebeta 5 from 4. May 2009
EAC extraction logfile from 22. January 2010, 15:09
Newsboys / Thrive
Used drive  : TSSTcorpDVD+-RW TS-L632D   Adapter: 1  ID: 0
Read mode               : Secure
Utilize accurate stream : Yes
Defeat audio cache      : Yes
Make use of C2 pointers : No
Read offset correction                      : 6
Overread into Lead-In and Lead-Out          : No
Fill up missing offset samples with silence : Yes
Delete leading and trailing silent blocks   : No
Null samples used in CRC calculations       : Yes
Used interface                              : Native Win32 interface for Win NT & 2000
Gap handling                                : Appended to previous track
Used output format              : User Defined Encoder
Selected bitrate                : 320 kBit/s
Quality                         : High
Add ID3 tag                     : No
Command line compressor         : C:\Program Files\Exact Audio Copy\Flac\flac.exe
Additional command line options : -V -8 -T "artist=%a" -T "title=%t" -T "album=%g" -T "date=%y" -T "tracknumber=%n" -T "genre=%m" %s
TOC of the extracted CD
     Track |   Start  |  Length  | Start sector | End sector
    ---------------------------------------------------------
        1  |  0:00.00 |  3:47.05 |         0    |    17029
        2  |  3:47.05 |  3:06.55 |     17030    |    31034
        3  |  6:53.60 |  4:14.17 |     31035    |    50101
        4  | 11:08.02 |  3:53.70 |     50102    |    67646
        5  | 15:01.72 |  4:22.20 |     67647    |    87316
        6  | 19:24.17 |  4:22.00 |     87317    |   106966
        7  | 23:46.17 |  3:31.00 |    106967    |   122791
        8  | 27:17.17 |  3:18.53 |    122792    |   137694
        9  | 30:35.70 |  3:09.65 |    137695    |   151934
       10  | 33:45.60 |  3:46.35 |    151935    |   168919
Track  1
     Filename C:\rips\01 - Giving It Over.wav
     Pre-gap length  0:00:02.00
     Peak level 95.4 %
     Track quality 100.0 %
     Test CRC 0B32D977
     Copy CRC 0B32D977
     Accurately ripped (confidence 35)  [E01B0C1F]
     Copy OK
Track  2
     Filename C:\rips\02 - Live in Stereo.wav
     Peak level 100.0 %
     Track quality 100.0 %
     Test CRC 6D5B1FA3
     Copy CRC 6D5B1FA3
     Accurately ripped (confidence 35)  [E3B6FEDB]
     Copy OK
Track  3
     Filename C:\rips\03 - Million Pieces (Kissin' Your Cares Goodbye).wav
     Peak level 95.4 %
     Track quality 100.0 %
     Test CRC A7322776
     Copy CRC A7322776
     Accurately ripped (confidence 35)  [0855194B]
     Copy OK
Track  4
     Filename C:\rips\04 - Thrive.wav
     Peak level 98.8 %
     Track quality 100.0 %
     Test CRC AAFF197B
     Copy CRC AAFF197B
     Accurately ripped (confidence 35)  [663FA1F1]
     Copy OK
Track  5
     Filename C:\rips\05 - Rescue.wav
     Peak level 98.8 %
     Track quality 100.0 %
     Test CRC 016E313B
     Copy CRC 016E313B
     Accurately ripped (confidence 35)  [11653023]
     Copy OK
Track  6
     Filename C:\rips\06 - It Is You.wav
     Peak level 97.9 %
     Track quality 99.9 %
     Test CRC E4C9C6F8
     Copy CRC E4C9C6F8
     Accurately ripped (confidence 35)  [00229D5A]
     Copy OK
Track  7
     Filename C:\rips\07 - Cornelius.wav
     Pre-gap length  0:00:00.16
     Peak level 92.3 %
     Track quality 100.0 %
     Test CRC F35CCF44
     Copy CRC F35CCF44
     Accurately ripped (confidence 35)  [555FEA3F]
     Copy OK
Track  8
     Filename C:\rips\08 - The Fad of the Land.wav
     Peak level 95.4 %
     Track quality 100.0 %
     Test CRC 4292C117
     Copy CRC 4292C117
     Accurately ripped (confidence 35)  [E8DC48EF]
     Copy OK
Track  9
     Filename C:\rips\09 - John Woo.wav
     Peak level 96.4 %
     Track quality 100.0 %
     Test CRC BC09FEE1
     Copy CRC BC09FEE1
     Accurately ripped (confidence 35)  [3EA0A5DE]
     Copy OK
Track 10
     Filename C:\rips\10 - Lord (I Don't Know).wav
     Pre-gap length  0:00:03.77
     Peak level 95.4 %
     Track quality 99.9 %
     Test CRC 549F4EA7
     Copy CRC 549F4EA7
     Accurately ripped (confidence 34)  [8B22D19C]
     Copy OK
All tracks accurately ripped
No errors occurred
End of status report
.cue-файл к этому альбому отсутствует
#777Источник: what.cd (maudineormsby)
Издатель (лейбл): Sparrow Records
Продолжительность: 43:45
Трэклист:
01. He Reigns (4:55)
02. You Are My King (Amazing Love) (4:31)
03. Great Is Your Faithfulness (3:17)
04. Take My Hands (Praises) (4:23)
05. Adoration (4:23)
06. In Christ Alone (4:17)
07. Lord (I Don't Know) (Live) (4:25)
08. It Is You (Live) (6:18)
09. Father, Blessed Father (3:59)
10. Hallelujah (3:16)
Код:
REM GENRE "Christian Rock"
REM DATE 2003
REM DISCID 860A410A
REM COMMENT "ExactAudioCopy v0.99pb4"
FILE "Newsboys\Adoration- The Worship Album\01 He Reigns.wav" WAVE
  TRACK 01 AUDIO
    INDEX 01 00:00:00
FILE "Newsboys\Adoration- The Worship Album\02 You Are My King (Amazing Love).wav" WAVE
  TRACK 02 AUDIO
    INDEX 01 00:00:00
  TRACK 03 AUDIO
    INDEX 00 04:29:65
FILE "Newsboys\Adoration- The Worship Album\03 Great Is Your Faithfulness.wav" WAVE
    INDEX 01 00:00:00
FILE "Newsboys\Adoration- The Worship Album\04 Take My Hands (Praises).wav" WAVE
  TRACK 04 AUDIO
    INDEX 01 00:00:00
FILE "Newsboys\Adoration- The Worship Album\05 Adoration.wav" WAVE
  TRACK 05 AUDIO
    INDEX 01 00:00:00
FILE "Newsboys\Adoration- The Worship Album\06 In Christ Alone.wav" WAVE
  TRACK 06 AUDIO
    INDEX 01 00:00:00
  TRACK 07 AUDIO
    INDEX 00 04:16:60
FILE "Newsboys\Adoration- The Worship Album\07 Lord (I Don't Know) (Live).wav" WAVE
    INDEX 01 00:00:00
FILE "Newsboys\Adoration- The Worship Album\08 It Is You (Live).wav" WAVE
  TRACK 08 AUDIO
    INDEX 01 00:00:00
FILE "Newsboys\Adoration- The Worship Album\09 Father, Blessed Father.wav" WAVE
  TRACK 09 AUDIO
    INDEX 01 00:00:00
  TRACK 10 AUDIO
    INDEX 00 03:58:13
FILE "Newsboys\Adoration- The Worship Album\10 Hallelujah.wav" WAVE
    INDEX 01 00:00:00
Код:
Exact Audio Copy V0.99 prebeta 4 from 23. January 2008
EAC extraction logfile from 6. April 2009, 20:41
Newsboys / Adoration: The Worship Album
Used drive  : Optiarc DVD RW AD-7200S   Adapter: 1  ID: 0
Read mode               : Secure
Utilize accurate stream : Yes
Defeat audio cache      : Yes
Make use of C2 pointers : No
Read offset correction                      : 48
Overread into Lead-In and Lead-Out          : No
Fill up missing offset samples with silence : Yes
Delete leading and trailing silent blocks   : No
Null samples used in CRC calculations       : Yes
Used interface                              : Native Win32 interface for Win NT & 2000
Gap handling                                : Appended to previous track
Used output format              : User Defined Encoder
Selected bitrate                : 128 kBit/s
Quality                         : High
Add ID3 tag                     : No
Command line compressor         : C:\Program Files (x86)\Exact Audio Copy\Flac\flac.exe
Additional command line options : -V -8 -T "artist=%a" -T "title=%t" -T "album=%g" -T "date=%y" -T "tracknumber=%n" -T "genre=%m" %s
TOC of the extracted CD
     Track |   Start  |  Length  | Start sector | End sector
    ---------------------------------------------------------
        1  |  0:00.00 |  4:55.30 |         0    |    22154
        2  |  4:55.30 |  4:31.17 |     22155    |    42496
        3  |  9:26.47 |  3:17.15 |     42497    |    57286
        4  | 12:43.62 |  4:22.38 |     57287    |    76974
        5  | 17:06.25 |  4:22.70 |     76975    |    96694
        6  | 21:29.20 |  4:17.20 |     96695    |   115989
        7  | 25:46.40 |  4:24.50 |    115990    |   135839
        8  | 30:11.15 |  6:18.22 |    135840    |   164211
        9  | 36:29.37 |  3:59.30 |    164212    |   182166
       10  | 40:28.67 |  3:16.28 |    182167    |   196894
Track  1
     Filename K:\Music\Newsboys\Adoration- The Worship Album\01 He Reigns.wav
     Pre-gap length  0:00:02.00
     Peak level 98.8 %
     Track quality 100.0 %
     Test CRC CABB1C45
     Copy CRC CABB1C45
     Accurately ripped (confidence 40)  [675EAAAB]
     Copy OK
Track  2
     Filename K:\Music\Newsboys\Adoration- The Worship Album\02 You Are My King (Amazing Love).wav
     Peak level 98.8 %
     Track quality 100.0 %
     Test CRC 7621E141
     Copy CRC 7621E141
     Accurately ripped (confidence 40)  [361FB97A]
     Copy OK
Track  3
     Filename K:\Music\Newsboys\Adoration- The Worship Album\03 Great Is Your Faithfulness.wav
     Pre-gap length  0:00:01.27
     Peak level 98.8 %
     Track quality 100.0 %
     Test CRC A71E5FC1
     Copy CRC A71E5FC1
     Accurately ripped (confidence 38)  [55B9DC07]
     Copy OK
Track  4
     Filename K:\Music\Newsboys\Adoration- The Worship Album\04 Take My Hands (Praises).wav
     Peak level 98.8 %
     Track quality 100.0 %
     Test CRC CE731076
     Copy CRC CE731076
     Accurately ripped (confidence 38)  [96929C69]
     Copy OK
Track  5
     Filename K:\Music\Newsboys\Adoration- The Worship Album\05 Adoration.wav
     Peak level 98.8 %
     Track quality 100.0 %
     Test CRC 4E5A3A68
     Copy CRC 4E5A3A68
     Accurately ripped (confidence 39)  [B93C7342]
     Copy OK
Track  6
     Filename K:\Music\Newsboys\Adoration- The Worship Album\06 In Christ Alone.wav
     Peak level 98.8 %
     Track quality 100.0 %
     Test CRC DFF84DAE
     Copy CRC DFF84DAE
     Accurately ripped (confidence 40)  [0C077CB4]
     Copy OK
Track  7
     Filename K:\Music\Newsboys\Adoration- The Worship Album\07 Lord (I Don't Know) (Live).wav
     Pre-gap length  0:00:00.35
     Peak level 98.8 %
     Track quality 99.9 %
     Test CRC D717BA03
     Copy CRC D717BA03
     Accurately ripped (confidence 39)  [BA3B9CFB]
     Copy OK
Track  8
     Filename K:\Music\Newsboys\Adoration- The Worship Album\08 It Is You (Live).wav
     Peak level 98.8 %
     Track quality 100.0 %
     Test CRC 2A23AD77
     Copy CRC 2A23AD77
     Accurately ripped (confidence 39)  [2589B58D]
     Copy OK
Track  9
     Filename K:\Music\Newsboys\Adoration- The Worship Album\09 Father, Blessed Father.wav
     Peak level 98.8 %
     Track quality 99.9 %
     Test CRC AB94F998
     Copy CRC AB94F998
     Accurately ripped (confidence 39)  [DB2F63F1]
     Copy OK
Track 10
     Filename K:\Music\Newsboys\Adoration- The Worship Album\10 Hallelujah.wav
     Pre-gap length  0:00:01.17
     Peak level 98.8 %
     Track quality 100.0 %
     Test CRC 59797B3C
     Copy CRC 59797B3C
     Accurately ripped (confidence 39)  [69A4645A]
     Copy OK
All tracks accurately ripped
No errors occurred
End of status report
#777Источник: what.cd
Издатель (лейбл): Sparrow Records
Продолжительность: 42:10
Трэклист:
01. Devotion (3:58)
02. Love Your Ways (3:41)
03. Presence (My Heart's Desire) (3:57)
04. Strong Tower (4:03)
05. God Of Nations (3:47)
06. Blessed Be Your Name (4:35)
07. The Orphan (4:06)
08. Landslide Of Love (4:23)
09. Name Above All Names (3:28)
10. When The Tears Fall (6:12)
Код:
REM GENRE "Christian Rock"
REM DATE 2004
REM DISCID 9A0A8A0B
REM COMMENT "ExactAudioCopy v0.99pb5"
PERFORMER "Newsboys"
TITLE "Devotion"
FILE "01 Devotion.wav" WAVE
  TRACK 01 AUDIO
    TITLE "Devotion"
    PERFORMER "Newsboys"
    INDEX 01 00:00:00
FILE "02 Love Your Ways.wav" WAVE
  TRACK 02 AUDIO
    TITLE "Love Your Ways"
    PERFORMER "Newsboys"
    INDEX 01 00:00:00
FILE "03 Presence (My Heart's Desire).wav" WAVE
  TRACK 03 AUDIO
    TITLE "Presence (My Heart's Desire)"
    PERFORMER "Newsboys"
    INDEX 01 00:00:00
FILE "04 Strong Tower.wav" WAVE
  TRACK 04 AUDIO
    TITLE "Strong Tower"
    PERFORMER "Newsboys"
    INDEX 01 00:00:00
FILE "05 God Of Nations.wav" WAVE
  TRACK 05 AUDIO
    TITLE "God Of Nations"
    PERFORMER "Newsboys"
    INDEX 01 00:00:00
FILE "06 Blessed Be Your Name.wav" WAVE
  TRACK 06 AUDIO
    TITLE "Blessed Be Your Name"
    PERFORMER "Newsboys"
    INDEX 01 00:00:00
FILE "07 The Orphan.wav" WAVE
  TRACK 07 AUDIO
    TITLE "The Orphan"
    PERFORMER "Newsboys"
    INDEX 01 00:00:00
FILE "08 Landslide Of Love.wav" WAVE
  TRACK 08 AUDIO
    TITLE "Landslide Of Love"
    PERFORMER "Newsboys"
    INDEX 01 00:00:00
FILE "09 Name Above All Names.wav" WAVE
  TRACK 09 AUDIO
    TITLE "Name Above All Names"
    PERFORMER "Newsboys"
    INDEX 01 00:00:00
FILE "10 When The Tears Fall.wav" WAVE
  TRACK 10 AUDIO
    TITLE "When The Tears Fall"
    PERFORMER "Newsboys"
    INDEX 01 00:00:00
  TRACK 11 MODEx/2xxx
    TITLE "Track11"
    PERFORMER "Newsboys"
    INDEX 00 06:12:03
Код:
Exact Audio Copy V0.99 prebeta 5 from 4. May 2009
EAC extraction logfile from 16. January 2010, 11:55
Newsboys / Devotion
Used drive  : TSSTcorpCDRWDVD TS-H493A   Adapter: 1  ID: 0
Read mode               : Secure
Utilize accurate stream : Yes
Defeat audio cache      : Yes
Make use of C2 pointers : No
Read offset correction                      : 6
Overread into Lead-In and Lead-Out          : No
Fill up missing offset samples with silence : Yes
Delete leading and trailing silent blocks   : No
Null samples used in CRC calculations       : Yes
Used interface                              : Installed external ASPI interface
Gap handling                                : Appended to previous track
Used output format              : User Defined Encoder
Selected bitrate                : 128 kBit/s
Quality                         : High
Add ID3 tag                     : No
Command line compressor         : Z:\media\hd\Program Files\Exact Audio Copy\Flac\flac.exe
Additional command line options : -V -8 -T "artist=%a" -T "title=%t" -T "album=%g" -T "date=%y" -T "tracknumber=%n" -T "genre=%m" %s
TOC of the extracted CD
     Track |   Start  |  Length  | Start sector | End sector
    ---------------------------------------------------------
        1  |  0:00.00 |  3:58.12 |         0    |    17861
        2  |  3:58.12 |  3:41.05 |     17862    |    34441
        3  |  7:39.17 |  3:57.05 |     34442    |    52221
        4  | 11:36.22 |  4:03.13 |     52222    |    70459
        5  | 15:39.35 |  3:47.07 |     70460    |    87491
        6  | 19:26.42 |  4:34.38 |     87492    |   108079
        7  | 24:01.05 |  4:05.70 |    108080    |   126524
        8  | 28:07.00 |  4:23.25 |    126525    |   146274
        9  | 32:30.25 |  3:27.72 |    146275    |   161871
       10  | 35:58.22 |  6:12.03 |    161872    |   189774
       11  | 44:42.25 |  0:16.42 |    201175    |   202416
Track  1
     Filename E:\CDs\01 Devotion.wav
     Pre-gap length  0:00:02.00
     Peak level 98.8 %
     Track quality 100.0 %
     Test CRC 06C60078
     Copy CRC 06C60078
     Accurately ripped (confidence 20)  [C346CF2C]
     Copy OK
Track  2
     Filename E:\CDs\02 Love Your Ways.wav
     Peak level 98.8 %
     Track quality 100.0 %
     Test CRC 2DAA50A0
     Copy CRC 2DAA50A0
     Accurately ripped (confidence 19)  [EF2B9014]
     Copy OK
Track  3
     Filename E:\CDs\03 Presence (My Heart's Desire).wav
     Peak level 98.8 %
     Track quality 100.0 %
     Test CRC D57803C2
     Copy CRC D57803C2
     Accurately ripped (confidence 19)  [415299E9]
     Copy OK
Track  4
     Filename E:\CDs\04 Strong Tower.wav
     Peak level 98.8 %
     Track quality 100.0 %
     Test CRC FB4D5CA5
     Copy CRC FB4D5CA5
     Accurately ripped (confidence 19)  [44CE1846]
     Copy OK
Track  5
     Filename E:\CDs\05 God Of Nations.wav
     Peak level 98.8 %
     Track quality 100.0 %
     Test CRC A1B32F71
     Copy CRC A1B32F71
     Accurately ripped (confidence 19)  [A92AA7BE]
     Copy OK
Track  6
     Filename E:\CDs\06 Blessed Be Your Name.wav
     Peak level 98.8 %
     Track quality 100.0 %
     Test CRC 35F85163
     Copy CRC 35F85163
     Accurately ripped (confidence 20)  [F0257E86]
     Copy OK
Track  7
     Filename E:\CDs\07 The Orphan.wav
     Peak level 98.8 %
     Track quality 100.0 %
     Test CRC 802DD9A7
     Copy CRC 802DD9A7
     Accurately ripped (confidence 19)  [EDD19F3A]
     Copy OK
Track  8
     Filename E:\CDs\08 Landslide Of Love.wav
     Peak level 98.8 %
     Track quality 99.9 %
     Test CRC 3426F139
     Copy CRC 3426F139
     Accurately ripped (confidence 19)  [B8BBFD66]
     Copy OK
Track  9
     Filename E:\CDs\09 Name Above All Names.wav
     Peak level 98.8 %
     Track quality 100.0 %
     Test CRC BCA2C1D3
     Copy CRC BCA2C1D3
     Accurately ripped (confidence 20)  [B7B9241B]
     Copy OK
Track 10
     Filename E:\CDs\10 When The Tears Fall.wav
     Peak level 98.8 %
     Track quality 100.0 %
     Test CRC ECE1E745
     Copy CRC ECE1E745
     Accurately ripped (confidence 19)  [297DAEAC]
     Copy OK
All tracks accurately ripped
No errors occurred
End of status report
#777Источник: what.cd (boggler)
Издатель (лейбл): Inpop Records
Продолжительность: 39:58
Трэклист:
01. Wherever We Go (3:27)
02. Go (2:52)
03. Something Beautiful (3:51)
04. The Mission (3:41)
05. Let It All Come Out (4:20)
06. In Wonder (4:12)
07. Your Love Is Better Than Life (3:40)
08. I am Free (3:37)
09. Secret Kingdom (3:21)
10. The Letter (3:23)
11. Gonna Be Alright (3:34)
Код:
REM GENRE Unknown
REM DATE 2006
REM DISCID 93095E0B
REM COMMENT "ExactAudioCopy v0.99pb4"
CATALOG 0000000000000
PERFORMER "Newsboys"
TITLE "GO"
FILE "01 - Wherever We Go.wav" WAVE
  TRACK 01 AUDIO
    TITLE "Wherever We Go"
    PERFORMER "Newsboys"
    ISRC USP1R0600128
    INDEX 01 00:00:00
FILE "02 - Go.wav" WAVE
  TRACK 02 AUDIO
    TITLE "Go"
    PERFORMER "Newsboys"
    ISRC USP1R0600127
    INDEX 01 00:00:00
FILE "03 - Something Beautiful.wav" WAVE
  TRACK 03 AUDIO
    TITLE "Something Beautiful"
    PERFORMER "Newsboys"
    ISRC USP1R0600129
    INDEX 01 00:00:00
FILE "04 - The Mission.wav" WAVE
  TRACK 04 AUDIO
    TITLE "The Mission"
    PERFORMER "Newsboys"
    ISRC USP1R0600130
    INDEX 01 00:00:00
  TRACK 05 AUDIO
    TITLE "Let It All Come Out"
    PERFORMER "Newsboys"
    ISRC USP1R0600134
    INDEX 00 03:40:29
FILE "05 - Let It All Come Out.wav" WAVE
    INDEX 01 00:00:00
FILE "06 - In Wonder.wav" WAVE
  TRACK 06 AUDIO
    TITLE "In Wonder"
    PERFORMER "Newsboys"
    ISRC USP1R0600126
    INDEX 01 00:00:00
  TRACK 07 AUDIO
    TITLE "Your Love Is Better Than Life"
    PERFORMER "Newsboys"
    ISRC USP1R0600131
    INDEX 00 04:11:20
FILE "07 - Your Love Is Better Than Life.wav" WAVE
    INDEX 01 00:00:00
  TRACK 08 AUDIO
    TITLE "I am Free"
    PERFORMER "Newsboys"
    ISRC USP1R0600125
    INDEX 00 03:39:40
FILE "08 - I am Free.wav" WAVE
    INDEX 01 00:00:00
FILE "09 - Secret Kingdom.wav" WAVE
  TRACK 09 AUDIO
    TITLE "Secret Kingdom"
    PERFORMER "Newsboys"
    ISRC USP1R0600132
    INDEX 01 00:00:00
  TRACK 10 AUDIO
    TITLE "The Letter"
    PERFORMER "Newsboys"
    ISRC USP1R0600133
    INDEX 00 03:20:37
FILE "10 - The Letter.wav" WAVE
    INDEX 01 00:00:00
FILE "11 - Gonna Be Alright.wav" WAVE
  TRACK 11 AUDIO
    TITLE "Gonna Be Alright"
    PERFORMER "Newsboys"
    ISRC USP1R0600135
    INDEX 01 00:00:00
Код:
Exact Audio Copy V0.99 prebeta 4 from 23. January 2008
EAC extraction logfile from 6. January 2009, 17:51
Newsboys / GO
Used drive  : SONY    DVD-ROM DDU1613   Adapter: 1  ID: 1
Read mode               : Secure
Utilize accurate stream : Yes
Defeat audio cache      : Yes
Make use of C2 pointers : No
Read offset correction                      : 12
Overread into Lead-In and Lead-Out          : No
Fill up missing offset samples with silence : Yes
Delete leading and trailing silent blocks   : No
Null samples used in CRC calculations       : Yes
Used interface                              : Native Win32 interface for Win NT & 2000
Gap handling                                : Appended to previous track
Used output format              : User Defined Encoder
Selected bitrate                : 1024 kBit/s
Quality                         : High
Add ID3 tag                     : No
Command line compressor         : C:\Program Files\Exact Audio Copy\Flac\flac.exe
Additional command line options : -V -8 -T "artist=%a" -T "title=%t" -T "album=%g" -T "date=%y" -T "tracknumber=%n" -T "genre=%m" %s
TOC of the extracted CD
     Track |   Start  |  Length  | Start sector | End sector
    ---------------------------------------------------------
        1  |  0:00.00 |  3:27.27 |         0    |    15551
        2  |  3:27.27 |  2:52.14 |     15552    |    28465
        3  |  6:19.41 |  3:51.15 |     28466    |    45805
        4  | 10:10.56 |  3:40.64 |     45806    |    62369
        5  | 13:51.45 |  4:20.10 |     62370    |    81879
        6  | 18:11.55 |  4:12.10 |     81880    |   100789
        7  | 22:23.65 |  3:39.65 |    100790    |   117279
        8  | 26:03.55 |  3:36.57 |    117280    |   133536
        9  | 29:40.37 |  3:21.21 |    133537    |   148632
       10  | 33:01.58 |  3:22.55 |    148633    |   163837
       11  | 36:24.38 |  3:33.41 |    163838    |   179853
Track  1
     Filename C:\EACrips\Newsboys - 2006 - GO\01 - Wherever We Go.wav
     Pre-gap length  0:00:02.00
     Peak level 100.0 %
     Track quality 100.0 %
     Test CRC 2DECD1B4
     Copy CRC 2DECD1B4
     Cannot be verified as accurate (confidence 2)  [608E3EFB], AccurateRip returned [88C6BD65]
     Copy OK
Track  2
     Filename C:\EACrips\Newsboys - 2006 - GO\02 - Go.wav
     Peak level 100.0 %
     Track quality 100.0 %
     Test CRC 6DB01998
     Copy CRC 6DB01998
     Cannot be verified as accurate (confidence 2)  [8F72C147], AccurateRip returned [C200DEAB]
     Copy OK
Track  3
     Filename C:\EACrips\Newsboys - 2006 - GO\03 - Something Beautiful.wav
     Peak level 100.0 %
     Track quality 100.0 %
     Test CRC 89C25A36
     Copy CRC 89C25A36
     Cannot be verified as accurate (confidence 2)  [7F118C19], AccurateRip returned [216AF9D4]
     Copy OK
Track  4
     Filename C:\EACrips\Newsboys - 2006 - GO\04 - The Mission.wav
     Peak level 100.0 %
     Track quality 100.0 %
     Test CRC 3907F131
     Copy CRC 3907F131
     Cannot be verified as accurate (confidence 2)  [43D82946], AccurateRip returned [9B0AE439]
     Copy OK
Track  5
     Filename C:\EACrips\Newsboys - 2006 - GO\05 - Let It All Come Out.wav
     Pre-gap length  0:00:00.35
     Peak level 100.0 %
     Track quality 100.0 %
     Test CRC C42D3DA4
     Copy CRC C42D3DA4
     Cannot be verified as accurate (confidence 2)  [0BE4C0E2], AccurateRip returned [DE3EF681]
     Copy OK
Track  6
     Filename C:\EACrips\Newsboys - 2006 - GO\06 - In Wonder.wav
     Peak level 100.0 %
     Track quality 100.0 %
     Test CRC 9F711C74
     Copy CRC 9F711C74
     Cannot be verified as accurate (confidence 2)  [93AF15FF], AccurateRip returned [AEB5EF6F]
     Copy OK
Track  7
     Filename C:\EACrips\Newsboys - 2006 - GO\07 - Your Love Is Better Than Life.wav
     Pre-gap length  0:00:00.65
     Peak level 100.0 %
     Track quality 100.0 %
     Test CRC 993ABB8E
     Copy CRC 993ABB8E
     Cannot be verified as accurate (confidence 2)  [E73697E7], AccurateRip returned [86535E61]
     Copy OK
Track  8
     Filename C:\EACrips\Newsboys - 2006 - GO\08 - I am Free.wav
     Pre-gap length  0:00:00.25
     Peak level 100.0 %
     Track quality 100.0 %
     Test CRC 0934754D
     Copy CRC 0934754D
     Cannot be verified as accurate (confidence 2)  [E4EAF45F], AccurateRip returned [58AB93B8]
     Copy OK
Track  9
     Filename C:\EACrips\Newsboys - 2006 - GO\09 - Secret Kingdom.wav
     Peak level 100.0 %
     Track quality 100.0 %
     Test CRC 93593113
     Copy CRC 93593113
     Cannot be verified as accurate (confidence 2)  [8330D52D], AccurateRip returned [B421384C]
     Copy OK
Track 10
     Filename C:\EACrips\Newsboys - 2006 - GO\10 - The Letter.wav
     Pre-gap length  0:00:00.59
     Peak level 100.0 %
     Track quality 100.0 %
     Test CRC 4A42A69A
     Copy CRC 4A42A69A
     Cannot be verified as accurate (confidence 2)  [884FB31A], AccurateRip returned [CD53FC51]
     Copy OK
Track 11
     Filename C:\EACrips\Newsboys - 2006 - GO\11 - Gonna Be Alright.wav
     Peak level 100.0 %
     Track quality 99.9 %
     Test CRC 1C7F7DD0
     Copy CRC 1C7F7DD0
     Cannot be verified as accurate (confidence 2)  [4A65DB6E], AccurateRip returned [5E6F2D46]
     Copy OK
No tracks could be verified as accurate
You may have a different pressing from the one(s) in the database
No errors occurred
End of status report
#777Источник: what.cd (gardenriver)
Издатель (лейбл): Inpop Records
Продолжительность: 37:34
Трэклист:
01. The Way We Roll (3:27)
02. No Grave (3:45)
03. This Is Your Life (3:25)
04. Glorious (4:12)
05. In The Hands of God (4:18)
06. The Upside (3:19)
07. My Friend Jesus (2:50)
08. Lead Me To The Cross (4:08)
09. Dance (3:36)
10. RSL 1984 (4:34)
Код:
REM GENRE "Christian Rock"
REM DATE 2009
REM DISCID 9108CE0A
REM COMMENT "ExactAudioCopy v0.99pb5"
FILE "Newsboys - 2009 - In The Hands Of God [FLAC]\01 The Way We Roll.wav" WAVE
  TRACK 01 AUDIO
    FLAGS DCP
    INDEX 01 00:00:00
FILE "Newsboys - 2009 - In The Hands Of God [FLAC]\02 No Grave.wav" WAVE
  TRACK 02 AUDIO
    FLAGS DCP
    INDEX 01 00:00:00
FILE "Newsboys - 2009 - In The Hands Of God [FLAC]\03 This Is Your Life.wav" WAVE
  TRACK 03 AUDIO
    FLAGS DCP
    INDEX 01 00:00:00
FILE "Newsboys - 2009 - In The Hands Of God [FLAC]\04 Glorious.wav" WAVE
  TRACK 04 AUDIO
    FLAGS DCP
    INDEX 01 00:00:00
FILE "Newsboys - 2009 - In The Hands Of God [FLAC]\05 In The Hands of God.wav" WAVE
  TRACK 05 AUDIO
    FLAGS DCP
    INDEX 01 00:00:00
FILE "Newsboys - 2009 - In The Hands Of God [FLAC]\06 The Upside.wav" WAVE
  TRACK 06 AUDIO
    FLAGS DCP
    INDEX 01 00:00:00
FILE "Newsboys - 2009 - In The Hands Of God [FLAC]\07 My Friend Jesus.wav" WAVE
  TRACK 07 AUDIO
    FLAGS DCP
    INDEX 01 00:00:00
FILE "Newsboys - 2009 - In The Hands Of God [FLAC]\08 Lead Me To The Cross.wav" WAVE
  TRACK 08 AUDIO
    FLAGS DCP
    INDEX 01 00:00:00
FILE "Newsboys - 2009 - In The Hands Of God [FLAC]\09 Dance.wav" WAVE
  TRACK 09 AUDIO
    FLAGS DCP
    INDEX 01 00:00:00
FILE "Newsboys - 2009 - In The Hands Of God [FLAC]\10 RSL 1984.wav" WAVE
  TRACK 10 AUDIO
    FLAGS DCP
    INDEX 01 00:00:00
Код:
Exact Audio Copy V0.99 prebeta 5 from 4. May 2009
EAC extraction logfile from 9. November 2009, 17:30
Newsboys / In The Hands Of God
Used drive  : TSSTcorpCD/DVDW SH-S183L   Adapter: 3  ID: 0
Read mode               : Secure
Utilize accurate stream : Yes
Defeat audio cache      : Yes
Make use of C2 pointers : No
Read offset correction                      : 6
Overread into Lead-In and Lead-Out          : No
Fill up missing offset samples with silence : Yes
Delete leading and trailing silent blocks   : No
Null samples used in CRC calculations       : Yes
Used interface                              : Native Win32 interface for Win NT & 2000
Gap handling                                : Appended to previous track
Used output format              : User Defined Encoder
Selected bitrate                : 128 kBit/s
Quality                         : High
Add ID3 tag                     : No
Command line compressor         : C:\Program Files\Exact Audio Copy\Flac\flac.exe
Additional command line options : -V -8 -T "artist=%a" -T "title=%t" -T "album=%g" -T "date=%y" -T "tracknumber=%n" -T "genre=%m" %s
TOC of the extracted CD
     Track |   Start  |  Length  | Start sector | End sector
    ---------------------------------------------------------
        1  |  0:00.00 |  3:27.04 |         0    |    15528
        2  |  3:27.04 |  3:44.72 |     15529    |    32400
        3  |  7:12.01 |  3:25.02 |     32401    |    47777
        4  | 10:37.03 |  4:11.62 |     47778    |    66664
        5  | 14:48.65 |  4:18.22 |     66665    |    86036
        6  | 19:07.12 |  3:18.70 |     86037    |   100956
        7  | 22:26.07 |  2:50.03 |    100957    |   113709
        8  | 25:16.10 |  4:08.33 |    113710    |   132342
        9  | 29:24.43 |  3:35.66 |    132343    |   148533
       10  | 33:00.34 |  4:34.06 |    148534    |   169089
Track  1
     Filename C:\Users\Justice\CD Rips\FLAC\Newsboys - 2009 - In The Hands Of God [FLAC]\01 The Way We Roll.wav
     Pre-gap length  0:00:02.00
     Peak level 100.0 %
     Track quality 100.0 %
     Test CRC CDD7A89C
     Copy CRC CDD7A89C
     Accurately ripped (confidence 14)  [69540164]
     Copy OK
Track  2
     Filename C:\Users\Justice\CD Rips\FLAC\Newsboys - 2009 - In The Hands Of God [FLAC]\02 No Grave.wav
     Peak level 100.0 %
     Track quality 100.0 %
     Test CRC 0CC71B33
     Copy CRC 0CC71B33
     Accurately ripped (confidence 14)  [B496665D]
     Copy OK
Track  3
     Filename C:\Users\Justice\CD Rips\FLAC\Newsboys - 2009 - In The Hands Of God [FLAC]\03 This Is Your Life.wav
     Peak level 98.5 %
     Track quality 100.0 %
     Test CRC 238D1AC8
     Copy CRC 238D1AC8
     Accurately ripped (confidence 14)  [2E7BD3CB]
     Copy OK
Track  4
     Filename C:\Users\Justice\CD Rips\FLAC\Newsboys - 2009 - In The Hands Of God [FLAC]\04 Glorious.wav
     Peak level 98.4 %
     Track quality 100.0 %
     Test CRC 209F2426
     Copy CRC 209F2426
     Accurately ripped (confidence 14)  [CAA39694]
     Copy OK
Track  5
     Filename C:\Users\Justice\CD Rips\FLAC\Newsboys - 2009 - In The Hands Of God [FLAC]\05 In The Hands of God.wav
     Peak level 97.4 %
     Track quality 100.0 %
     Test CRC 167CCC83
     Copy CRC 167CCC83
     Accurately ripped (confidence 14)  [F268F880]
     Copy OK
Track  6
     Filename C:\Users\Justice\CD Rips\FLAC\Newsboys - 2009 - In The Hands Of God [FLAC]\06 The Upside.wav
     Peak level 100.0 %
     Track quality 100.0 %
     Test CRC 433B2CA7
     Copy CRC 433B2CA7
     Accurately ripped (confidence 14)  [944FDABB]
     Copy OK
Track  7
     Filename C:\Users\Justice\CD Rips\FLAC\Newsboys - 2009 - In The Hands Of God [FLAC]\07 My Friend Jesus.wav
     Peak level 98.0 %
     Track quality 100.0 %
     Test CRC 113DF2E2
     Copy CRC 113DF2E2
     Accurately ripped (confidence 14)  [998213CB]
     Copy OK
Track  8
     Filename C:\Users\Justice\CD Rips\FLAC\Newsboys - 2009 - In The Hands Of God [FLAC]\08 Lead Me To The Cross.wav
     Peak level 100.0 %
     Track quality 100.0 %
     Test CRC 2A314100
     Copy CRC 2A314100
     Accurately ripped (confidence 14)  [E384F623]
     Copy OK
Track  9
     Filename C:\Users\Justice\CD Rips\FLAC\Newsboys - 2009 - In The Hands Of God [FLAC]\09 Dance.wav
     Peak level 100.0 %
     Track quality 100.0 %
     Test CRC 91DFB335
     Copy CRC 91DFB335
     Accurately ripped (confidence 14)  [D52B3DED]
     Copy OK
Track 10
     Filename C:\Users\Justice\CD Rips\FLAC\Newsboys - 2009 - In The Hands Of God [FLAC]\10 RSL 1984.wav
     Peak level 97.9 %
     Track quality 100.0 %
     Test CRC A3170183
     Copy CRC A3170183
     Accurately ripped (confidence 14)  [B4CE3C9E]
     Copy OK
All tracks accurately ripped
No errors occurred
End of status report
#777Источник: what.cd (weisguy)
Издатель (лейбл): Inpop Records
Продолжительность: 42:05
Трэклист:
01. Born Again (3:11)
02. One Shot (3:28)
03. Way Beyond Myself (3:34)
04. Impossible (3:40)
05. When The Boys Light Up (3:07)
06. Build Us Back (4:21)
07. Escape (2:47)
08. Miracles (3:00)
09. Running To You (3:25)
10. On Your Knees (3:13)
11. Mighty To Save (4:13)
12. Jesus Freak (4:06)
Код:
REM GENRE Christian
REM DATE 2010
REM DISCID 8309DD0C
REM COMMENT "ExactAudioCopy v1.0b1"
FILE "01 - Born Again.wav" WAVE
  TRACK 01 AUDIO
    FLAGS DCP
    INDEX 01 00:00:00
FILE "02 - One Shot.wav" WAVE
  TRACK 02 AUDIO
    FLAGS DCP
    INDEX 01 00:00:00
FILE "03 - Way Beyond Myself.wav" WAVE
  TRACK 03 AUDIO
    FLAGS DCP
    INDEX 01 00:00:00
FILE "04 - Impossible.wav" WAVE
  TRACK 04 AUDIO
    FLAGS DCP
    INDEX 01 00:00:00
FILE "05 - When The Boys Light Up.wav" WAVE
  TRACK 05 AUDIO
    FLAGS DCP
    INDEX 01 00:00:00
FILE "06 - Build Us Back.wav" WAVE
  TRACK 06 AUDIO
    FLAGS DCP
    INDEX 01 00:00:00
FILE "07 - Escape.wav" WAVE
  TRACK 07 AUDIO
    FLAGS DCP
    INDEX 01 00:00:00
FILE "08 - Miracles.wav" WAVE
  TRACK 08 AUDIO
    FLAGS DCP
    INDEX 01 00:00:00
FILE "09 - Running To You.wav" WAVE
  TRACK 09 AUDIO
    FLAGS DCP
    INDEX 01 00:00:00
FILE "10 - On Your Knees.wav" WAVE
  TRACK 10 AUDIO
    FLAGS DCP
    INDEX 01 00:00:00
FILE "11 - Mighty To Save.wav" WAVE
  TRACK 11 AUDIO
    FLAGS DCP
    INDEX 01 00:00:00
FILE "12 - Jesus Freak.wav" WAVE
  TRACK 12 AUDIO
    FLAGS DCP
    INDEX 01 00:00:00
Код:
Exact Audio Copy V1.0 beta 1 from 15. November 2010
EAC extraction logfile from 8. June 2011, 14:50
Newsboys / Born Again
Used drive  : HL-DT-STRW/DVD GCC-M10N   Adapter: 1  ID: 0
Read mode               : Secure
Utilize accurate stream : Yes
Defeat audio cache      : Yes
Make use of C2 pointers : No
Read offset correction                      : 102
Overread into Lead-In and Lead-Out          : No
Fill up missing offset samples with silence : Yes
Delete leading and trailing silent blocks   : No
Null samples used in CRC calculations       : Yes
Used interface                              : Native Win32 interface for Win NT & 2000
Gap handling                                : Appended to previous track
Used output format              : User Defined Encoder
Selected bitrate                : 128 kBit/s
Quality                         : High
Add ID3 tag                     : No
Command line compressor         : C:\Program Files (x86)\Exact Audio Copy\Flac\flac.exe
Additional command line options : -V -8 -T "artist=%a" -T "title=%t" -T "album=%g" -T "date=%y" -T "tracknumber=%n" -T "genre=%m" %s
TOC of the extracted CD
     Track |   Start  |  Length  | Start sector | End sector
    ---------------------------------------------------------
        1  |  0:00.00 |  3:10.60 |         0    |    14309
        2  |  3:10.60 |  3:28.29 |     14310    |    29938
        3  |  6:39.14 |  3:33.71 |     29939    |    45984
        4  | 10:13.10 |  3:39.52 |     45985    |    62461
        5  | 13:52.62 |  3:06.45 |     62462    |    76456
        6  | 16:59.32 |  4:21.14 |     76457    |    96045
        7  | 21:20.46 |  2:47.28 |     96046    |   108598
        8  | 24:07.74 |  3:00.04 |    108599    |   122102
        9  | 27:08.03 |  3:24.68 |    122103    |   137470
       10  | 30:32.71 |  3:12.65 |    137471    |   151935
       11  | 33:45.61 |  4:13.29 |    151936    |   170939
       12  | 37:59.15 |  4:05.65 |    170940    |   189379
Track  1
     Filename C:\wave dumps\01 - Born Again.wav
     Pre-gap length  0:00:02.00
     Peak level 100.0 %
     Extraction speed 1.8 X
     Track quality 100.0 %
     Test CRC 98EA2C6A
     Copy CRC 98EA2C6A
     Accurately ripped (confidence 3)  [2731D386]
     Copy OK
Track  2
     Filename C:\wave dumps\02 - One Shot.wav
     Peak level 100.0 %
     Extraction speed 2.1 X
     Track quality 100.0 %
     Test CRC 6FDE5884
     Copy CRC 6FDE5884
     Accurately ripped (confidence 3)  [07BB5E91]
     Copy OK
Track  3
     Filename C:\wave dumps\03 - Way Beyond Myself.wav
     Peak level 100.0 %
     Extraction speed 2.2 X
     Track quality 100.0 %
     Test CRC 22F274F6
     Copy CRC 22F274F6
     Accurately ripped (confidence 3)  [CA5E4C65]
     Copy OK
Track  4
     Filename C:\wave dumps\04 - Impossible.wav
     Peak level 100.0 %
     Extraction speed 2.4 X
     Track quality 100.0 %
     Test CRC 1AFEF2D2
     Copy CRC 1AFEF2D2
     Accurately ripped (confidence 3)  [DE4D4509]
     Copy OK
Track  5
     Filename C:\wave dumps\05 - When The Boys Light Up.wav
     Peak level 100.0 %
     Extraction speed 2.1 X
     Track quality 99.9 %
     Test CRC F2CF474F
     Copy CRC F2CF474F
     Accurately ripped (confidence 3)  [A8CD6F31]
     Copy OK
Track  6
     Filename C:\wave dumps\06 - Build Us Back.wav
     Peak level 100.0 %
     Extraction speed 2.7 X
     Track quality 100.0 %
     Test CRC B8F9FD59
     Copy CRC B8F9FD59
     Accurately ripped (confidence 3)  [4E3BDEDB]
     Copy OK
Track  7
     Filename C:\wave dumps\07 - Escape.wav
     Peak level 100.0 %
     Extraction speed 2.2 X
     Track quality 99.9 %
     Test CRC 71A34807
     Copy CRC 71A34807
     Accurately ripped (confidence 3)  [93B07F6B]
     Copy OK
Track  8
     Filename C:\wave dumps\08 - Miracles.wav
     Peak level 100.0 %
     Extraction speed 2.8 X
     Track quality 100.0 %
     Test CRC 9C9F865B
     Copy CRC 9C9F865B
     Accurately ripped (confidence 3)  [31281280]
     Copy OK
Track  9
     Filename C:\wave dumps\09 - Running To You.wav
     Peak level 100.0 %
     Extraction speed 2.9 X
     Track quality 100.0 %
     Test CRC 6E0A89A8
     Copy CRC 6E0A89A8
     Accurately ripped (confidence 3)  [ACAB3C61]
     Copy OK
Track 10
     Filename C:\wave dumps\10 - On Your Knees.wav
     Peak level 100.0 %
     Extraction speed 2.9 X
     Track quality 100.0 %
     Test CRC C3838353
     Copy CRC C3838353
     Accurately ripped (confidence 3)  [86AD7826]
     Copy OK
Track 11
     Filename C:\wave dumps\11 - Mighty To Save.wav
     Peak level 100.0 %
     Extraction speed 3.2 X
     Track quality 100.0 %
     Test CRC D42D0077
     Copy CRC D42D0077
     Accurately ripped (confidence 3)  [B8A60FAE]
     Copy OK
Track 12
     Filename C:\wave dumps\12 - Jesus Freak.wav
     Peak level 100.0 %
     Extraction speed 3.3 X
     Track quality 100.0 %
     Test CRC 04CBE714
     Copy CRC 04CBE714
     Accurately ripped (confidence 3)  [D1F20C38]
     Copy OK
All tracks accurately ripped
No errors occurred
End of status report
==== Log checksum 7E1558B46215C2001E9D00F40317295239B23F19F528F70D972A29EC2CB7BC01 ====
#777Источник: what.cd (yoda57)
Издатель (лейбл): Inpop Records
Продолжительность: 49:31
Трэклист:
01. The King Is Coming (4:47)
02. God's Not Dead (Like A Lion) (4:18)
03. Your Love Never Fails (3:38)
04. Here We Stand (4:16)
05. Savior Of The World (3:39)
06. Forever Reign (3:53)
07. More Than Enough (3:43)
08. Revelation Song (4:50)
09. Pouring It Out For You (4:33)
10. Mighty To Save (4:28)
11. All The Way (4:07)
12. I Am Second (3:19)
Код:
REM GENRE Gospel
REM DATE 2011
REM DISCID AF0B9B0C
REM COMMENT "ExactAudioCopy v1.0b3"
FILE "Newsboys - God's Not Dead [FLAC]\01 - The King Is Coming.wav" WAVE
  TRACK 01 AUDIO
    FLAGS DCP
    INDEX 01 00:00:00
FILE "Newsboys - God's Not Dead [FLAC]\02 - God's Not Dead (Like A Lion).wav" WAVE
  TRACK 02 AUDIO
    FLAGS DCP
    INDEX 01 00:00:00
FILE "Newsboys - God's Not Dead [FLAC]\03 - Your Love Never Fails.wav" WAVE
  TRACK 03 AUDIO
    FLAGS DCP
    INDEX 01 00:00:00
FILE "Newsboys - God's Not Dead [FLAC]\04 - Here We Stand.wav" WAVE
  TRACK 04 AUDIO
    FLAGS DCP
    INDEX 01 00:00:00
FILE "Newsboys - God's Not Dead [FLAC]\05 - Savior Of The World.wav" WAVE
  TRACK 05 AUDIO
    FLAGS DCP
    INDEX 01 00:00:00
FILE "Newsboys - God's Not Dead [FLAC]\06 - Forever Reign.wav" WAVE
  TRACK 06 AUDIO
    FLAGS DCP
    INDEX 01 00:00:00
FILE "Newsboys - God's Not Dead [FLAC]\07 - More Than Enough.wav" WAVE
  TRACK 07 AUDIO
    FLAGS DCP
    INDEX 01 00:00:00
FILE "Newsboys - God's Not Dead [FLAC]\08 - Revelation Song.wav" WAVE
  TRACK 08 AUDIO
    FLAGS DCP
    INDEX 01 00:00:00
FILE "Newsboys - God's Not Dead [FLAC]\09 - Pouring It Out For You.wav" WAVE
  TRACK 09 AUDIO
    FLAGS DCP
    INDEX 01 00:00:00
FILE "Newsboys - God's Not Dead [FLAC]\10 - Mighty To Save.wav" WAVE
  TRACK 10 AUDIO
    FLAGS DCP
    INDEX 01 00:00:00
FILE "Newsboys - God's Not Dead [FLAC]\11 - All The Way.wav" WAVE
  TRACK 11 AUDIO
    FLAGS DCP
    INDEX 01 00:00:00
FILE "Newsboys - God's Not Dead [FLAC]\12 - I Am Second.wav" WAVE
  TRACK 12 AUDIO
    FLAGS DCP
    INDEX 01 00:00:00
Код:
Exact Audio Copy V1.0 beta 3 from 29. August 2011
EAC extraction logfile from 3. August 2012, 8:23
Newsboys / God's Not Dead
Used drive  : TSSTcorpDVD+-RW TS-L632D   Adapter: 1  ID: 0
Read mode               : Secure
Utilize accurate stream : Yes
Defeat audio cache      : Yes
Make use of C2 pointers : No
Read offset correction                      : 6
Overread into Lead-In and Lead-Out          : No
Fill up missing offset samples with silence : Yes
Delete leading and trailing silent blocks   : No
Null samples used in CRC calculations       : Yes
Used interface                              : Native Win32 interface for Win NT & 2000
Gap handling                                : Appended to previous track
Used output format              : User Defined Encoder
Selected bitrate                : 1024 kBit/s
Quality                         : High
Add ID3 tag                     : No
Command line compressor         : C:\Program Files\Exact Audio Copy\Flac\flac.exe
Additional command line options : -8 -V -T "ARTIST=%artist%" -T "TITLE=%title%" -T "ALBUM=%albumtitle%" -T "DATE=%year%" -T "TRACKNUMBER=%tracknr%" -T "GENRE=%genre%" -T "PERFORMER=%albuminterpret%" -T "COMPOSER=%composer%" %haslyrics%--tag-from-file=LYRICS="%lyricsfile%"%haslyrics% -T "ALBUMARTIST=%albumartist%" -T "DISCNUMBER=%cdnumber%" -T "TOTALDISCS=%totalcds%" -T "TOTALTRACKS=%numtracks%" -T "COMMENT=%comment%" %source% -o %dest%
TOC of the extracted CD
     Track |   Start  |  Length  | Start sector | End sector
    ---------------------------------------------------------
        1  |  0:00.00 |  4:46.44 |         0    |    21493
        2  |  4:46.44 |  4:18.34 |     21494    |    40877
        3  |  9:05.03 |  3:38.15 |     40878    |    57242
        4  | 12:43.18 |  4:16.15 |     57243    |    76457
        5  | 16:59.33 |  3:38.62 |     76458    |    92869
        6  | 20:38.20 |  3:52.53 |     92870    |   110322
        7  | 24:30.73 |  3:43.18 |    110323    |   127065
        8  | 28:14.16 |  4:49.54 |    127066    |   148794
        9  | 33:03.70 |  4:32.51 |    148795    |   169245
       10  | 37:36.46 |  4:28.02 |    169246    |   189347
       11  | 42:04.48 |  4:07.25 |    189348    |   207897
       12  | 46:11.73 |  3:19.18 |    207898    |   222840
Track  1
     Filename C:\rips\Newsboys - God's Not Dead [FLAC]\01 - The King Is Coming.wav
     Pre-gap length  0:00:02.00
     Peak level 97.7 %
     Extraction speed 3.0 X
     Track quality 100.0 %
     Test CRC 7CD44D93
     Copy CRC 7CD44D93
     Accurately ripped (confidence 6)  [53CD739E]  (AR v1)
     Copy OK
Track  2
     Filename C:\rips\Newsboys - God's Not Dead [FLAC]\02 - God's Not Dead (Like A Lion).wav
     Peak level 97.7 %
     Extraction speed 3.3 X
     Track quality 100.0 %
     Test CRC 95DB7DFA
     Copy CRC 95DB7DFA
     Accurately ripped (confidence 6)  [A7974A4A]  (AR v1)
     Copy OK
Track  3
     Filename C:\rips\Newsboys - God's Not Dead [FLAC]\03 - Your Love Never Fails.wav
     Peak level 97.7 %
     Extraction speed 3.4 X
     Track quality 100.0 %
     Test CRC 83F8A871
     Copy CRC 83F8A871
     Accurately ripped (confidence 6)  [65050D51]  (AR v1)
     Copy OK
Track  4
     Filename C:\rips\Newsboys - God's Not Dead [FLAC]\04 - Here We Stand.wav
     Peak level 97.7 %
     Extraction speed 3.7 X
     Track quality 100.0 %
     Test CRC E8D549DD
     Copy CRC E8D549DD
     Accurately ripped (confidence 6)  [3811D8DC]  (AR v1)
     Copy OK
Track  5
     Filename C:\rips\Newsboys - God's Not Dead [FLAC]\05 - Savior Of The World.wav
     Peak level 97.7 %
     Extraction speed 3.8 X
     Track quality 100.0 %
     Test CRC 85569965
     Copy CRC 85569965
     Accurately ripped (confidence 6)  [6709ED4F]  (AR v1)
     Copy OK
Track  6
     Filename C:\rips\Newsboys - God's Not Dead [FLAC]\06 - Forever Reign.wav
     Peak level 95.4 %
     Extraction speed 3.6 X
     Track quality 99.9 %
     Test CRC 19685182
     Copy CRC 19685182
     Accurately ripped (confidence 6)  [1BFC689A]  (AR v1)
     Copy OK
Track  7
     Filename C:\rips\Newsboys - God's Not Dead [FLAC]\07 - More Than Enough.wav
     Peak level 97.7 %
     Extraction speed 4.1 X
     Track quality 100.0 %
     Test CRC 0673D1FF
     Copy CRC 0673D1FF
     Accurately ripped (confidence 6)  [5023F951]  (AR v1)
     Copy OK
Track  8
     Filename C:\rips\Newsboys - God's Not Dead [FLAC]\08 - Revelation Song.wav
     Peak level 97.2 %
     Extraction speed 4.5 X
     Track quality 100.0 %
     Test CRC 252D5BE2
     Copy CRC 252D5BE2
     Accurately ripped (confidence 6)  [FCA0BFAA]  (AR v1)
     Copy OK
Track  9
     Filename C:\rips\Newsboys - God's Not Dead [FLAC]\09 - Pouring It Out For You.wav
     Peak level 97.7 %
     Extraction speed 4.6 X
     Track quality 100.0 %
     Test CRC 14CE9264
     Copy CRC 14CE9264
     Accurately ripped (confidence 6)  [41391B8A]  (AR v1)
     Copy OK
Track 10
     Filename C:\rips\Newsboys - God's Not Dead [FLAC]\10 - Mighty To Save.wav
     Peak level 97.3 %
     Extraction speed 4.8 X
     Track quality 100.0 %
     Test CRC 830134D2
     Copy CRC 830134D2
     Accurately ripped (confidence 6)  [1E0FE136]  (AR v1)
     Copy OK
Track 11
     Filename C:\rips\Newsboys - God's Not Dead [FLAC]\11 - All The Way.wav
     Peak level 97.7 %
     Extraction speed 4.3 X
     Track quality 99.9 %
     Test CRC 6118D041
     Copy CRC 6118D041
     Accurately ripped (confidence 6)  [06801DE8]  (AR v1)
     Copy OK
Track 12
     Filename C:\rips\Newsboys - God's Not Dead [FLAC]\12 - I Am Second.wav
     Peak level 97.5 %
     Extraction speed 4.9 X
     Track quality 100.0 %
     Test CRC EFDF7FE0
     Copy CRC EFDF7FE0
     Accurately ripped (confidence 6)  [E13D1880]  (AR v1)
     Copy OK
All tracks accurately ripped
No errors occurred
End of status report
---- CUETools DB Plugin V2.1.3
[CTDB TOCID: P7920fe1Q81zbNy8BZ2Njyl400Y-] found, Submit result: P7920fe1Q81zbNy8BZ2Njyl400Y- has been confirmed
[2d8e4bec] (9/9) Accurately ripped
==== Log checksum C35E6FBEC67254FCDFF533F2A1701B7F9085F6414134807BF821ED7951BA8D10 ====
Правила, инструкции, FAQ!!!
Торрент  Добавлен [26 мар 2019, 21:02] Скачать торрент Магнет ссылка
Скачать торрент
[ Размер 43.85 КБ / Просмотров 0 ]

Статус
Проверен 
 
Размер  6.07 ГБ
Приватный: Нет (DHT включён)
.torrent скачан  0
 


     Отправить личное сообщение
   
Страница 1 из 1
Показать сообщения за:  Поле сортировки  
Начать новую тему Ответить на тему


Сейчас этот форум просматривают: нет зарегистрированных пользователей и гости: 0


Вы не можете начинать темы
Вы не можете отвечать на сообщения
Вы не можете редактировать свои сообщения
Вы не можете удалять свои сообщения
Вы не можете добавлять вложения

Перейти:  
cron