Начать новую тему Ответить на тему
Статистика раздачи
Размер: 1.5 ГБ | Добавлен: 26 мар 2019, 20:59 | Скачали: 0
Сидеров: 0  [0 байт/сек]    Личеров: 0  [0 байт/сек]
Пред. тема | След. тема 

Автор
Сообщение

СообщениеДобавлено: 26 мар 2019, 20:59 

Ответить с цитатой 

Plumb



Жанр: Christian Rock / Временные рамки: 1997 - 2007 / Страна: USA / Аудио кодек: FLAC / Тип рипа: tracks+.cue / Битрейт аудио: lossless / Общая продолжительность: 03:51:54



Студийные Альбомы:
Треклист:
01. Sobering (Don't Turn Around) (3:44)
02. Who Am I? (4:12)
03. Unforgivable (3:42)
04. Endure (3:53)
05. Willow Tree (4:50)
06. Concrete (3:36)
07. Crazy (2:50)
08. Pennyless (3:02)
09. Cure (4:42)
10. Send Angels (10:13)
Продолжительность: 00:44:45


Код:
Exact Audio Copy V0.99 prebeta 4 from 23. January 2008
EAC extraction logfile from 27. August 2009, 20:06
Plumb / Plumb
Used drive  : TSSTcorpCD/DVDW TS-H653L   Adapter: 0  ID: 1
Read mode               : Secure
Utilize accurate stream : Yes
Defeat audio cache      : Yes
Make use of C2 pointers : No
Read offset correction                      : 6
Overread into Lead-In and Lead-Out          : No
Fill up missing offset samples with silence : Yes
Delete leading and trailing silent blocks   : No
Null samples used in CRC calculations       : Yes
Used interface                              : Native Win32 interface for Win NT & 2000
Gap handling                                : Appended to previous track
Used output format              : User Defined Encoder
Selected bitrate                : 128 kBit/s
Quality                         : High
Add ID3 tag                     : No
Command line compressor         : C:\*\flac.exe
Additional command line options : -V -8 -T "artist=%a" -T "title=%t" -T "album=%g" -T "date=%y" -T "tracknumber=%n" -T "genre=%m" %s
TOC of the extracted CD
     Track |   Start  |  Length  | Start sector | End sector
    ---------------------------------------------------------
        1  |  0:00.00 |  3:44.00 |         0    |    16799
        2  |  3:44.00 |  4:12.35 |     16800    |    35734
        3  |  7:56.35 |  3:41.42 |     35735    |    52351
        4  | 11:38.02 |  3:53.28 |     52352    |    69854
        5  | 15:31.30 |  4:50.24 |     69855    |    91628
        6  | 20:21.54 |  3:35.41 |     91629    |   107794
        7  | 23:57.20 |  2:50.05 |    107795    |   120549
        8  | 26:47.25 |  3:02.20 |    120550    |   134219
        9  | 29:49.45 |  4:41.72 |    134220    |   155366
       10  | 34:31.42 | 10:12.73 |    155367    |   201339
Track  1
     Filename C:\*\01. Sobering (Don't Turn Around).wav
     Pre-gap length  0:00:02.00
     Peak level 100.0 %
     Track quality 100.0 %
     Test CRC 19038145
     Copy CRC 19038145
     Cannot be verified as accurate (confidence 4)  [6E856467], AccurateRip returned [9F1175D5]
     Copy OK
Track  2
     Filename C:\*\02. Who Am I .wav
     Peak level 100.0 %
     Track quality 100.0 %
     Test CRC 9E37305E
     Copy CRC 9E37305E
     Cannot be verified as accurate (confidence 4)  [2BC37272], AccurateRip returned [9CBC5097]
     Copy OK
Track  3
     Filename C:\*\03. Unforgivable.wav
     Peak level 100.0 %
     Track quality 100.0 %
     Test CRC 24E5486F
     Copy CRC 24E5486F
     Cannot be verified as accurate (confidence 4)  [BB2AB282], AccurateRip returned [100F4FCF]
     Copy OK
Track  4
     Filename C:\*\04. Endure.wav
     Pre-gap length  0:00:01.37
     Peak level 100.0 %
     Track quality 100.0 %
     Test CRC 79F5F063
     Copy CRC 79F5F063
     Cannot be verified as accurate (confidence 4)  [C54817EB], AccurateRip returned [2DFF9A61]
     Copy OK
Track  5
     Filename C:\*\05. Willow Tree.wav
     Peak level 100.0 %
     Track quality 100.0 %
     Test CRC 543F619D
     Copy CRC 543F619D
     Cannot be verified as accurate (confidence 4)  [C2F5EBDE], AccurateRip returned [DAE6EE5A]
     Copy OK
Track  6
     Filename C:\*\06. Concrete.wav
     Peak level 100.0 %
     Track quality 100.0 %
     Test CRC 703CEA5B
     Copy CRC 703CEA5B
     Cannot be verified as accurate (confidence 3)  [4B884FC7], AccurateRip returned [133B1F67]
     Copy OK
Track  7
     Filename C:\*\07. Crazy.wav
     Peak level 100.0 %
     Track quality 100.0 %
     Test CRC 8CEA3898
     Copy CRC 8CEA3898
     Cannot be verified as accurate (confidence 4)  [6DE7E89A], AccurateRip returned [33C235DE]
     Copy OK
Track  8
     Filename C:\*\08. Pennyless.wav
     Peak level 95.7 %
     Track quality 99.9 %
     Test CRC 44433D35
     Copy CRC 44433D35
     Cannot be verified as accurate (confidence 4)  [30641BBB], AccurateRip returned [0EC32EDD]
     Copy OK
Track  9
     Filename C:\*\09. Cure.wav
     Peak level 100.0 %
     Track quality 100.0 %
     Test CRC 2B75440D
     Copy CRC 2B75440D
     Cannot be verified as accurate (confidence 4)  [A9EF973E], AccurateRip returned [7859E27E]
     Copy OK
Track 10
     Filename C:\*\10. Send Angels.wav
     Peak level 100.0 %
     Track quality 100.0 %
     Test CRC 76668633
     Copy CRC 76668633
     Cannot be verified as accurate (confidence 4)  [C05CC66E], AccurateRip returned [32D984EE]
     Copy OK
No tracks could be verified as accurate
You may have a different pressing from the one(s) in the database
No errors occurred
End of status report
Код:
REM DATE 1997
REM DISCID 7C0A7C0A
REM COMMENT "ExactAudioCopy v0.99pb4"
PERFORMER "Plumb"
TITLE "Plumb"
FILE "01. Sobering (Don't Turn Around).wav" WAVE
  TRACK 01 AUDIO
    TITLE "Sobering (Don't Turn Around)"
    PERFORMER "Plumb"
    INDEX 01 00:00:00
FILE "02. Who Am I .wav" WAVE
  TRACK 02 AUDIO
    TITLE "Who Am I?"
    PERFORMER "Plumb"
    INDEX 01 00:00:00
FILE "03. Unforgivable.wav" WAVE
  TRACK 03 AUDIO
    TITLE "Unforgivable"
    PERFORMER "Plumb"
    INDEX 01 00:00:00
  TRACK 04 AUDIO
    TITLE "Endure"
    PERFORMER "Plumb"
    INDEX 00 03:40:05
FILE "04. Endure.wav" WAVE
    INDEX 01 00:00:00
FILE "05. Willow Tree.wav" WAVE
  TRACK 05 AUDIO
    TITLE "Willow Tree"
    PERFORMER "Plumb"
    INDEX 01 00:00:00
FILE "06. Concrete.wav" WAVE
  TRACK 06 AUDIO
    TITLE "Concrete"
    PERFORMER "Plumb"
    INDEX 01 00:00:00
FILE "07. Crazy.wav" WAVE
  TRACK 07 AUDIO
    TITLE "Crazy"
    PERFORMER "Plumb"
    INDEX 01 00:00:00
FILE "08. Pennyless.wav" WAVE
  TRACK 08 AUDIO
    TITLE "Pennyless"
    PERFORMER "Plumb"
    INDEX 01 00:00:00
FILE "09. Cure.wav" WAVE
  TRACK 09 AUDIO
    TITLE "Cure"
    PERFORMER "Plumb"
    INDEX 01 00:00:00
FILE "10. Send Angels.wav" WAVE
  TRACK 10 AUDIO
    TITLE "Send Angels"
    PERFORMER "Plumb"
    INDEX 01 00:00:00
#777Треклист:
01. Late Great Planet Earth (3:56)
02. Stranded (3:39)
03. Here With Me (4:04)
04. Lie Low (3:13)
05. Phobic (4:29)
06. God-shaped Hole (3:50)
07. Solace (2:56)
08. Worlds Collide: a fairy tale (3:50)
09. Damaged (3:57)
10. Drugstore jesus (4:34)
11. candycoatedwaterdrops (5:25)
Продолжительность: 00:43:54


Код:
Exact Audio Copy V0.99 prebeta 4 from 23. January 2008
EAC extraction logfile from 27. August 2009, 19:45
Plumb / candycoatedwaterdrops
Used drive  : TSSTcorpCD/DVDW TS-H653L   Adapter: 0  ID: 1
Read mode               : Secure
Utilize accurate stream : Yes
Defeat audio cache      : Yes
Make use of C2 pointers : No
Read offset correction                      : 6
Overread into Lead-In and Lead-Out          : No
Fill up missing offset samples with silence : Yes
Delete leading and trailing silent blocks   : No
Null samples used in CRC calculations       : Yes
Used interface                              : Native Win32 interface for Win NT & 2000
Gap handling                                : Appended to previous track
Used output format              : User Defined Encoder
Selected bitrate                : 128 kBit/s
Quality                         : High
Add ID3 tag                     : No
Command line compressor         : C:\*\flac.exe
Additional command line options : -V -8 -T "artist=%a" -T "title=%t" -T "album=%g" -T "date=%y" -T "tracknumber=%n" -T "genre=%m" %s
TOC of the extracted CD
     Track |   Start  |  Length  | Start sector | End sector
    ---------------------------------------------------------
        1  |  0:00.00 |  3:56.27 |         0    |    17726
        2  |  3:56.27 |  3:39.08 |     17727    |    34159
        3  |  7:35.35 |  4:04.17 |     34160    |    52476
        4  | 11:39.52 |  3:12.43 |     52477    |    66919
        5  | 14:52.20 |  4:29.25 |     66920    |    87119
        6  | 19:21.45 |  3:50.05 |     87120    |   104374
        7  | 23:11.50 |  2:56.00 |    104375    |   117574
        8  | 26:07.50 |  3:50.22 |    117575    |   134846
        9  | 29:57.72 |  3:56.68 |    134847    |   152614
       10  | 33:54.65 |  4:33.50 |    152615    |   173139
       11  | 38:28.40 |  5:25.30 |    173140    |   197544
Track  1
     Filename C:\*\01. Late Great Planet Earth.wav
     Pre-gap length  0:00:02.00
     Peak level 90.5 %
     Track quality 100.0 %
     Test CRC 6D7249E1
     Copy CRC 6D7249E1
     Accurately ripped (confidence 17)  [71CD81C4]
     Copy OK
Track  2
     Filename C:\*\02. Stranded.wav
     Peak level 93.4 %
     Track quality 100.0 %
     Test CRC ACE61A4A
     Copy CRC ACE61A4A
     Accurately ripped (confidence 17)  [AA7F4DF7]
     Copy OK
Track  3
     Filename C:\*\03. Here With Me.wav
     Peak level 95.6 %
     Track quality 100.0 %
     Test CRC 5D359D29
     Copy CRC 5D359D29
     Accurately ripped (confidence 17)  [B9288A9A]
     Copy OK
Track  4
     Filename C:\*\04. Lie Low.wav
     Peak level 90.5 %
     Track quality 99.9 %
     Test CRC 346E4109
     Copy CRC 346E4109
     Accurately ripped (confidence 16)  [975B0CA4]
     Copy OK
Track  5
     Filename C:\*\05. Phobic.wav
     Peak level 92.2 %
     Track quality 100.0 %
     Test CRC FA38A6FF
     Copy CRC FA38A6FF
     Accurately ripped (confidence 17)  [96612B50]
     Copy OK
Track  6
     Filename C:\*\06. God-shaped Hole.wav
     Peak level 90.5 %
     Track quality 100.0 %
     Test CRC 172BC5F1
     Copy CRC 172BC5F1
     Accurately ripped (confidence 15)  [E3E65F2C]
     Copy OK
Track  7
     Filename C:\*\07. Solace.wav
     Peak level 92.6 %
     Track quality 99.9 %
     Test CRC DD919AFE
     Copy CRC DD919AFE
     Accurately ripped (confidence 17)  [55F5CA76]
     Copy OK
Track  8
     Filename C:\*\08. Worlds Collide- a fairy tale.wav
     Peak level 90.5 %
     Track quality 100.0 %
     Test CRC D0EAF0DC
     Copy CRC D0EAF0DC
     Accurately ripped (confidence 17)  [204D4910]
     Copy OK
Track  9
     Filename C:\*\09. Damaged.wav
     Peak level 89.1 %
     Track quality 100.0 %
     Test CRC B2D90BDC
     Copy CRC B2D90BDC
     Accurately ripped (confidence 17)  [8E6062D5]
     Copy OK
Track 10
     Filename C:\*\10. Drugstore jesus.wav
     Peak level 91.4 %
     Track quality 100.0 %
     Test CRC 8D8E4659
     Copy CRC 8D8E4659
     Accurately ripped (confidence 17)  [1FDD68A1]
     Copy OK
Track 11
     Filename C:\*\11. candycoatedwaterdrops [Introducing Madison Williams].wav
     Pre-gap length  0:00:02.43
     Peak level 90.5 %
     Track quality 100.0 %
     Test CRC F1E7F8B3
     Copy CRC F1E7F8B3
     Accurately ripped (confidence 17)  [8D9AA677]
     Copy OK
All tracks accurately ripped
No errors occurred
End of status report
Код:
REM DATE 1999
REM DISCID 970A490B
REM COMMENT "ExactAudioCopy v0.99pb4"
PERFORMER "Plumb"
TITLE "candycoatedwaterdrops"
FILE "01. Late Great Planet Earth.wav" WAVE
  TRACK 01 AUDIO
    TITLE "Late Great Planet Earth"
    PERFORMER "Plumb"
    INDEX 01 00:00:00
FILE "02. Stranded.wav" WAVE
  TRACK 02 AUDIO
    TITLE "Stranded"
    PERFORMER "Plumb"
    INDEX 01 00:00:00
FILE "03. Here With Me.wav" WAVE
  TRACK 03 AUDIO
    TITLE "Here With Me"
    PERFORMER "Plumb"
    INDEX 01 00:00:00
FILE "04. Lie Low.wav" WAVE
  TRACK 04 AUDIO
    TITLE "Lie Low"
    PERFORMER "Plumb"
    INDEX 01 00:00:00
FILE "05. Phobic.wav" WAVE
  TRACK 05 AUDIO
    TITLE "Phobic"
    PERFORMER "Plumb"
    INDEX 01 00:00:00
FILE "06. God-shaped Hole.wav" WAVE
  TRACK 06 AUDIO
    TITLE "God-shaped Hole"
    PERFORMER "Plumb"
    INDEX 01 00:00:00
FILE "07. Solace.wav" WAVE
  TRACK 07 AUDIO
    TITLE "Solace"
    PERFORMER "Plumb"
    INDEX 01 00:00:00
FILE "08. Worlds Collide- a fairy tale.wav" WAVE
  TRACK 08 AUDIO
    TITLE "Worlds Collide: a fairy tale"
    PERFORMER "Plumb"
    INDEX 01 00:00:00
FILE "09. Damaged.wav" WAVE
  TRACK 09 AUDIO
    TITLE "Damaged"
    PERFORMER "Plumb"
    INDEX 01 00:00:00
FILE "10. Drugstore jesus.wav" WAVE
  TRACK 10 AUDIO
    TITLE "Drugstore jesus"
    PERFORMER "Plumb"
    INDEX 01 00:00:00
  TRACK 11 AUDIO
    TITLE "candycoatedwaterdrops [Introducing Madison Williams]"
    PERFORMER "Plumb"
    INDEX 00 04:31:07
FILE "11. candycoatedwaterdrops [Introducing Madison Williams].wav" WAVE
    INDEX 01 00:00:00
#777Треклист:
01. Free (3:30)
02. Sink N' Swim (3:29)
03. Without You (3:32)
04. Boys Don't Cry (3:48)
05. Hold Me (3:40)
06. Walk Away (3:28)
07. Taken (4:15)
09. Unnoticed (3:08)
10. Real (3:43)
11. Love'em & Kiss'em (0:22)
12. Go (3:53)
Продолжительность: 00:36:48


Код:
Exact Audio Copy V0.99 prebeta 4 from 23. January 2008
EAC extraction logfile from 20. September 2009, 17:11
Plumb / Beautiful Lumps of Coal
Used drive  : LITE-ON DVDRW SHW-1635S   Adapter: 0  ID: 0
Read mode               : Secure
Utilize accurate stream : Yes
Defeat audio cache      : Yes
Make use of C2 pointers : No
Read offset correction                      : 6
Overread into Lead-In and Lead-Out          : No
Fill up missing offset samples with silence : Yes
Delete leading and trailing silent blocks   : No
Null samples used in CRC calculations       : Yes
Used interface                              : Native Win32 interface for Win NT & 2000
Gap handling                                : Appended to previous track
Used output format              : User Defined Encoder
Selected bitrate                : 768 kBit/s
Quality                         : High
Add ID3 tag                     : No
Command line compressor         : H:\Program Files\Exact Audio Copy\FLAC\FLAC.EXE
Additional command line options : -V -8 -T "artist=%a" -T "title=%t" -T "album=%g" -T "date=%y" -T "tracknumber=%n" -T "genre=%m" %s
TOC of the extracted CD
     Track |   Start  |  Length  | Start sector | End sector
    ---------------------------------------------------------
        1  |  0:00.00 |  3:29.67 |         0    |    15741
        2  |  3:29.67 |  3:29.10 |     15742    |    31426
        3  |  6:59.02 |  3:31.70 |     31427    |    47321
        4  | 10:30.72 |  3:48.08 |     47322    |    64429
        5  | 14:19.05 |  3:40.02 |     64430    |    80931
        6  | 17:59.07 |  3:28.25 |     80932    |    96556
        7  | 21:27.32 |  4:15.23 |     96557    |   115704
        8  | 25:42.55 |  4:15.37 |    115705    |   134866
        9  | 29:58.17 |  3:08.05 |    134867    |   148971
       10  | 33:06.22 |  3:42.58 |    148972    |   165679
       11  | 36:49.05 |  0:21.55 |    165680    |   167309
       12  | 37:10.60 |  3:52.60 |    167310    |   184769
Track  1
     Filename H:\Audio\FLAC\Plumb - 2003 - Beautiful Lumps of Coal\Plumb - Beautiful Lumps of Coal 01 - Free.wav
     Pre-gap length  0:00:02.00
     Peak level 100.0 %
     Track quality 100.0 %
     Test CRC AE536ABB
     Copy CRC AE536ABB
     Accurately ripped (confidence 11)  [E2663B45]
     Copy OK
Track  2
     Filename H:\Audio\FLAC\Plumb - 2003 - Beautiful Lumps of Coal\Plumb - Beautiful Lumps of Coal 02 - Sink N' Swim.wav
     Pre-gap length  0:00:00.67
     Peak level 100.0 %
     Track quality 100.0 %
     Test CRC 3C432416
     Copy CRC 3C432416
     Accurately ripped (confidence 11)  [804E1CD8]
     Copy OK
Track  3
     Filename H:\Audio\FLAC\Plumb - 2003 - Beautiful Lumps of Coal\Plumb - Beautiful Lumps of Coal 03 - Without You.wav
     Pre-gap length  0:00:00.62
     Peak level 100.0 %
     Track quality 100.0 %
     Test CRC 6149587C
     Copy CRC 6149587C
     Accurately ripped (confidence 11)  [5116AECA]
     Copy OK
Track  4
     Filename H:\Audio\FLAC\Plumb - 2003 - Beautiful Lumps of Coal\Plumb - Beautiful Lumps of Coal 04 - Boys Don't Cry.wav
     Pre-gap length  0:00:00.40
     Peak level 100.0 %
     Track quality 99.9 %
     Test CRC 9924EF23
     Copy CRC 9924EF23
     Accurately ripped (confidence 11)  [8D1E8365]
     Copy OK
Track  5
     Filename H:\Audio\FLAC\Plumb - 2003 - Beautiful Lumps of Coal\Plumb - Beautiful Lumps of Coal 05 - Hold Me.wav
     Pre-gap length  0:00:00.55
     Peak level 100.0 %
     Track quality 100.0 %
     Test CRC 98F49512
     Copy CRC 98F49512
     Accurately ripped (confidence 11)  [8AA8F7F4]
     Copy OK
Track  6
     Filename H:\Audio\FLAC\Plumb - 2003 - Beautiful Lumps of Coal\Plumb - Beautiful Lumps of Coal 06 - Walk Away.wav
     Pre-gap length  0:00:00.40
     Peak level 100.0 %
     Track quality 100.0 %
     Test CRC 38855B81
     Copy CRC 38855B81
     Accurately ripped (confidence 11)  [06D4C68C]
     Copy OK
Track  7
     Filename H:\Audio\FLAC\Plumb - 2003 - Beautiful Lumps of Coal\Plumb - Beautiful Lumps of Coal 07 - Taken.wav
     Pre-gap length  0:00:00.42
     Peak level 100.0 %
     Track quality 100.0 %
     Test CRC 052FF186
     Copy CRC 052FF186
     Accurately ripped (confidence 11)  [A5F82A31]
     Copy OK
Track  8
     Filename H:\Audio\FLAC\Plumb - 2003 - Beautiful Lumps of Coal\Plumb - Beautiful Lumps of Coal 08 - Nice Naпve and Beautiful.wav
     Pre-gap length  0:00:00.40
     Peak level 100.0 %
     Track quality 100.0 %
     Test CRC AB18748C
     Copy CRC AB18748C
     Accurately ripped (confidence 11)  [74478444]
     Copy OK
Track  9
     Filename H:\Audio\FLAC\Plumb - 2003 - Beautiful Lumps of Coal\Plumb - Beautiful Lumps of Coal 09 - Unnoticed.wav
     Peak level 100.0 %
     Track quality 100.0 %
     Test CRC E210E6CB
     Copy CRC E210E6CB
     Accurately ripped (confidence 11)  [705222EC]
     Copy OK
Track 10
     Filename H:\Audio\FLAC\Plumb - 2003 - Beautiful Lumps of Coal\Plumb - Beautiful Lumps of Coal 10 - Real.wav
     Pre-gap length  0:00:01.25
     Peak level 100.0 %
     Track quality 100.0 %
     Test CRC 58FD52CA
     Copy CRC 58FD52CA
     Accurately ripped (confidence 11)  [F157A469]
     Copy OK
Track 11
     Filename H:\Audio\FLAC\Plumb - 2003 - Beautiful Lumps of Coal\Plumb - Beautiful Lumps of Coal 11 - Love'em & Kiss'em.wav
     Pre-gap length  0:00:01.63
     Peak level 53.1 %
     Track quality 100.0 %
     Test CRC B08E593A
     Copy CRC B08E593A
     Accurately ripped (confidence 11)  [AD56284F]
     Copy OK
Track 12
     Filename H:\Audio\FLAC\Plumb - 2003 - Beautiful Lumps of Coal\Plumb - Beautiful Lumps of Coal 12 - Go.wav
     Peak level 100.0 %
     Track quality 99.9 %
     Test CRC 23708B4E
     Copy CRC 23708B4E
     Accurately ripped (confidence 11)  [8F3F5C11]
     Copy OK
All tracks accurately ripped
No errors occurred
End of status report
Код:
REM GENRE Alternative
REM DATE 2003
REM DISCID 85099F0C
REM COMMENT "ExactAudioCopy v0.99pb4"
PERFORMER "Plumb"
TITLE "Beautiful Lumps of Coal"
FILE "Plumb - Beautiful Lumps of Coal 01 - Free.wav" WAVE
  TRACK 01 AUDIO
    TITLE "Free"
    PERFORMER "Plumb"
    INDEX 01 00:00:00
  TRACK 02 AUDIO
    TITLE "Sink N' Swim"
    PERFORMER "Plumb"
    INDEX 00 03:29:00
FILE "Plumb - Beautiful Lumps of Coal 02 - Sink N' Swim.wav" WAVE
    INDEX 01 00:00:00
  TRACK 03 AUDIO
    TITLE "Without You"
    PERFORMER "Plumb"
    INDEX 00 03:28:23
FILE "Plumb - Beautiful Lumps of Coal 03 - Without You.wav" WAVE
    INDEX 01 00:00:00
  TRACK 04 AUDIO
    TITLE "Boys Don't Cry"
    PERFORMER "Plumb"
    INDEX 00 03:31:30
FILE "Plumb - Beautiful Lumps of Coal 04 - Boys Don't Cry.wav" WAVE
    INDEX 01 00:00:00
  TRACK 05 AUDIO
    TITLE "Hold Me"
    PERFORMER "Plumb"
    INDEX 00 03:47:28
FILE "Plumb - Beautiful Lumps of Coal 05 - Hold Me.wav" WAVE
    INDEX 01 00:00:00
  TRACK 06 AUDIO
    TITLE "Walk Away"
    PERFORMER "Plumb"
    INDEX 00 03:39:37
FILE "Plumb - Beautiful Lumps of Coal 06 - Walk Away.wav" WAVE
    INDEX 01 00:00:00
  TRACK 07 AUDIO
    TITLE "Taken"
    PERFORMER "Plumb"
    INDEX 00 03:27:58
FILE "Plumb - Beautiful Lumps of Coal 07 - Taken.wav" WAVE
    INDEX 01 00:00:00
  TRACK 08 AUDIO
    TITLE "Nice Naпve and Beautiful"
    PERFORMER "Plumb"
    INDEX 00 04:14:58
FILE "Plumb - Beautiful Lumps of Coal 08 - Nice Naпve and Beautiful.wav" WAVE
    INDEX 01 00:00:00
FILE "Plumb - Beautiful Lumps of Coal 09 - Unnoticed.wav" WAVE
  TRACK 09 AUDIO
    TITLE "Unnoticed"
    PERFORMER "Plumb"
    INDEX 01 00:00:00
  TRACK 10 AUDIO
    TITLE "Real"
    PERFORMER "Plumb"
    INDEX 00 03:06:55
FILE "Plumb - Beautiful Lumps of Coal 10 - Real.wav" WAVE
    INDEX 01 00:00:00
  TRACK 11 AUDIO
    TITLE "Love'em & Kiss'em"
    PERFORMER "Plumb"
    INDEX 00 03:40:70
FILE "Plumb - Beautiful Lumps of Coal 11 - Love'em & Kiss'em.wav" WAVE
    INDEX 01 00:00:00
FILE "Plumb - Beautiful Lumps of Coal 12 - Go.wav" WAVE
  TRACK 12 AUDIO
    TITLE "Go"
    PERFORMER "Plumb"
    INDEX 01 00:00:00
#777Треклист:
01. Blush (Only You) (3:50)
02. I Can't Do This (4:03)
03. Real Life Fairytale (5:05)
04. Better (4:10)
05. Manic (3:58)
06. Cut (4:02)
07. Bittersweet (4:50)
08. Good Behavior (4:02)
09. Motion (3:55)
10. I Have Nothing (2:53)
11. Jekyll & Hyde (4:35)
12. Sleep (5:47)
13. Damaged (Redemption Extended Version) [Bonus Track] (5:50)
14. Pray for Me [Bonus Track] (3:36)
Продолжительность: 01:00:35


Код:
Exact Audio Copy V0.99 prebeta 5 from 4. May 2009
EAC extraction logfile from 24. October 2009, 18:15
Plumb / Chaotic Resolve
Used drive  : TOSHIBA DVD-ROM SD-M1612   Adapter: 0  ID: 0
Read mode               : Secure
Utilize accurate stream : Yes
Defeat audio cache      : Yes
Make use of C2 pointers : No
Read offset correction                      : -472
Overread into Lead-In and Lead-Out          : No
Fill up missing offset samples with silence : Yes
Delete leading and trailing silent blocks   : No
Null samples used in CRC calculations       : Yes
Used interface                              : Native Win32 interface for Win NT & 2000
Gap handling                                : Appended to previous track
Used output format              : User Defined Encoder
Selected bitrate                : 320 kBit/s
Quality                         : High
Add ID3 tag                     : No
Command line compressor         : J:\Program Files\Exact Audio Copy\Flac\flac.exe
Additional command line options : -V -8 -T "artist=%a" -T "title=%t" -T "album=%g" -T "date=%y" -T "tracknumber=%n" -T "genre=%m" %s
TOC of the extracted CD
     Track |   Start  |  Length  | Start sector | End sector
    ---------------------------------------------------------
        1  |  0:00.00 |  3:49.38 |         0    |    17212
        2  |  3:49.38 |  4:03.30 |     17213    |    35467
        3  |  7:52.68 |  5:05.15 |     35468    |    58357
        4  | 12:58.08 |  4:10.29 |     58358    |    77136
        5  | 17:08.37 |  3:57.57 |     77137    |    94968
        6  | 21:06.19 |  4:01.60 |     94969    |   113103
        7  | 25:08.04 |  4:49.41 |    113104    |   134819
        8  | 29:57.45 |  4:01.63 |    134820    |   152957
        9  | 33:59.33 |  3:54.50 |    152958    |   170557
       10  | 37:54.08 |  2:52.62 |    170558    |   183519
       11  | 40:46.70 |  4:35.15 |    183520    |   204159
       12  | 45:22.10 |  5:46.51 |    204160    |   230160
       13  | 51:08.61 |  5:49.42 |    230161    |   256377
       14  | 56:58.28 |  3:36.33 |    256378    |   272610
Track  1
     Filename C:\EACrips\Plumb - 2006 - Chaotic Resolve [FLAC]\01 - Blush (Only You).wav
     Pre-gap length  0:00:02.00
     Peak level 98.6 %
     Track quality 99.9 %
     Test CRC 876C2B2B
     Copy CRC 876C2B2B
     Accurately ripped (confidence 15)  [42B6CDA1]
     Copy OK
Track  2
     Filename C:\EACrips\Plumb - 2006 - Chaotic Resolve [FLAC]\02 - I Can't Do This.wav
     Pre-gap length  0:00:02.03
     Peak level 94.4 %
     Track quality 99.9 %
     Test CRC 162D4162
     Copy CRC 162D4162
     Accurately ripped (confidence 15)  [A15D83E4]
     Copy OK
Track  3
     Filename C:\EACrips\Plumb - 2006 - Chaotic Resolve [FLAC]\03 - Real Life Fairytale.wav
     Pre-gap length  0:00:02.03
     Peak level 96.4 %
     Track quality 100.0 %
     Test CRC F08D67E7
     Copy CRC F08D67E7
     Cannot be verified as accurate (confidence 15)  [FCA82571], AccurateRip returned [4977A59D]
     Copy OK
Track  4
     Filename C:\EACrips\Plumb - 2006 - Chaotic Resolve [FLAC]\04 - Better.wav
     Pre-gap length  0:00:02.03
     Peak level 97.6 %
     Track quality 99.9 %
     Test CRC B2E528B6
     Copy CRC B2E528B6
     Accurately ripped (confidence 15)  [C1A197AB]
     Copy OK
Track  5
     Filename C:\EACrips\Plumb - 2006 - Chaotic Resolve [FLAC]\05 - Manic.wav
     Pre-gap length  0:00:02.03
     Peak level 99.8 %
     Track quality 99.9 %
     Test CRC 0C2C1C5D
     Copy CRC 0C2C1C5D
     Accurately ripped (confidence 15)  [F689EEC9]
     Copy OK
Track  6
     Filename C:\EACrips\Plumb - 2006 - Chaotic Resolve [FLAC]\06 - Cut.wav
     Pre-gap length  0:00:02.03
     Peak level 85.5 %
     Track quality 99.9 %
     Test CRC 046A704B
     Copy CRC 046A704B
     Accurately ripped (confidence 15)  [1BA99B9E]
     Copy OK
Track  7
     Filename C:\EACrips\Plumb - 2006 - Chaotic Resolve [FLAC]\07 - Bittersweet.wav
     Pre-gap length  0:00:02.03
     Peak level 92.1 %
     Track quality 99.9 %
     Test CRC 7B4B6B32
     Copy CRC 7B4B6B32
     Accurately ripped (confidence 15)  [EE4AD657]
     Copy OK
Track  8
     Filename C:\EACrips\Plumb - 2006 - Chaotic Resolve [FLAC]\08 - Good Behavior.wav
     Pre-gap length  0:00:02.03
     Peak level 97.5 %
     Track quality 100.0 %
     Test CRC EE1434C3
     Copy CRC EE1434C3
     Accurately ripped (confidence 15)  [A3B52390]
     Copy OK
Track  9
     Filename C:\EACrips\Plumb - 2006 - Chaotic Resolve [FLAC]\09 - Motion.wav
     Pre-gap length  0:00:02.03
     Peak level 95.3 %
     Track quality 100.0 %
     Test CRC 9E21DED0
     Copy CRC 9E21DED0
     Accurately ripped (confidence 15)  [2FC9C513]
     Copy OK
Track 10
     Filename C:\EACrips\Plumb - 2006 - Chaotic Resolve [FLAC]\10 - I Have Nothing.wav
     Pre-gap length  0:00:01.03
     Peak level 99.8 %
     Track quality 100.0 %
     Test CRC C229598F
     Copy CRC C229598F
     Accurately ripped (confidence 15)  [2D6AE48F]
     Copy OK
Track 11
     Filename C:\EACrips\Plumb - 2006 - Chaotic Resolve [FLAC]\11 - Jekyll & Hyde.wav
     Pre-gap length  0:00:01.03
     Peak level 86.2 %
     Track quality 100.0 %
     Test CRC 1064ECF8
     Copy CRC 1064ECF8
     Accurately ripped (confidence 15)  [5B7928A1]
     Copy OK
Track 12
     Filename C:\EACrips\Plumb - 2006 - Chaotic Resolve [FLAC]\12 - Sleep.wav
     Pre-gap length  0:00:02.04
     Peak level 96.4 %
     Track quality 99.9 %
     Test CRC 97713203
     Copy CRC 97713203
     Accurately ripped (confidence 15)  [67A101FB]
     Copy OK
Track 13
     Filename C:\EACrips\Plumb - 2006 - Chaotic Resolve [FLAC]\13 - Damaged (Redemption Extended Version) [Bonus Track].wav
     Pre-gap length  0:00:02.01
     Peak level 89.1 %
     Track quality 100.0 %
     Test CRC 8F2A2AE2
     Copy CRC 8F2A2AE2
     Accurately ripped (confidence 14)  [442E3B19]
     Copy OK
Track 14
     Filename C:\EACrips\Plumb - 2006 - Chaotic Resolve [FLAC]\14 - Pray for Me [Bonus Track].wav
     Pre-gap length  0:00:02.01
     Peak level 84.1 %
     Track quality 100.0 %
     Test CRC F85481AB
     Copy CRC F85481AB
     Accurately ripped (confidence 15)  [E428FF34]
     Copy OK
13 track(s) accurately ripped
 1 track(s) could not be verified as accurate
Some tracks could not be verified as accurate
No errors occurred
End of status report
Код:
REM GENRE "Christian Rock"
REM DATE 2006
REM DISCID A80E320E
REM COMMENT "ExactAudioCopy v0.99pb5"
PERFORMER "Plumb"
TITLE "Chaotic Resolve"
FILE "01 - Blush (Only You).wav" WAVE
  TRACK 01 AUDIO
    TITLE "Blush (Only You)"
    PERFORMER "Plumb"
    INDEX 01 00:00:00
  TRACK 02 AUDIO
    TITLE "I Can't Do This"
    PERFORMER "Plumb"
    INDEX 00 03:47:35
FILE "02 - I Can't Do This.wav" WAVE
    INDEX 01 00:00:00
  TRACK 03 AUDIO
    TITLE "Real Life Fairytale"
    PERFORMER "Plumb"
    INDEX 00 04:01:27
FILE "03 - Real Life Fairytale.wav" WAVE
    INDEX 01 00:00:00
  TRACK 04 AUDIO
    TITLE "Better"
    PERFORMER "Plumb"
    INDEX 00 05:03:12
FILE "04 - Better.wav" WAVE
    INDEX 01 00:00:00
  TRACK 05 AUDIO
    TITLE "Manic"
    PERFORMER "Plumb"
    INDEX 00 04:08:26
FILE "05 - Manic.wav" WAVE
    INDEX 01 00:00:00
  TRACK 06 AUDIO
    TITLE "Cut"
    PERFORMER "Plumb"
    INDEX 00 03:55:54
FILE "06 - Cut.wav" WAVE
    INDEX 01 00:00:00
  TRACK 07 AUDIO
    TITLE "Bittersweet"
    PERFORMER "Plumb"
    INDEX 00 03:59:57
FILE "07 - Bittersweet.wav" WAVE
    INDEX 01 00:00:00
  TRACK 08 AUDIO
    TITLE "Good Behavior"
    PERFORMER "Plumb"
    INDEX 00 04:47:38
FILE "08 - Good Behavior.wav" WAVE
    INDEX 01 00:00:00
  TRACK 09 AUDIO
    TITLE "Motion"
    PERFORMER "Plumb"
    INDEX 00 03:59:60
FILE "09 - Motion.wav" WAVE
    INDEX 01 00:00:00
  TRACK 10 AUDIO
    TITLE "I Have Nothing"
    PERFORMER "Plumb"
    INDEX 00 03:53:47
FILE "10 - I Have Nothing.wav" WAVE
    INDEX 01 00:00:00
  TRACK 11 AUDIO
    TITLE "Jekyll & Hyde"
    PERFORMER "Plumb"
    INDEX 00 02:51:59
FILE "11 - Jekyll & Hyde.wav" WAVE
    INDEX 01 00:00:00
  TRACK 12 AUDIO
    TITLE "Sleep"
    PERFORMER "Plumb"
    INDEX 00 04:33:11
FILE "12 - Sleep.wav" WAVE
    INDEX 01 00:00:00
  TRACK 13 AUDIO
    TITLE "Damaged (Redemption Extended Version) [Bonus Track]"
    PERFORMER "Plumb"
    INDEX 00 05:44:50
FILE "13 - Damaged (Redemption Extended Version) [Bonus Track].wav" WAVE
    INDEX 01 00:00:00
  TRACK 14 AUDIO
    TITLE "Pray for Me [Bonus Track]"
    PERFORMER "Plumb"
    INDEX 00 05:47:41
FILE "14 - Pray for Me [Bonus Track].wav" WAVE
    INDEX 01 00:00:00
#777Треклист:
01. My Sweet, My Lovely (4:02)
02. God Will Take Care Of You (4:55)
03. In My Arms (4:04)
04. Always (3:45)
05. Children Of The Heavenly Father (5:29)
06. Blink (3:57)
07. My Child (4:30)
08. Me (4:33)
09. Sleep (5:20)
10. Solomon's Song (5:18)
Продолжительность: 00:45:53


Код:
Exact Audio Copy V0.99 prebeta 4 from 23. January 2008
EAC extraction logfile from 20. September 2009, 16:22
Plumb / Blink
Used drive  : LITE-ON DVDRW SHM-165P6S   Adapter: 0  ID: 1
Read mode               : Secure
Utilize accurate stream : Yes
Defeat audio cache      : Yes
Make use of C2 pointers : No
Read offset correction                      : 6
Overread into Lead-In and Lead-Out          : No
Fill up missing offset samples with silence : Yes
Delete leading and trailing silent blocks   : No
Null samples used in CRC calculations       : Yes
Used interface                              : Native Win32 interface for Win NT & 2000
Gap handling                                : Appended to previous track
Used output format              : User Defined Encoder
Selected bitrate                : 768 kBit/s
Quality                         : High
Add ID3 tag                     : No
Command line compressor         : H:\Program Files\Exact Audio Copy\FLAC\FLAC.EXE
Additional command line options : -V -8 -T "artist=%a" -T "title=%t" -T "album=%g" -T "date=%y" -T "tracknumber=%n" -T "genre=%m" %s
TOC of the extracted CD
     Track |   Start  |  Length  | Start sector | End sector
    ---------------------------------------------------------
        1  |  0:00.00 |  4:01.53 |         0    |    18127
        2  |  4:01.53 |  4:55.03 |     18128    |    40255
        3  |  8:56.56 |  4:03.71 |     40256    |    58551
        4  | 13:00.52 |  3:44.71 |     58552    |    75422
        5  | 16:45.48 |  5:29.03 |     75423    |   100100
        6  | 22:14.51 |  3:56.52 |    100101    |   117852
        7  | 26:11.28 |  4:29.62 |    117853    |   138089
        8  | 30:41.15 |  4:33.37 |    138090    |   158601
        9  | 35:14.52 |  5:20.04 |    158602    |   182605
       10  | 40:34.56 |  5:18.17 |    182606    |   206472
Track  1
     Filename H:\Audio\FLAC\Plumb - 2007 - Blink\Plumb - Blink 01 - My Sweet, My Lovely.wav
     Pre-gap length  0:00:02.00
     Peak level 98.1 %
     Track quality 100.0 %
     Test CRC 58E99D6E
     Copy CRC 58E99D6E
     Accurately ripped (confidence 11)  [8C9E5D69]
     Copy OK
Track  2
     Filename H:\Audio\FLAC\Plumb - 2007 - Blink\Plumb - Blink 02 - God Will Take Care Of You.wav
     Pre-gap length  0:00:00.16
     Peak level 87.3 %
     Track quality 100.0 %
     Test CRC 7349C78B
     Copy CRC 7349C78B
     Accurately ripped (confidence 11)  [FA6F05E3]
     Copy OK
Track  3
     Filename H:\Audio\FLAC\Plumb - 2007 - Blink\Plumb - Blink 03 - In My Arms.wav
     Peak level 96.9 %
     Track quality 100.0 %
     Test CRC 384FDA4E
     Copy CRC 384FDA4E
     Accurately ripped (confidence 11)  [548AF4B9]
     Copy OK
Track  4
     Filename H:\Audio\FLAC\Plumb - 2007 - Blink\Plumb - Blink 04 - Always.wav
     Pre-gap length  0:00:01.46
     Peak level 98.1 %
     Track quality 100.0 %
     Test CRC 092D0F9C
     Copy CRC 092D0F9C
     Accurately ripped (confidence 11)  [1ACDA172]
     Copy OK
Track  5
     Filename H:\Audio\FLAC\Plumb - 2007 - Blink\Plumb - Blink 05 - Children Of The Heavenly Father.wav
     Peak level 99.9 %
     Track quality 99.9 %
     Test CRC 5B708339
     Copy CRC 5B708339
     Accurately ripped (confidence 10)  [B5287546]
     Copy OK
Track  6
     Filename H:\Audio\FLAC\Plumb - 2007 - Blink\Plumb - Blink 06 - Blink.wav
     Pre-gap length  0:00:01.44
     Peak level 96.9 %
     Track quality 100.0 %
     Test CRC 25193AD1
     Copy CRC 25193AD1
     Accurately ripped (confidence 10)  [61ADFAEF]
     Copy OK
Track  7
     Filename H:\Audio\FLAC\Plumb - 2007 - Blink\Plumb - Blink 07 - My Child.wav
     Pre-gap length  0:00:01.54
     Peak level 92.5 %
     Track quality 100.0 %
     Test CRC 7F35C8C1
     Copy CRC 7F35C8C1
     Accurately ripped (confidence 10)  [5824939D]
     Copy OK
Track  8
     Filename H:\Audio\FLAC\Plumb - 2007 - Blink\Plumb - Blink 08 - Me.wav
     Pre-gap length  0:00:00.45
     Peak level 91.8 %
     Track quality 100.0 %
     Test CRC F390D3AD
     Copy CRC F390D3AD
     Accurately ripped (confidence 10)  [E4983798]
     Copy OK
Track  9
     Filename H:\Audio\FLAC\Plumb - 2007 - Blink\Plumb - Blink 09 - Sleep.wav
     Pre-gap length  0:00:00.68
     Peak level 96.9 %
     Track quality 100.0 %
     Test CRC DCE65AA5
     Copy CRC DCE65AA5
     Accurately ripped (confidence 10)  [90117208]
     Copy OK
Track 10
     Filename H:\Audio\FLAC\Plumb - 2007 - Blink\Plumb - Blink 10 - Solomon's Song.wav
     Pre-gap length  0:00:00.43
     Peak level 87.4 %
     Track quality 100.0 %
     Test CRC E33299D1
     Copy CRC E33299D1
     Accurately ripped (confidence 9)  [0E48ECEC]
     Copy OK
All tracks accurately ripped
No errors occurred
End of status report
Код:
REM GENRE Rock
REM DATE 2007
REM DISCID 7A0AC00A
REM COMMENT "ExactAudioCopy v0.99pb4"
PERFORMER "Plumb"
TITLE "Blink"
FILE "Plumb - Blink 01 - My Sweet, My Lovely.wav" WAVE
  TRACK 01 AUDIO
    TITLE "My Sweet, My Lovely"
    PERFORMER "Plumb"
    INDEX 01 00:00:00
  TRACK 02 AUDIO
    TITLE "God Will Take Care Of You"
    PERFORMER "Plumb"
    INDEX 00 04:01:37
FILE "Plumb - Blink 02 - God Will Take Care Of You.wav" WAVE
    INDEX 01 00:00:00
FILE "Plumb - Blink 03 - In My Arms.wav" WAVE
  TRACK 03 AUDIO
    TITLE "In My Arms"
    PERFORMER "Plumb"
    INDEX 01 00:00:00
  TRACK 04 AUDIO
    TITLE "Always"
    PERFORMER "Plumb"
    INDEX 00 04:02:25
FILE "Plumb - Blink 04 - Always.wav" WAVE
    INDEX 01 00:00:00
FILE "Plumb - Blink 05 - Children Of The Heavenly Father.wav" WAVE
  TRACK 05 AUDIO
    TITLE "Children Of The Heavenly Father"
    PERFORMER "Plumb"
    INDEX 01 00:00:00
  TRACK 06 AUDIO
    TITLE "Blink"
    PERFORMER "Plumb"
    INDEX 00 05:27:34
FILE "Plumb - Blink 06 - Blink.wav" WAVE
    INDEX 01 00:00:00
  TRACK 07 AUDIO
    TITLE "My Child"
    PERFORMER "Plumb"
    INDEX 00 03:54:73
FILE "Plumb - Blink 07 - My Child.wav" WAVE
    INDEX 01 00:00:00
  TRACK 08 AUDIO
    TITLE "Me"
    PERFORMER "Plumb"
    INDEX 00 04:29:17
FILE "Plumb - Blink 08 - Me.wav" WAVE
    INDEX 01 00:00:00
  TRACK 09 AUDIO
    TITLE "Sleep"
    PERFORMER "Plumb"
    INDEX 00 04:32:44
FILE "Plumb - Blink 09 - Sleep.wav" WAVE
    INDEX 01 00:00:00
  TRACK 10 AUDIO
    TITLE "Solomon's Song"
    PERFORMER "Plumb"
    INDEX 00 05:19:36
FILE "Plumb - Blink 10 - Solomon's Song.wav" WAVE
    INDEX 01 00:00:00



Биография
Чем больше людей знает о вас, тем большей ответственности они от вас ожидают. (Тиффани Арбакл Ли (Plumb))
Тиффани Арбакл Ли родилась в Индианаполисе, но выросла в Атланте. С детства она мечтала стать врачом, поскольку испытывала странную болезнь желудка, которую никто из врачей не мог объяснить. Эта болезнь доставляла юной Тиффани массу хлопот везде, куда бы она не пошла или не поехала. Но ее любовь к музыке была сильнее, чем к медицине, а началось все с того, что в трехлетнем возрасте она пела дуэтом со своим отцом в церкви.
К окончательному решению стать певицей Тиффани подтолкнул концерт Аланис Мориссет, который она посетила в 1996-м. Именно тогда она решила, что ей также как и Аланис есть о чем рассказать публике. Отправившись в музыкальный Нэшвилл, Тиффани вместе с продюсером Мэттом Брэнливом (Rebecca St. James, Jars of Clay, Michael W. Smith), запустила собственную группу, взяв себе псевдоним Plumb, позаимствованный из песни Сьюзан Вега - My Favorite Plum, добавив букву b, являющуюся сокращением от слова band (группа).
Свою музыкальную карьеру Тиффани начала не сразу: сначала она подрабатывала бэк-вокалисткой, вдохновляясь творчеством Led Zeppelin, U2 и Nine Inch nails, но больше всего она подражала христианской поп-диве Эмми Грант. После подписания контракта с Essential и Silvertone Records Тиффани, наконец-то, посчастливилось выплеснуть накопившийся творческий потенциал в альбом, который она выпустила в 1997-м. Он быстро разошелся тиражом в 100 000 копий и был номинирован на премию Dove awards в категориях: Лучший современный рок/альтернативный альбом года, а песня Crazy была номинирована в категории Лучшая современная рок/альтернативная песня года.
Уже после записи альбома в состав группы Тиффани пришли: клавишник Мэтт Стэнфилд, ударник Джо Портер и бывший бас-гитарист Sixpence non the richer Джей Пласенсио. После того, как Plumb укомплектовались до четырех человек, группа отправилась в тур вместе с Jars of Clay.
Летом 1997-го Plumb на правах хедлайнеров выступили на христианском фестивале Cornerstone, где Тиффани, помимо своих песен, блестяще исполнила кавер-версию песни Питера Гэбриела In Your Eyes.
В 1999-м за участие в проекте Surfonic Water Revival: New Surf Music For The Redeemed Masses Plumb получили номинацию на премию Dove awards в категории: Специальный альбом года. В этом проекте, помимо Plumb, принимали участие Smalltown poets, Rebecca St. James, All Star United, Phil Keggy, Skillet, The O.C.Supertones, Терри Скотт Тейлор (Daniel Amos) и многие другие.
К тому времени подуставшая от постоянных туров Тиффани хотела завязать с музыкальной карьерой, но на последнем своем концерте она получила письмо от своей поклонницы, в котором было свидетельство того, как музыка Plumb в буквальном смысле спасла жизнь этой девушке. Воодушевленная этим письмом Тиффани приняла решение заниматься музыкой дальше.
Когда контракт с Essential records закончился, Тиффани подписала новый, но уже с лейблом Curb records Майка Карба. Ведь Essential records продвигали Plumb просто как христианскую группу, не обращая внимания на потенциал артистки, но Тиффани было мало просто быть еще одной христианской певицей. По завершению контракта Essential records выпустили сборник лучших песен группы The Best of Plumb в 2000-м году.
На Curb records певица работала уже как сольный исполнитель. Она не видела смысла сколачивать группу с постоянным составом, поскольку на обложку журналов Plumb всегда выносилась как сольный исполнитель.
В 2001-м за альбом Candycoatedwaterdrops Тиффани впервые получила премию Dove awards в категории: Лучший современный рок/альтернативный альбом года. На две песни с альбома были сделаны каверы известными артистами: Stranded перепела Дженнифер Пэйдж, а Damaged переделал американский ди-джейский дуэт Plummet, протолкнув песню в британские чарты.
В 2003-м вышел альбом Beautiful Lumps of Coal, продюсером которого выступил Джей Джонс, работавший ранее с Patti Griffin и Rubyhorse. Сингл Boys dont cry попал в Top40 лучших синглов США, а Real добрался до 41-й строчки общего чарта Великобритании. Альбом был номинирован на Dove awards в категории Лучший рок-альбом года, а песня Free попала в номинанты, как Лучшая рок-песня года.
Песни Plumb одна за другой попадали в саундтреки, по крайней мере, к десяти фильмам, среди которых: Брюс всемогущий (песня God-Shaped Hole), Молодожены (песня Here with me); Вид сверху лучше (песня Boys Don't Cry) и другие.
За год до официального выхода следующего релиза Chaotic Resistance в чартах крутится сингл Better. И не удивительно, ведь выход нового альбома откладывался очень долго, многие даже начали предполагать о завершении карьеры Plumb. Но задержка была вызвана тем, что Тиффани стала матерью и, соответственно, уделяла все свое время своему ребенку.
Но и тогда творчество для Тифани не осталось в стороне. За время своего отпуска она написала песни для Мэнди Мур (Mandy Moore), Мишель Брэнч (Michelle Branch) и Кимберли Локк (Kimberley Locke). А Эми Ли - вокалистка Evanescence - лицо обложек всех музыкальных журналов, в одном из интервью призналась, что Plumb оказали на нее большое влияние.
И, наконец, в 2006-м долгожданный альбом Chaotic Resistance вышел, сразу попав на 177-е место по продажам в общий чарт Billboard топ 200 самых продаваемых альбомов.
Песня Better добралась до первого места христианского чарта U.S. Christian airplay chart. Главный хит-сингл Cut стал хитом в чарте XM Satellite 81 BPM, а танцевальный ремикс на эту же песню поднял Plumb до 5-го места в топе 10 лучших танцевальных песен чарта Billboard Hot Dance Airplay.
В альбом вошла кавер версия песни Pray For Me Майкла Дабви Смита, а также ремикс на знаменитый Damaged. Параллельно записи альбома Chaotic Resistance Тиффани записала песню Mary Sweet Mary вместе со знаменитой группой прославления Selah.
В 2007-м песня Cut удостоилась номинации на премию Dove awards в категории Модерн-рок песня года, а Good Behavior удостоилась чести претендовать на премию в категории Рок-песня года.
Тиффани давно поставила перед собой задачу стать солью и светом поп-музыки, но, на самом деле, она стала настоящей жемчужиной.
User-contributed text is available under the Creative Commons By-SA License and may also be available under the GNU FDL.© last.fm



Источник рипов: What.CD



Enjoy!
Правила, инструкции, FAQ!!!
Торрент  Добавлен [26 мар 2019, 20:59] Скачать торрент Магнет ссылка
Скачать торрент
[ Размер 23.32 КБ / Просмотров 3 ]

Статус
Проверен 
 
Размер  1.5 ГБ
Приватный: Нет (DHT включён)
.torrent скачан  0
 


     Отправить личное сообщение
   
Страница 1 из 1
Показать сообщения за:  Поле сортировки  
Начать новую тему Ответить на тему


Сейчас этот форум просматривают: нет зарегистрированных пользователей и гости: 0


Вы не можете начинать темы
Вы не можете отвечать на сообщения
Вы не можете редактировать свои сообщения
Вы не можете удалять свои сообщения
Вы не можете добавлять вложения

Перейти:  
cron