Начать новую тему Ответить на тему
Статистика раздачи
Размер: 497.47 МБ | Добавлен: 26 мар 2019, 20:17 | Скачали: 1
Сидеров: 0  [0 байт/сек]    Личеров: 2  [0 байт/сек]
Пред. тема | След. тема 

Автор
Сообщение

СообщениеДобавлено: 26 мар 2019, 20:17 

Ответить с цитатой 

Casting Crowns / The Very Next Thing
Жанр: Christian Rock
Носитель: CD
Страна-производитель диска (релиза): UK
Год издания: 2016
Издатель (лейбл): Provident Label Group, Reunion Record
Номер по каталогу: none
Страна исполнителя (группы): USA
Аудиокодек: FLAC (*.flac)
Тип рипа: tracks+.cue
Битрейт аудио: lossless
Продолжительность: 54:05
Источник (релизер): DP
Наличие сканов в содержимом раздачи: да
Треклист:
01. Hallelujah 05:14
02. The Very Next Thing 03:30
03. One Step Away 03:37
04. Oh My Soul 04:15
05. What If I Gave Everything 03:23
06. God Of All My Days 05:01
07. The God Man Passes By 04:33
08. For All You Are 05:23
09. Song That The Angels Can't Sing 03:21
10. Make Me A River 04:43
11. No Other Name 06:20
12. Loving My Jesus 04:33
Код:
X Lossless Decoder version 20160920 (149.2)
XLD extraction logfile from 2016-09-29 07:00:51 -0500
Casting Crowns / The Very Next Thing
Used drive : HL-DT-ST DVDRW  GA32N (revision KE06)
Media type : Pressed CD
Ripper mode             : XLD Secure Ripper
Disable audio cache     : OK for the drive with a cache less than 1375KiB
Make use of C2 pointers : NO
Read offset correction  : 103
Max retry count         : 100
Gap status              : Analyzed, Appended
TOC of the extracted CD
     Track |   Start  |  Length  | Start sector | End sector
    ---------------------------------------------------------
        1  | 00:00:00 | 05:14:12 |         0    |    23561
        2  | 05:14:12 | 03:30:11 |     23562    |    39322
        3  | 08:44:23 | 03:37:00 |     39323    |    55597
        4  | 12:21:23 | 04:16:14 |     55598    |    74811
        5  | 16:37:37 | 03:23:54 |     74812    |    90090
        6  | 20:01:16 | 05:02:71 |     90091    |   112811
        7  | 25:04:12 | 04:34:42 |    112812    |   133403
        8  | 29:38:54 | 05:24:50 |    133404    |   157753
        9  | 35:03:29 | 03:21:71 |    157754    |   172899
       10  | 38:25:25 | 04:44:48 |    172900    |   194247
       11  | 43:09:73 | 06:21:37 |    194248    |   222859
       12  | 49:31:35 | 04:33:11 |    222860    |   243345
AccurateRip Summary
    Disc not found in AccurateRip DB.
All Tracks
    Statistics
        Read error                           : 0
        Jitter error (maybe fixed)           : 0
        Retry sector count                   : 0
        Damaged sector count                 : 0
Track 01
    Filename : /Users/Brent/Downloads/Casting Crowns 2/The Very Next Thing 2016/01-01-Hallelujah.flac
    Pre-gap length : 00:02:00
    CRC32 hash (test run)    : C8720055
    CRC32 hash               : C8720055
    CRC32 hash (skip zero)   : 53779C1C
    AccurateRip v1 signature : B742AE25
    AccurateRip v2 signature : D3960581
        ->Track not present in AccurateRip database.
    Statistics
        Read error                           : 0
        Jitter error (maybe fixed)           : 0
        Retry sector count                   : 0
        Damaged sector count                 : 0
Track 02
    Filename : /Users/Brent/Downloads/Casting Crowns 2/The Very Next Thing 2016/01-02-The Very Next Thing.flac
    CRC32 hash (test run)    : 4B45C7BA
    CRC32 hash               : 4B45C7BA
    CRC32 hash (skip zero)   : 4F109C5E
    AccurateRip v1 signature : 1B81C9C2
    AccurateRip v2 signature : EC5FE4FC
        ->Track not present in AccurateRip database.
    Statistics
        Read error                           : 0
        Jitter error (maybe fixed)           : 0
        Retry sector count                   : 0
        Damaged sector count                 : 0
Track 03
    Filename : /Users/Brent/Downloads/Casting Crowns 2/The Very Next Thing 2016/01-03-One Step Away.flac
    CRC32 hash (test run)    : B22873FB
    CRC32 hash               : B22873FB
    CRC32 hash (skip zero)   : 5392446E
    AccurateRip v1 signature : FA0949B8
    AccurateRip v2 signature : 631803DC
        ->Track not present in AccurateRip database.
    Statistics
        Read error                           : 0
        Jitter error (maybe fixed)           : 0
        Retry sector count                   : 0
        Damaged sector count                 : 0
Track 04
    Filename : /Users/Brent/Downloads/Casting Crowns 2/The Very Next Thing 2016/01-04-Oh My Soul.flac
    Pre-gap length : 00:00:03
    CRC32 hash (test run)    : E5E929BE
    CRC32 hash               : E5E929BE
    CRC32 hash (skip zero)   : 7844C3A6
    AccurateRip v1 signature : E8BD2967
    AccurateRip v2 signature : 398BB715
        ->Track not present in AccurateRip database.
    Statistics
        Read error                           : 0
        Jitter error (maybe fixed)           : 0
        Retry sector count                   : 0
        Damaged sector count                 : 0
Track 05
    Filename : /Users/Brent/Downloads/Casting Crowns 2/The Very Next Thing 2016/01-05-What If I Gave Everything.flac
    Pre-gap length : 00:01:01
    CRC32 hash (test run)    : 8E327DF7
    CRC32 hash               : 8E327DF7
    CRC32 hash (skip zero)   : 4C8523CB
    AccurateRip v1 signature : 54A1930F
    AccurateRip v2 signature : FA9A738E
        ->Track not present in AccurateRip database.
    Statistics
        Read error                           : 0
        Jitter error (maybe fixed)           : 0
        Retry sector count                   : 0
        Damaged sector count                 : 0
Track 06
    Filename : /Users/Brent/Downloads/Casting Crowns 2/The Very Next Thing 2016/01-06-God Of All My Days.flac
    Pre-gap length : 00:00:30
    CRC32 hash (test run)    : F12E4B21
    CRC32 hash               : F12E4B21
    CRC32 hash (skip zero)   : 2E6F9E91
    AccurateRip v1 signature : 0911DB6E
    AccurateRip v2 signature : 2543ACAF
        ->Track not present in AccurateRip database.
    Statistics
        Read error                           : 0
        Jitter error (maybe fixed)           : 0
        Retry sector count                   : 0
        Damaged sector count                 : 0
Track 07
    Filename : /Users/Brent/Downloads/Casting Crowns 2/The Very Next Thing 2016/01-07-When The God-Man Passes By.flac
    Pre-gap length : 00:01:58
    CRC32 hash (test run)    : 3F0B4167
    CRC32 hash               : 3F0B4167
    CRC32 hash (skip zero)   : 21A6F72C
    AccurateRip v1 signature : 4D7AFDFF
    AccurateRip v2 signature : EC7F0906
        ->Track not present in AccurateRip database.
    Statistics
        Read error                           : 0
        Jitter error (maybe fixed)           : 0
        Retry sector count                   : 0
        Damaged sector count                 : 0
Track 08
    Filename : /Users/Brent/Downloads/Casting Crowns 2/The Very Next Thing 2016/01-08-For All You Are.flac
    Pre-gap length : 00:01:32
    CRC32 hash (test run)    : 45442A82
    CRC32 hash               : 45442A82
    CRC32 hash (skip zero)   : 53D59ABA
    AccurateRip v1 signature : 25D38B14
    AccurateRip v2 signature : 40A3E75B
        ->Track not present in AccurateRip database.
    Statistics
        Read error                           : 0
        Jitter error (maybe fixed)           : 0
        Retry sector count                   : 0
        Damaged sector count                 : 0
Track 09
    Filename : /Users/Brent/Downloads/Casting Crowns 2/The Very Next Thing 2016/01-09-Song That The Angels Can't Sing.flac
    Pre-gap length : 00:00:70
    CRC32 hash (test run)    : 14BD03F2
    CRC32 hash               : 14BD03F2
    CRC32 hash (skip zero)   : D196E125
    AccurateRip v1 signature : 6CC70D29
    AccurateRip v2 signature : EF8D1D75
        ->Track not present in AccurateRip database.
    Statistics
        Read error                           : 0
        Jitter error (maybe fixed)           : 0
        Retry sector count                   : 0
        Damaged sector count                 : 0
Track 10
    Filename : /Users/Brent/Downloads/Casting Crowns 2/The Very Next Thing 2016/01-10-Make Me A River.flac
    Pre-gap length : 00:01:01
    CRC32 hash (test run)    : 7874C0A2
    CRC32 hash               : 7874C0A2
    CRC32 hash (skip zero)   : 8999FA42
    AccurateRip v1 signature : EB2BE6B0
    AccurateRip v2 signature : 7EF2449B
        ->Track not present in AccurateRip database.
    Statistics
        Read error                           : 0
        Jitter error (maybe fixed)           : 0
        Retry sector count                   : 0
        Damaged sector count                 : 0
Track 11
    Filename : /Users/Brent/Downloads/Casting Crowns 2/The Very Next Thing 2016/01-11-No Other Name.flac
    Pre-gap length : 00:01:25
    CRC32 hash (test run)    : 66335634
    CRC32 hash               : 66335634
    CRC32 hash (skip zero)   : F567E135
    AccurateRip v1 signature : 40ABF158
    AccurateRip v2 signature : BF2FB72F
        ->Track not present in AccurateRip database.
    Statistics
        Read error                           : 0
        Jitter error (maybe fixed)           : 0
        Retry sector count                   : 0
        Damaged sector count                 : 0
Track 12
    Filename : /Users/Brent/Downloads/Casting Crowns 2/The Very Next Thing 2016/01-12-Loving My Jesus.flac
    Pre-gap length : 00:01:06
    CRC32 hash (test run)    : A0455042
    CRC32 hash               : A0455042
    CRC32 hash (skip zero)   : 9279EDD1
    AccurateRip v1 signature : 23FAB054
    AccurateRip v2 signature : 2D5B4E9C
        ->Track not present in AccurateRip database.
    Statistics
        Read error                           : 0
        Jitter error (maybe fixed)           : 0
        Retry sector count                   : 0
        Damaged sector count                 : 0
No errors occurred
End of status report
Код:
TITLE "The Very Next Thing"
PERFORMER "Casting Crowns"
CATALOG 0602341021227
REM GENRE "Contemporary Christian"
REM DATE "2016"
REM DISCNUMBER 1
REM TOTALDISCS 1
REM DISCID 9E0CAC0C
FILE "01-01-Hallelujah.flac" WAVE
  TRACK 01 AUDIO
    TITLE "Hallelujah"
    PERFORMER "Casting Crowns"
    SONGWRITER "Hallelujah"
    ISRC USA5W1600138
    INDEX 01 00:00:00
FILE "01-02-The Very Next Thing.flac" WAVE
  TRACK 02 AUDIO
    TITLE "The Very Next Thing"
    PERFORMER "Casting Crowns"
    SONGWRITER "The Very Next Thing"
    ISRC USA5W1600139
    INDEX 01 00:00:00
FILE "01-03-One Step Away.flac" WAVE
  TRACK 03 AUDIO
    TITLE "One Step Away"
    PERFORMER "Casting Crowns"
    SONGWRITER "One Step Away"
    ISRC USA5W1600140
    INDEX 01 00:00:00
  TRACK 04 AUDIO
    TITLE "Oh My Soul"
    PERFORMER "Casting Crowns"
    SONGWRITER "Oh My Soul"
    ISRC USA5W1600141
    INDEX 00 03:36:72
FILE "01-04-Oh My Soul.flac" WAVE
    INDEX 01 00:00:00
  TRACK 05 AUDIO
    TITLE "What If I Gave Everything"
    PERFORMER "Casting Crowns"
    SONGWRITER "What If I Gave Everything"
    ISRC USA5W1600142
    INDEX 00 04:15:13
FILE "01-05-What If I Gave Everything.flac" WAVE
    INDEX 01 00:00:00
  TRACK 06 AUDIO
    TITLE "God Of All My Days"
    PERFORMER "Casting Crowns"
    SONGWRITER "God Of All My Days"
    ISRC USA5W1600143
    INDEX 00 03:23:24
FILE "01-06-God Of All My Days.flac" WAVE
    INDEX 01 00:00:00
  TRACK 07 AUDIO
    TITLE "When The God-Man Passes By"
    PERFORMER "Casting Crowns"
    SONGWRITER "When The God-Man Passes By"
    ISRC USA5W1600144
    INDEX 00 05:01:13
FILE "01-07-When The God-Man Passes By.flac" WAVE
    INDEX 01 00:00:00
  TRACK 08 AUDIO
    TITLE "For All You Are"
    PERFORMER "Casting Crowns"
    SONGWRITER "For All You Are"
    ISRC USA5W1600145
    INDEX 00 04:33:10
FILE "01-08-For All You Are.flac" WAVE
    INDEX 01 00:00:00
  TRACK 09 AUDIO
    TITLE "Song That The Angels Can't Sing"
    PERFORMER "Casting Crowns"
    SONGWRITER "Song That The Angels Can't Sing"
    ISRC USA5W1600146
    INDEX 00 05:23:55
FILE "01-09-Song That The Angels Can't Sing.flac" WAVE
    INDEX 01 00:00:00
  TRACK 10 AUDIO
    TITLE "Make Me A River"
    PERFORMER "Casting Crowns"
    SONGWRITER "Make Me A River"
    ISRC USA5W1600147
    INDEX 00 03:20:70
FILE "01-10-Make Me A River.flac" WAVE
    INDEX 01 00:00:00
  TRACK 11 AUDIO
    TITLE "No Other Name"
    PERFORMER "Casting Crowns"
    SONGWRITER "No Other Name"
    ISRC USA5W1600148
    INDEX 00 04:43:23
FILE "01-11-No Other Name.flac" WAVE
    INDEX 01 00:00:00
  TRACK 12 AUDIO
    TITLE "Loving My Jesus"
    PERFORMER "Casting Crowns"
    SONGWRITER "Loving My Jesus"
    ISRC USA5W1600149
    INDEX 00 06:20:31
FILE "01-12-Loving My Jesus.flac" WAVE
    INDEX 01 00:00:00
Код:
foobar2000 1.1.10 / Dynamic Range Meter 1.1.1
log date: 2016-12-27 13:54:14
--------------------------------------------------------------------------------
Analyzed: Casting Crowns / The Very Next Thing
--------------------------------------------------------------------------------
DR         Peak         RMS     Duration Track
--------------------------------------------------------------------------------
DR6        0.00 dB    -8.67 dB      5:14 ?-Hallelujah
DR4        0.00 dB    -6.13 dB      3:30 ?-The Very Next Thing
DR6        0.00 dB    -7.48 dB      3:37 ?-One Step Away
DR5        0.00 dB    -8.59 dB      4:16 ?-Oh My Soul
DR6       -0.01 dB    -8.66 dB      3:24 ?-What If I Gave Everything
DR5        0.00 dB    -8.61 dB      5:03 ?-God Of All My Days
DR6        0.00 dB    -7.72 dB      4:35 ?-When The God-Man Passes By
DR4        0.00 dB    -6.98 dB      5:25 ?-For All You Are
DR5        0.00 dB    -8.44 dB      3:22 ?-Song That The Angels Can't Sing
DR5        0.00 dB    -8.13 dB      4:45 ?-Make Me A River
DR5        0.00 dB    -7.81 dB      6:21 ?-No Other Name
DR8        0.00 dB   -11.13 dB      4:33 ?-Loving My Jesus
--------------------------------------------------------------------------------
Number of tracks:  12
Official DR value: DR5
Samplerate:        44100 Hz
Channels:          2
Bits per sample:   16
Bitrate:           838 kbps
Codec:             FLAC
================================================================================
The Very Next Thing marks Casting Crowns' 15th release and eighth studio album since the label debut release in 2003. With more than nine million records sold, the band currently holds the position as Billboard's top-selling act in Christian music since 2007. Casting Crowns began in, serves in and continues to be rooted in the local church. It is at the local level that they are walking along with people in ministry and where the inspiration for albums are formed. "Because we have the honor of walking with people in our churches, we get to see what people are going through - the issues that are impacting everyone now," shares front man Mark Hall. "It is in these situations that ideas are born for what we all need to hear right here right now." The Very Next Thing is full of intimate songs as well as upbeat, fresh sounding tracks that will meet the listener with lyrics that impact with a strong message song after song. Selling Points* New record includes "Oh My Soul," song Mark Hall wrote about his journey through a cancer diagnosis* The Very Next Thing Tour fall 2016 featuring Matt Maher and Hannah Kerr* Sold more than 9 million albums* Multiple awards including a GRAMMY Award, 17 GMA Dove Awards, 4 American Music Awards and 2 Billboard Music Awards
https://www.castingcrowns.com/
Правила, инструкции, FAQ!!!
Торрент  Добавлен [26 мар 2019, 20:17] Скачать торрент Магнет ссылка
Скачать торрент
[ Размер 20.98 КБ / Просмотров 6 ]

Статус
Проверен 
 
Размер  497.47 МБ
Приватный: Нет (DHT включён)
.torrent скачан  1
 


     Отправить личное сообщение
   
Страница 1 из 1
Показать сообщения за:  Поле сортировки  
Начать новую тему Ответить на тему


Сейчас этот форум просматривают: нет зарегистрированных пользователей и гости: 0


Вы не можете начинать темы
Вы не можете отвечать на сообщения
Вы не можете редактировать свои сообщения
Вы не можете удалять свои сообщения
Вы не можете добавлять вложения

Перейти:  
cron