Начать новую тему Ответить на тему
Статистика раздачи
Размер: 267.56 МБ | Добавлен: 26 мар 2019, 18:38 | Скачали: 0
Сидеров: 0  [0 байт/сек]    Личеров: 0  [0 байт/сек]
Пред. тема | След. тема 

Автор
Сообщение

СообщениеДобавлено: 26 мар 2019, 18:38 

Ответить с цитатой 

Brandon Heath - What If We


Страна:
Жанр: Christian Rock
Страна-производитель диска: US
Год издания диска: 2008
Издатель (лейбл): Reunion
Номер по каталогу: 10127
Аудиокодек: FLAC (*.flac)
Тип рипа: tracks+.cue
Битрейт аудио: lossless
Продолжительность: 00:40:18
Источник (релизер): What
Covers: Front
Треклист:
01. Give Me Your Eyes
02. Wait And See
03. Trust You
04. London
05. Sunrise
06. Sore Eyes
07. Love Never Fails
08. Listen Up
09. Fight Another Day
10. When I'm Alone
11. No Not One
Код:
Exact Audio Copy V0.99 prebeta 3 from 28. July 2007
EAC extraction logfile from 28. August 2008, 14:40
Brandon Heath / What If We
Used drive  : LITE-ON COMBO SOHC-5232K   Adapter: 1  ID: 1
Read mode               : Secure
Utilize accurate stream : Yes
Defeat audio cache      : Yes
Make use of C2 pointers : No
Read offset correction                      : 6
Overread into Lead-In and Lead-Out          : No
Fill up missing offset samples with silence : Yes
Delete leading and trailing silent blocks   : No
Null samples used in CRC calculations       : Yes
Used interface                              : Installed external ASPI interface
Gap handling                                : Appended to previous track
Used output format              : User Defined Encoder
Selected bitrate                : 192 kBit/s
Quality                         : High
Add ID3 tag                     : No
Command line compressor         : D:\Program Files\Exact Audio Copy\flac.exe
Additional command line options : -8 -A tukey(0.25) -A gauss(0.1875) -b 4096 -V -T "artist=%a" -T "title=%t" -T "album=%g" -T "date=%y" -T "tracknumber=%n" -T "genre=%m" %s --sector-align
TOC of the extracted CD
     Track |   Start  |  Length  | Start sector | End sector
    ---------------------------------------------------------
        1  |  0:00.00 |  3:52.50 |         0    |    17449
        2  |  3:52.50 |  3:48.08 |     17450    |    34557
        3  |  7:40.58 |  3:51.46 |     34558    |    51928
        4  | 11:32.29 |  3:34.67 |     51929    |    68045
        5  | 15:07.21 |  4:01.27 |     68046    |    86147
        6  | 19:08.48 |  3:35.33 |     86148    |   102305
        7  | 22:44.06 |  3:07.15 |    102306    |   116345
        8  | 25:51.21 |  3:22.04 |    116346    |   131499
        9  | 29:13.25 |  3:47.65 |    131500    |   148589
       10  | 33:01.15 |  3:19.47 |    148590    |   163561
       11  | 36:20.62 |  3:57.58 |    163562    |   181394
Track  1
     Filename D:\Music\Brandon Heath - What If We (FLAC)\01 - Brandon Heath - Give Me Your Eyes.wav
     Pre-gap length  0:00:02.00
     Peak level 99.9 %
     Track quality 99.9 %
     Test CRC 4B223EA9
     Copy CRC 4B223EA9
     Track not present in AccurateRip database
     Copy OK
Track  2
     Filename D:\Music\Brandon Heath - What If We (FLAC)\02 - Brandon Heath - Wait And See.wav
     Peak level 99.9 %
     Track quality 99.9 %
     Test CRC 1A20F5B4
     Copy CRC 1A20F5B4
     Track not present in AccurateRip database
     Copy OK
Track  3
     Filename D:\Music\Brandon Heath - What If We (FLAC)\03 - Brandon Heath - Trust You.wav
     Pre-gap length  0:00:00.02
     Peak level 94.2 %
     Track quality 100.0 %
     Test CRC C2C7EE0C
     Copy CRC C2C7EE0C
     Track not present in AccurateRip database
     Copy OK
Track  4
     Filename D:\Music\Brandon Heath - What If We (FLAC)\04 - Brandon Heath - London.wav
     Pre-gap length  0:00:00.42
     Peak level 99.9 %
     Track quality 99.9 %
     Test CRC 2AE03283
     Copy CRC 2AE03283
     Track not present in AccurateRip database
     Copy OK
Track  5
     Filename D:\Music\Brandon Heath - What If We (FLAC)\05 - Brandon Heath - Sunrise.wav
     Pre-gap length  0:00:01.38
     Peak level 95.6 %
     Track quality 99.9 %
     Test CRC 694CE223
     Copy CRC 694CE223
     Track not present in AccurateRip database
     Copy OK
Track  6
     Filename D:\Music\Brandon Heath - What If We (FLAC)\06 - Brandon Heath - Sore Eyes.wav
     Pre-gap length  0:00:00.02
     Peak level 99.9 %
     Track quality 100.0 %
     Test CRC C04A2544
     Copy CRC C04A2544
     Track not present in AccurateRip database
     Copy OK
Track  7
     Filename D:\Music\Brandon Heath - What If We (FLAC)\07 - Brandon Heath - Love Never Fails.wav
     Pre-gap length  0:00:00.38
     Peak level 99.9 %
     Track quality 100.0 %
     Test CRC 3E7D5EE4
     Copy CRC 3E7D5EE4
     Track not present in AccurateRip database
     Copy OK
Track  8
     Filename D:\Music\Brandon Heath - What If We (FLAC)\08 - Brandon Heath - Listen Up.wav
     Pre-gap length  0:00:00.82
     Peak level 100.0 %
     Track quality 99.9 %
     Test CRC 5F36BDEA
     Copy CRC 5F36BDEA
     Track not present in AccurateRip database
     Copy OK
Track  9
     Filename D:\Music\Brandon Heath - What If We (FLAC)\09 - Brandon Heath - Fight Another Day.wav
     Pre-gap length  0:00:00.10
     Peak level 99.8 %
     Track quality 100.0 %
     Test CRC A901F504
     Copy CRC A901F504
     Track not present in AccurateRip database
     Copy OK
Track 10
     Filename D:\Music\Brandon Heath - What If We (FLAC)\10 - Brandon Heath - When I'm Alone.wav
     Pre-gap length  0:00:01.78
     Peak level 99.9 %
     Track quality 100.0 %
     Test CRC 91117DDF
     Copy CRC 91117DDF
     Track not present in AccurateRip database
     Copy OK
Track 11
     Filename D:\Music\Brandon Heath - What If We (FLAC)\11 - Brandon Heath - No Not One.wav
     Pre-gap length  0:00:00.01
     Peak level 99.9 %
     Track quality 99.9 %
     Test CRC BB320BBE
     Copy CRC BB320BBE
     Track not present in AccurateRip database
     Copy OK
None of the tracks are present in the AccurateRip database
No errors occurred
End of status report
Код:
REM GENRE "Christian Rock"
REM DATE 2008
REM DISCID 9509720B
REM COMMENT "ExactAudioCopy v0.99pb3"
PERFORMER "Brandon Heath"
TITLE "What If We"
FILE "01 - Brandon Heath - Give Me Your Eyes.wav" WAVE
  TRACK 01 AUDIO
    TITLE "Give Me Your Eyes"
    PERFORMER "Brandon Heath"
    INDEX 01 00:00:00
FILE "02 - Brandon Heath - Wait And See.wav" WAVE
  TRACK 02 AUDIO
    TITLE "Wait And See"
    PERFORMER "Brandon Heath"
    INDEX 01 00:00:00
  TRACK 03 AUDIO
    TITLE "Trust You"
    PERFORMER "Brandon Heath"
    INDEX 00 03:48:06
FILE "03 - Brandon Heath - Trust You.wav" WAVE
    INDEX 01 00:00:00
  TRACK 04 AUDIO
    TITLE "London"
    PERFORMER "Brandon Heath"
    INDEX 00 03:51:14
FILE "04 - Brandon Heath - London.wav" WAVE
    INDEX 01 00:00:00
  TRACK 05 AUDIO
    TITLE "Sunrise"
    PERFORMER "Brandon Heath"
    INDEX 00 03:33:38
FILE "05 - Brandon Heath - Sunrise.wav" WAVE
    INDEX 01 00:00:00
  TRACK 06 AUDIO
    TITLE "Sore Eyes"
    PERFORMER "Brandon Heath"
    INDEX 00 04:01:25
FILE "06 - Brandon Heath - Sore Eyes.wav" WAVE
    INDEX 01 00:00:00
  TRACK 07 AUDIO
    TITLE "Love Never Fails"
    PERFORMER "Brandon Heath"
    INDEX 00 03:35:04
FILE "07 - Brandon Heath - Love Never Fails.wav" WAVE
    INDEX 01 00:00:00
  TRACK 08 AUDIO
    TITLE "Listen Up"
    PERFORMER "Brandon Heath"
    INDEX 00 03:06:28
FILE "08 - Brandon Heath - Listen Up.wav" WAVE
    INDEX 01 00:00:00
  TRACK 09 AUDIO
    TITLE "Fight Another Day"
    PERFORMER "Brandon Heath"
    INDEX 00 03:21:71
FILE "09 - Brandon Heath - Fight Another Day.wav" WAVE
    INDEX 01 00:00:00
  TRACK 10 AUDIO
    TITLE "When I'm Alone"
    PERFORMER "Brandon Heath"
    INDEX 00 03:46:06
FILE "10 - Brandon Heath - When I'm Alone.wav" WAVE
    INDEX 01 00:00:00
  TRACK 11 AUDIO
    TITLE "No Not One"
    PERFORMER "Brandon Heath"
    INDEX 00 03:19:46
FILE "11 - Brandon Heath - No Not One.wav" WAVE
    INDEX 01 00:00:00
Код:
[CUETools log; Date: 14.08.2011 15:01:21; Version: 2.1.2]
HDCD: peak extend: none, transient filter: none, gain: none
[CTDB TOCID: 6lyQldurmYD.dB3n7yNB_blOaPY-] found.
        [ CTDBID ] Status
        [bc12c742] (16/16) Accurately ripped
[AccurateRip ID: 0010d006-0090e459-9509720b] found.
Track   [ CRC    ] Status
 01     [6130ab7a] (16/16) Accurately ripped
 02     [0a633847] (16/16) Accurately ripped
 03     [bfa02da2] (16/16) Accurately ripped
 04     [76f55bf7] (16/16) Accurately ripped
 05     [63cc753e] (16/16) Accurately ripped
 06     [d0d803c3] (16/16) Accurately ripped
 07     [38726604] (16/16) Accurately ripped
 08     [f0cbca04] (16/16) Accurately ripped
 09     [4b9fa442] (16/16) Accurately ripped
 10     [1eceb02a] (16/16) Accurately ripped
 11     [7286dff6] (16/16) Accurately ripped
Track Peak [ CRC32  ] [W/O NULL] [  LOG   ]
 --  100,0 [2BC392B4] [09DB7FAC]
 01   99,9 [4B223EA9] [7FA0C296]   CRC32
 02   99,9 [1A20F5B4] [E807DE3F]   CRC32
 03   94,2 [C2C7EE0C] [28B0BA44]   CRC32
 04   99,9 [2AE03283] [1B3539BB]   CRC32
 05   95,6 [694CE223] [2366C53D]   CRC32
 06   99,9 [C04A2544] [9A17A12A]   CRC32
 07   99,9 [3E7D5EE4] [CF936A7C]   CRC32
 08  100,0 [5F36BDEA] [51263A1E]   CRC32
 09   99,8 [A901F504] [76AC26C4]   CRC32
 10   99,9 [91117DDF] [A10289FC]   CRC32
 11   99,9 [BB320BBE] [EA3723AD]   CRC32
Правила, инструкции, FAQ!!!
Торрент  Добавлен [26 мар 2019, 18:38] Скачать торрент Магнет ссылка
Скачать торрент
[ Размер 11.9 КБ / Просмотров 5 ]

Статус
Проверен 
 
Размер  267.56 МБ
Приватный: Нет (DHT включён)
.torrent скачан  0
 


     Отправить личное сообщение
   
Страница 1 из 1
Показать сообщения за:  Поле сортировки  
Начать новую тему Ответить на тему


Сейчас этот форум просматривают: нет зарегистрированных пользователей и гости: 0


Вы не можете начинать темы
Вы не можете отвечать на сообщения
Вы не можете редактировать свои сообщения
Вы не можете удалять свои сообщения
Вы не можете добавлять вложения

Перейти:  
cron