Начать новую тему Ответить на тему
Статистика раздачи
Размер: 293.08 МБ | Добавлен: 26 мар 2019, 19:09 | Скачали: 0
Сидеров: 0  [0 байт/сек]    Личеров: 0  [0 байт/сек]
Пред. тема | След. тема 

Автор
Сообщение

СообщениеДобавлено: 26 мар 2019, 19:09 

Ответить с цитатой 

Brandon Heath / Leaving Eden
Жанр: Christian Rock
Страна-производитель диска: US
Год издания диска: 2011
Издатель (лейбл): Reunion Records
Номер по каталогу: B004GKI7AU
Страна: US
Аудио кодек: FLAC (*.flac)
Тип рипа: tracks+.cue
Битрейт аудио: lossless
Продолжительность: 43:47
Источник (релизер): Generalaj01
Наличие сканов в содержимом раздачи: нет
Треклист:
1. (00:05:15) Leaving Eden
2. (00:03:38) Your Love
3. (00:04:25) The Light In Me
4. (00:03:57) Only Water
5. (00:03:43) Stolen
6. (00:02:57) Might Just Save Your Life
7. (00:03:41) It's Alright
8. (00:03:30) It's No Good To Be Alone
9. (00:04:03) Now More Than Ever
10. (00:04:16) The One
11. (00:04:22) As Long As I'm Here
http://brandonheath.net/music/
http://www.myspace.com/brandonheath
Код:
Exact Audio Copy V1.0 beta 1 from 15. November 2010
EAC extraction logfile from 20. February 2011, 20:21
Brandon Heath / Leaving Eden
Used drive  : SONY    DVD RW DRU-810A   Adapter: 1  ID: 0
Read mode               : Secure
Utilize accurate stream : Yes
Defeat audio cache      : Yes
Make use of C2 pointers : No
Read offset correction                      : 618
Overread into Lead-In and Lead-Out          : No
Fill up missing offset samples with silence : Yes
Delete leading and trailing silent blocks   : No
Null samples used in CRC calculations       : Yes
Used interface                              : Native Win32 interface for Win NT & 2000
Gap handling                                : Appended to previous track
Used output format              : User Defined Encoder
Selected bitrate                : 896 kBit/s
Quality                         : High
Add ID3 tag                     : No
Command line compressor         : C:\Program Files (x86)\FLAC\flac.exe
Additional command line options : -V -8 -T "artist=%a" -T "title=%t" -T "album=%g" -T "date=%y" -T "tracknumber=%n" -T "genre=%m" %s
TOC of the extracted CD
     Track |   Start  |  Length  | Start sector | End sector
    ---------------------------------------------------------
        1  |  0:00.00 |  5:14.73 |         0    |    23622
        2  |  5:14.73 |  3:37.58 |     23623    |    39955
        3  |  8:52.56 |  4:25.33 |     39956    |    59863
        4  | 13:18.14 |  3:57.09 |     59864    |    77647
        5  | 17:15.23 |  3:43.24 |     77648    |    94396
        6  | 20:58.47 |  2:56.74 |     94397    |   107670
        7  | 23:55.46 |  3:40.69 |    107671    |   124239
        8  | 27:36.40 |  3:29.50 |    124240    |   139964
        9  | 31:06.15 |  4:03.11 |    139965    |   158200
       10  | 35:09.26 |  4:15.68 |    158201    |   177393
       11  | 39:25.19 |  4:22.03 |    177394    |   197046
Track  1
     Filename C:\CDRips\01 - Leaving Eden.wav
     Pre-gap length  0:00:02.00
     Peak level 99.9 %
     Extraction speed 5.1 X
     Track quality 100.0 %
     Test CRC E7791468
     Copy CRC E7791468
     Track not present in AccurateRip database
     Copy OK
Track  2
     Filename C:\CDRips\02 - Your Love.wav
     Pre-gap length  0:00:07.65
     Peak level 99.9 %
     Extraction speed 5.3 X
     Track quality 100.0 %
     Test CRC FB1EA4DC
     Copy CRC FB1EA4DC
     Track not present in AccurateRip database
     Copy OK
Track  3
     Filename C:\CDRips\03 - The Light In Me.wav
     Pre-gap length  0:00:07.65
     Peak level 99.9 %
     Extraction speed 5.8 X
     Track quality 100.0 %
     Test CRC 54A10EDC
     Copy CRC 54A10EDC
     Track not present in AccurateRip database
     Copy OK
Track  4
     Filename C:\CDRips\04 - Only Water.wav
     Pre-gap length  0:00:07.65
     Peak level 99.9 %
     Extraction speed 6.1 X
     Track quality 100.0 %
     Test CRC 933E8BC4
     Copy CRC 933E8BC4
     Track not present in AccurateRip database
     Copy OK
Track  5
     Filename C:\CDRips\05 - Stolen.wav
     Pre-gap length  0:00:07.65
     Peak level 99.9 %
     Extraction speed 6.4 X
     Track quality 100.0 %
     Test CRC 9D4B2FA4
     Copy CRC 9D4B2FA4
     Track not present in AccurateRip database
     Copy OK
Track  6
     Filename C:\CDRips\06 - Might Just Save Your Life.wav
     Pre-gap length  0:00:07.65
     Peak level 99.9 %
     Extraction speed 5.1 X
     Track quality 99.9 %
     Test CRC 3ECAEB20
     Copy CRC 3ECAEB20
     Track not present in AccurateRip database
     Copy OK
Track  7
     Filename C:\CDRips\07 - It's Alright.wav
     Pre-gap length  0:00:07.65
     Peak level 99.9 %
     Extraction speed 6.8 X
     Track quality 100.0 %
     Test CRC 4966661D
     Copy CRC 4966661D
     Track not present in AccurateRip database
     Copy OK
Track  8
     Filename C:\CDRips\08 - It's No Good To Be Alone.wav
     Pre-gap length  0:00:07.65
     Peak level 99.9 %
     Extraction speed 7.0 X
     Track quality 100.0 %
     Test CRC 72BC8DE4
     Copy CRC 72BC8DE4
     Track not present in AccurateRip database
     Copy OK
Track  9
     Filename C:\CDRips\09 - Now More Than Ever.wav
     Pre-gap length  0:00:07.65
     Peak level 99.9 %
     Extraction speed 7.4 X
     Track quality 100.0 %
     Test CRC 8F4A8E42
     Copy CRC 8F4A8E42
     Track not present in AccurateRip database
     Copy OK
Track 10
     Filename C:\CDRips\10 - The One.wav
     Pre-gap length  0:00:07.65
     Peak level 99.9 %
     Extraction speed 7.7 X
     Track quality 100.0 %
     Test CRC 90BC9A81
     Copy CRC 90BC9A81
     Track not present in AccurateRip database
     Copy OK
Track 11
     Filename C:\CDRips\11 - As Long As I'm Here.wav
     Pre-gap length  0:00:07.65
     Peak level 99.9 %
     Extraction speed 6.8 X
     Track quality 99.9 %
     Test CRC 6F0F4140
     Copy CRC 6F0F4140
     Track not present in AccurateRip database
     Copy OK
None of the tracks are present in the AccurateRip database
No errors occurred
End of status report
==== Log checksum 67BE12EDE6333FF985493B22C7DE9CE93834208CAF5C3FB514F213260C999BB6 ====
Код:
REM GENRE "Christian Rock"
REM DATE 2011
REM DISCID 850A430B
REM COMMENT "ExactAudioCopy v1.0b1"
PERFORMER "Brandon Heath"
TITLE "Leaving Eden"
FILE "01 - Leaving Eden.wav" WAVE
  TRACK 01 AUDIO
    TITLE "Leaving Eden"
    PERFORMER "Brandon Heath"
    INDEX 01 00:00:00
  TRACK 02 AUDIO
    TITLE "Your Love"
    PERFORMER "Brandon Heath"
    FLAGS DCP
    INDEX 00 05:07:08
FILE "02 - Your Love.wav" WAVE
    INDEX 01 00:00:00
  TRACK 03 AUDIO
    TITLE "The Light In Me"
    PERFORMER "Brandon Heath"
    FLAGS DCP
    INDEX 00 03:29:68
FILE "03 - The Light In Me.wav" WAVE
    INDEX 01 00:00:00
  TRACK 04 AUDIO
    TITLE "Only Water"
    PERFORMER "Brandon Heath"
    FLAGS DCP
    INDEX 00 04:17:43
FILE "04 - Only Water.wav" WAVE
    INDEX 01 00:00:00
  TRACK 05 AUDIO
    TITLE "Stolen"
    PERFORMER "Brandon Heath"
    FLAGS DCP
    INDEX 00 03:49:19
FILE "05 - Stolen.wav" WAVE
    INDEX 01 00:00:00
  TRACK 06 AUDIO
    TITLE "Might Just Save Your Life"
    PERFORMER "Brandon Heath"
    FLAGS DCP
    INDEX 00 03:35:34
FILE "06 - Might Just Save Your Life.wav" WAVE
    INDEX 01 00:00:00
  TRACK 07 AUDIO
    TITLE "It's Alright"
    PERFORMER "Brandon Heath"
    FLAGS DCP
    INDEX 00 02:49:09
FILE "07 - It's Alright.wav" WAVE
    INDEX 01 00:00:00
  TRACK 08 AUDIO
    TITLE "It's No Good To Be Alone"
    PERFORMER "Brandon Heath"
    FLAGS DCP
    INDEX 00 03:33:04
FILE "08 - It's No Good To Be Alone.wav" WAVE
    INDEX 01 00:00:00
  TRACK 09 AUDIO
    TITLE "Now More Than Ever"
    PERFORMER "Brandon Heath"
    FLAGS DCP
    INDEX 00 03:21:60
FILE "09 - Now More Than Ever.wav" WAVE
    INDEX 01 00:00:00
  TRACK 10 AUDIO
    TITLE "The One"
    PERFORMER "Brandon Heath"
    FLAGS DCP
    INDEX 00 03:55:21
FILE "10 - The One.wav" WAVE
    INDEX 01 00:00:00
  TRACK 11 AUDIO
    TITLE "As Long As I'm Here"
    PERFORMER "Brandon Heath"
    FLAGS DCP
    INDEX 00 04:08:03
FILE "11 - As Long As I'm Here.wav" WAVE
    INDEX 01 00:00:00
Правила, инструкции, FAQ!!!
Торрент  Добавлен [26 мар 2019, 19:09] Скачать торрент Магнет ссылка
Скачать торрент
[ Размер 12.64 КБ / Просмотров 1 ]

Статус
Проверен 
 
Размер  293.08 МБ
Приватный: Нет (DHT включён)
.torrent скачан  0
 


     Отправить личное сообщение
   
Страница 1 из 1
Показать сообщения за:  Поле сортировки  
Начать новую тему Ответить на тему


Сейчас этот форум просматривают: нет зарегистрированных пользователей и гости: 0


Вы не можете начинать темы
Вы не можете отвечать на сообщения
Вы не можете редактировать свои сообщения
Вы не можете удалять свои сообщения
Вы не можете добавлять вложения

Перейти:  
cron