Начать новую тему Ответить на тему
Статистика раздачи
Размер: 287.58 МБ | Добавлен: 26 мар 2019, 19:58 | Скачали: 0
Сидеров: 0  [0 байт/сек]    Личеров: 0  [0 байт/сек]
Пред. тема | След. тема 

Автор
Сообщение

СообщениеДобавлено: 26 мар 2019, 19:58 

Ответить с цитатой 

Brandon Heath - Don't Get Comfortable


Страна:
Жанр: Christian Rock
Страна-производитель диска: US
Год издания диска: 2006
Издатель (лейбл): Reunion
Номер по каталогу: 10105
Аудиокодек: FLAC (*.flac)
Тип рипа: tracks+.cue
Битрейт аудио: lossless
Продолжительность: 00:41:11
Источник (релизер): What
Covers: Front
Треклист:
01. Steady Now
02. Simple Man
03. Don't Get Comfortable
04. Our God Reigns
05. Red Sky
06. You Decide
07. I'm Not Who I Was
08. Let's Make It Last
09. I Will Lay You Down
10. The Light
11. Beauty Divine
Код:
Exact Audio Copy V0.99 prebeta 4 from 23. January 2008
EAC extraction logfile from 21. March 2009, 13:45
Brandon Heath / Don't Get Comfortable
Used drive  : HL-DT-STDVDRAM GSA-T50L   Adapter: 0  ID: 1
Read mode               : Secure
Utilize accurate stream : Yes
Defeat audio cache      : Yes
Make use of C2 pointers : No
Read offset correction                      : 667
Overread into Lead-In and Lead-Out          : No
Fill up missing offset samples with silence : Yes
Delete leading and trailing silent blocks   : No
Null samples used in CRC calculations       : Yes
Used interface                              : Native Win32 interface for Win NT & 2000
Gap handling                                : Appended to previous track
Used output format              : User Defined Encoder
Selected bitrate                : 768 kBit/s
Quality                         : High
Add ID3 tag                     : No
Command line compressor         : C:\Program Files\Exact Audio Copy\FLAC\FLAC.EXE
Additional command line options : -6 -V -T "ARTIST=%a" -T "TITLE=%t" -T "ALBUM=%g" -T "DATE=%y" -T "TRACKNUMBER=%n" -T "GENRE=%m" -T "COMMENT=%e" %s -o %d
TOC of the extracted CD
     Track |   Start  |  Length  | Start sector | End sector
    ---------------------------------------------------------
        1  |  0:00.00 |  3:39.03 |         0    |    16427
        2  |  3:39.03 |  2:52.11 |     16428    |    29338
        3  |  6:31.14 |  3:12.16 |     29339    |    43754
        4  |  9:43.30 |  4:04.27 |     43755    |    62081
        5  | 13:47.57 |  4:31.30 |     62082    |    82436
        6  | 18:19.12 |  3:50.00 |     82437    |    99686
        7  | 22:09.12 |  3:19.08 |     99687    |   114619
        8  | 25:28.20 |  4:27.49 |    114620    |   134693
        9  | 29:55.69 |  3:06.24 |    134694    |   148667
       10  | 33:02.18 |  3:52.29 |    148668    |   166096
       11  | 36:54.47 |  4:16.28 |    166097    |   185324
Track  1
     Filename C:\EACrips\Brandon Heath - 2006 - Don't Get Comfortable\01 - Steady Now.wav
     Pre-gap length  0:00:02.00
     Peak level 99.9 %
     Track quality 100.0 %
     Test CRC 7ADDF9CF
     Copy CRC 7ADDF9CF
     Accurately ripped (confidence 7)  [9E21C49B]
     Copy OK
Track  2
     Filename C:\EACrips\Brandon Heath - 2006 - Don't Get Comfortable\02 - Simple Man.wav
     Peak level 99.9 %
     Track quality 100.0 %
     Test CRC 5DDDE559
     Copy CRC 5DDDE559
     Accurately ripped (confidence 7)  [E5CE8D87]
     Copy OK
Track  3
     Filename C:\EACrips\Brandon Heath - 2006 - Don't Get Comfortable\03 - Don't Get Comfortable.wav
     Peak level 99.8 %
     Track quality 100.0 %
     Test CRC 43604452
     Copy CRC 43604452
     Accurately ripped (confidence 7)  [900A203D]
     Copy OK
Track  4
     Filename C:\EACrips\Brandon Heath - 2006 - Don't Get Comfortable\04 - Our God Reigns.wav
     Peak level 99.9 %
     Track quality 100.0 %
     Test CRC 61311EEF
     Copy CRC 61311EEF
     Accurately ripped (confidence 7)  [9C2A2044]
     Copy OK
Track  5
     Filename C:\EACrips\Brandon Heath - 2006 - Don't Get Comfortable\05 - Red Sky.wav
     Pre-gap length  0:00:00.05
     Peak level 99.4 %
     Track quality 100.0 %
     Test CRC 6DACD7AD
     Copy CRC 6DACD7AD
     Accurately ripped (confidence 7)  [76962529]
     Copy OK
Track  6
     Filename C:\EACrips\Brandon Heath - 2006 - Don't Get Comfortable\06 - You Decide.wav
     Pre-gap length  0:00:01.89
     Peak level 99.9 %
     Track quality 100.0 %
     Test CRC 6120F56A
     Copy CRC 6120F56A
     Accurately ripped (confidence 7)  [71DC863F]
     Copy OK
Track  7
     Filename C:\EACrips\Brandon Heath - 2006 - Don't Get Comfortable\07 - I'm Not Who I Was.wav
     Peak level 99.9 %
     Track quality 100.0 %
     Test CRC FA9130AC
     Copy CRC FA9130AC
     Accurately ripped (confidence 7)  [F424C9BA]
     Copy OK
Track  8
     Filename C:\EACrips\Brandon Heath - 2006 - Don't Get Comfortable\08 - Let's Make It Last.wav
     Peak level 99.8 %
     Track quality 99.9 %
     Test CRC BB516616
     Copy CRC BB516616
     Accurately ripped (confidence 7)  [140B5140]
     Copy OK
Track  9
     Filename C:\EACrips\Brandon Heath - 2006 - Don't Get Comfortable\09 - I Will Lay You Down.wav
     Peak level 96.4 %
     Track quality 100.0 %
     Test CRC 668BD261
     Copy CRC 668BD261
     Accurately ripped (confidence 7)  [5234B2A6]
     Copy OK
Track 10
     Filename C:\EACrips\Brandon Heath - 2006 - Don't Get Comfortable\10 - The Light.wav
     Pre-gap length  0:00:00.46
     Peak level 95.3 %
     Track quality 100.0 %
     Test CRC 9B21B605
     Copy CRC 9B21B605
     Accurately ripped (confidence 7)  [3182BF64]
     Copy OK
Track 11
     Filename C:\EACrips\Brandon Heath - 2006 - Don't Get Comfortable\11 - Beauty Divine.wav
     Pre-gap length  0:00:00.88
     Peak level 99.9 %
     Track quality 99.9 %
     Test CRC 4AFD0D81
     Copy CRC 4AFD0D81
     Accurately ripped (confidence 7)  [860EEC01]
     Copy OK
All tracks accurately ripped
No errors occurred
End of status report
Код:
REM GENRE "Contemporary Christian"
REM DATE 2006
REM DISCID 8809A70B
REM COMMENT "ExactAudioCopy v0.99pb4"
PERFORMER "Brandon Heath"
TITLE "Don't Get Comfortable"
FILE "01 - Steady Now.wav" WAVE
  TRACK 01 AUDIO
    TITLE "Steady Now"
    PERFORMER "Brandon Heath"
    INDEX 01 00:00:00
FILE "02 - Simple Man.wav" WAVE
  TRACK 02 AUDIO
    TITLE "Simple Man"
    PERFORMER "Brandon Heath"
    INDEX 01 00:00:00
FILE "03 - Don't Get Comfortable.wav" WAVE
  TRACK 03 AUDIO
    TITLE "Don't Get Comfortable"
    PERFORMER "Brandon Heath"
    INDEX 01 00:00:00
FILE "04 - Our God Reigns.wav" WAVE
  TRACK 04 AUDIO
    TITLE "Our God Reigns"
    PERFORMER "Brandon Heath"
    INDEX 01 00:00:00
  TRACK 05 AUDIO
    TITLE "Red Sky"
    PERFORMER "Brandon Heath"
    INDEX 00 04:04:23
FILE "05 - Red Sky.wav" WAVE
    INDEX 01 00:00:00
  TRACK 06 AUDIO
    TITLE "You Decide"
    PERFORMER "Brandon Heath"
    INDEX 00 04:29:38
FILE "06 - You Decide.wav" WAVE
    INDEX 01 00:00:00
FILE "07 - I'm Not Who I Was.wav" WAVE
  TRACK 07 AUDIO
    TITLE "I'm Not Who I Was"
    PERFORMER "Brandon Heath"
    INDEX 01 00:00:00
FILE "08 - Let's Make It Last.wav" WAVE
  TRACK 08 AUDIO
    TITLE "Let's Make It Last"
    PERFORMER "Brandon Heath"
    INDEX 01 00:00:00
FILE "09 - I Will Lay You Down.wav" WAVE
  TRACK 09 AUDIO
    TITLE "I Will Lay You Down"
    PERFORMER "Brandon Heath"
    INDEX 01 00:00:00
  TRACK 10 AUDIO
    TITLE "The Light"
    PERFORMER "Brandon Heath"
    INDEX 00 03:05:64
FILE "10 - The Light.wav" WAVE
    INDEX 01 00:00:00
  TRACK 11 AUDIO
    TITLE "Beauty Divine"
    PERFORMER "Brandon Heath"
    INDEX 00 03:51:38
FILE "11 - Beauty Divine.wav" WAVE
    INDEX 01 00:00:00
Код:
[CUETools log; Date: 14.08.2011 17:08:46; Version: 2.1.2]
HDCD: peak extend: none, transient filter: none, gain: none
[CTDB TOCID: cSysXsiRlEa5xpWxQEuHgUtvPQ0-] found.
        [ CTDBID ] Status
        [69b3f684] (13/13) Accurately ripped
[AccurateRip ID: 001086fc-00906ef4-8809a70b] found.
Track   [ CRC    ] Status
 01     [9e21c49b] (13/13) Accurately ripped
 02     [e5ce8d87] (13/13) Accurately ripped
 03     [900a203d] (13/13) Accurately ripped
 04     [9c2a2044] (13/13) Accurately ripped
 05     [76962529] (13/13) Accurately ripped
 06     [71dc863f] (13/13) Accurately ripped
 07     [f424c9ba] (13/13) Accurately ripped
 08     [140b5140] (13/13) Accurately ripped
 09     [5234b2a6] (13/13) Accurately ripped
 10     [3182bf64] (13/13) Accurately ripped
 11     [860eec01] (13/13) Accurately ripped
Track Peak [ CRC32  ] [W/O NULL] [  LOG   ]
 --   99,9 [2DD0A0D4] [830070D0]
 01   99,9 [7ADDF9CF] [00A894C5]   CRC32
 02   99,9 [5DDDE559] [B13FBE8B]   CRC32
 03   99,8 [43604452] [B398BBF4]   CRC32
 04   99,9 [61311EEF] [71F75803]   CRC32
 05   99,4 [6DACD7AD] [06FC584F]   CRC32
 06   99,9 [6120F56A] [F0798909]   CRC32
 07   99,9 [FA9130AC] [DC3D7075]   CRC32
 08   99,8 [BB516616] [64B833FF]   CRC32
 09   96,4 [668BD261] [0589C1BD]   CRC32
 10   95,3 [9B21B605] [BF973025]   CRC32
 11   99,9 [4AFD0D81] [A1609EFE]   CRC32
Правила, инструкции, FAQ!!!
Торрент  Добавлен [26 мар 2019, 19:58] Скачать торрент Магнет ссылка
Скачать торрент
[ Размер 12.51 КБ / Просмотров 3 ]

Статус
Проверен 
 
Размер  287.58 МБ
Приватный: Нет (DHT включён)
.torrent скачан  0
 


     Отправить личное сообщение
   
Страница 1 из 1
Показать сообщения за:  Поле сортировки  
Начать новую тему Ответить на тему


Сейчас этот форум просматривают: нет зарегистрированных пользователей и гости: 0


Вы не можете начинать темы
Вы не можете отвечать на сообщения
Вы не можете редактировать свои сообщения
Вы не можете удалять свои сообщения
Вы не можете добавлять вложения

Перейти:  
cron