Начать новую тему Ответить на тему
Статистика раздачи
Размер: 260.58 МБ | Добавлен: 26 мар 2019, 18:48 | Скачали: 0
Сидеров: 0  [0 байт/сек]    Личеров: 0  [0 байт/сек]
Пред. тема | След. тема 

Автор
Сообщение

СообщениеДобавлено: 26 мар 2019, 18:48 

Ответить с цитатой 

Brandon Heath - Blue Mountain - 2012

Жанр: Christian Rock
Год издания: 2012
Издатель (лейбл): Reunion Records
Номер по каталогу: 02341-0171-2
Страна: USA
Аудиокодек: FLAC (*.flac)
Тип рипа: tracks+.cue
Битрейт аудио: lossless
Продолжительность: 00:42:33
Источник (релизер): [What.CD] Deadmarsh
Наличие сканов в содержимом раздачи: нет
Треклист:
01. "The Harvester" 4:15
02. "Jesus in Disguise" 3:38
03. "Blue Mountain" 3:05
04. "Diamond" 3:35
05. "Love Will Be Enough For Us" 3:40
06. "Love Does" 3:50
07. "Paul Brown Petty" 3:31
08. "In the Dust" 4:11
09. "Dyin' Day" 3:48
10. "Hands of the Healer" 3:55
11. "He Paid it All" 4:59
Код:
Exact Audio Copy V1.0 beta 3 from 29. August 2011
EAC extraction logfile from 28. November 2012, 16:09
Brandon Heath / Blue Mountain
Used drive  : TSSTcorpCDDVDW SH-S223C   Adapter: 0  ID: 2
Read mode               : Secure
Utilize accurate stream : Yes
Defeat audio cache      : Yes
Make use of C2 pointers : No
Read offset correction                      : 697
Overread into Lead-In and Lead-Out          : No
Fill up missing offset samples with silence : Yes
Delete leading and trailing silent blocks   : No
Null samples used in CRC calculations       : Yes
Used interface                              : Native Win32 interface for Win NT & 2000
Gap handling                                : Appended to previous track
Used output format              : User Defined Encoder
Selected bitrate                : 1024 kBit/s
Quality                         : High
Add ID3 tag                     : No
Command line compressor         : D:\Software\Exact Audio Copy\Flac\flac.exe
Additional command line options : -8 -V -T "ARTIST=%artist%" -T "TITLE=%title%" -T "ALBUM=%albumtitle%" -T "DATE=%year%" -T "TRACKNUMBER=%tracknr%" -T "GENRE=%genre%" -T "PERFORMER=%albuminterpret%" -T "COMPOSER=%composer%" %haslyrics%--tag-from-file=LYRICS="%lyricsfile%"%haslyrics% -T "ALBUMARTIST=%albumartist%" -T "DISCNUMBER=%cdnumber%" -T "TOTALDISCS=%totalcds%" -T "TOTALTRACKS=%numtracks%" -T "COMMENT=%comment%" %source% -o %dest%
TOC of the extracted CD
     Track |   Start  |  Length  | Start sector | End sector
    ---------------------------------------------------------
        1  |  0:00.00 |  4:15.72 |         0    |    19196
        2  |  4:15.72 |  3:38.47 |     19197    |    35593
        3  |  7:54.44 |  3:05.74 |     35594    |    49542
        4  | 11:00.43 |  3:35.45 |     49543    |    65712
        5  | 14:36.13 |  3:40.44 |     65713    |    82256
        6  | 18:16.57 |  3:50.44 |     82257    |    99550
        7  | 22:07.26 |  3:31.41 |     99551    |   115416
        8  | 25:38.67 |  4:11.29 |    115417    |   134270
        9  | 29:50.21 |  3:48.07 |    134271    |   151377
       10  | 33:38.28 |  3:55.32 |    151378    |   169034
       11  | 37:33.60 |  4:59.41 |    169035    |   191500
Track  1
     Filename D:\Downloads\01 - The Harvester.wav
     Pre-gap length  0:00:02.00
     Peak level 99.9 %
     Extraction speed 1.7 X
     Track quality 99.9 %
     Test CRC 129EF0B6
     Copy CRC 129EF0B6
     Track not present in AccurateRip database
     Copy OK
Track  2
     Filename D:\Downloads\02 - Jesus in Disguise.wav
     Peak level 99.9 %
     Extraction speed 2.1 X
     Track quality 100.0 %
     Test CRC 04F6767B
     Copy CRC 04F6767B
     Track not present in AccurateRip database
     Copy OK
Track  3
     Filename D:\Downloads\03 - Blue Mountain.wav
     Peak level 99.9 %
     Extraction speed 2.2 X
     Track quality 100.0 %
     Test CRC EE5D3C2F
     Copy CRC EE5D3C2F
     Track not present in AccurateRip database
     Copy OK
Track  4
     Filename D:\Downloads\04 - Diamond.wav
     Peak level 99.9 %
     Extraction speed 2.4 X
     Track quality 100.0 %
     Test CRC 11A8150A
     Copy CRC 11A8150A
     Track not present in AccurateRip database
     Copy OK
Track  5
     Filename D:\Downloads\05 - Love Will Be Enough for Us.wav
     Peak level 99.9 %
     Extraction speed 2.5 X
     Track quality 100.0 %
     Test CRC 8B65FDA9
     Copy CRC 8B65FDA9
     Track not present in AccurateRip database
     Copy OK
Track  6
     Filename D:\Downloads\06 - Love Does.wav
     Peak level 99.9 %
     Extraction speed 2.7 X
     Track quality 100.0 %
     Test CRC EAFDB1DE
     Copy CRC EAFDB1DE
     Track not present in AccurateRip database
     Copy OK
Track  7
     Filename D:\Downloads\07 - Paul Brown Petty.wav
     Peak level 99.9 %
     Extraction speed 2.8 X
     Track quality 100.0 %
     Test CRC 611F3BCE
     Copy CRC 611F3BCE
     Track not present in AccurateRip database
     Copy OK
Track  8
     Filename D:\Downloads\08 - In the Dust.wav
     Peak level 99.9 %
     Extraction speed 3.0 X
     Track quality 100.0 %
     Test CRC 2196FCD2
     Copy CRC 2196FCD2
     Track not present in AccurateRip database
     Copy OK
Track  9
     Filename D:\Downloads\09 - Dyin' Day.wav
     Peak level 99.9 %
     Extraction speed 2.4 X
     Track quality 99.9 %
     Test CRC 030D0C64
     Copy CRC 030D0C64
     Track not present in AccurateRip database
     Copy OK
Track 10
     Filename D:\Downloads\10 - Hands of the Healer.wav
     Peak level 99.8 %
     Extraction speed 3.2 X
     Track quality 100.0 %
     Test CRC 8F362C9E
     Copy CRC 8F362C9E
     Track not present in AccurateRip database
     Copy OK
Track 11
     Filename D:\Downloads\11 - He Paid It All.wav
     Peak level 99.9 %
     Extraction speed 3.5 X
     Track quality 100.0 %
     Test CRC F24A4AAB
     Copy CRC F24A4AAB
     Track not present in AccurateRip database
     Copy OK
None of the tracks are present in the AccurateRip database
No errors occurred
End of status report
---- CUETools DB Plugin V2.1.3
[CTDB TOCID: 7Mbh4CCS8_vwutg21CuBtifvHAg-] found, Submit result: 7Mbh4CCS8_vwutg21CuBtifvHAg- has been confirmed
[7766661b] (1/1) Accurately ripped
==== Log checksum C1E6B043BBD26A9D07E52521A3841A78896D4B00E0D836A018420122DD657D90 ====
Код:
REM GENRE "Christian Rock"
REM DATE 2012
REM DISCID 9609F90B
REM COMMENT "ExactAudioCopy v1.0b3"
CATALOG 0602341017121
PERFORMER "Brandon Heath"
TITLE "Blue Mountain"
FILE "01 - The Harvester.wav" WAVE
  TRACK 01 AUDIO
    TITLE "The Harvester"
    PERFORMER "Brandon Heath"
    ISRC USA5W1200243
    INDEX 01 00:00:00
FILE "02 - Jesus in Disguise.wav" WAVE
  TRACK 02 AUDIO
    TITLE "Jesus in Disguise"
    PERFORMER "Brandon Heath"
    ISRC USA5W1200239
    INDEX 01 00:00:00
FILE "03 - Blue Mountain.wav" WAVE
  TRACK 03 AUDIO
    TITLE "Blue Mountain"
    PERFORMER "Brandon Heath"
    ISRC USA5W1200244
    INDEX 01 00:00:00
FILE "04 - Diamond.wav" WAVE
  TRACK 04 AUDIO
    TITLE "Diamond"
    PERFORMER "Brandon Heath"
    ISRC USA5W1200245
    INDEX 01 00:00:00
FILE "05 - Love Will Be Enough for Us.wav" WAVE
  TRACK 05 AUDIO
    TITLE "Love Will Be Enough for Us"
    PERFORMER "Brandon Heath"
    ISRC USA5W1200246
    INDEX 01 00:00:00
FILE "06 - Love Does.wav" WAVE
  TRACK 06 AUDIO
    TITLE "Love Does"
    PERFORMER "Brandon Heath"
    ISRC USA5W1200246
    INDEX 01 00:00:00
FILE "07 - Paul Brown Petty.wav" WAVE
  TRACK 07 AUDIO
    TITLE "Paul Brown Petty"
    PERFORMER "Brandon Heath"
    ISRC USA5W1200247
    INDEX 01 00:00:00
FILE "08 - In the Dust.wav" WAVE
  TRACK 08 AUDIO
    TITLE "In the Dust"
    PERFORMER "Brandon Heath"
    ISRC USA5W1200249
    INDEX 01 00:00:00
FILE "09 - Dyin' Day.wav" WAVE
  TRACK 09 AUDIO
    TITLE "Dyin' Day"
    PERFORMER "Brandon Heath"
    ISRC USA5W1200249
    INDEX 01 00:00:00
FILE "10 - Hands of the Healer.wav" WAVE
  TRACK 10 AUDIO
    TITLE "Hands of the Healer"
    PERFORMER "Brandon Heath"
    ISRC USA5W1200251
    INDEX 01 00:00:00
FILE "11 - He Paid It All.wav" WAVE
  TRACK 11 AUDIO
    TITLE "He Paid It All"
    PERFORMER "Brandon Heath"
    ISRC USA5W1200252
    INDEX 01 00:00:00
Код:
AUDIOCHECKER v2.0 beta (build 457) - by Dester - opdester@freemail.hu
~~~~~~~~~~~~~~~~~~~~~~~~~~~~~~~~~~
Начато: пятница, 30. 11. 2012. - 1:05.03
Найдено файлов: 11
01 -===- D:\Раздачи Lossless ( J.)\Brandon Heath - Blue Mountain (2012) - [FLAC]\01 - The Harvester.flac
  Извлечение успешно выполнено
  Заключение: этот трек - CDDA с вероятностью 100%
  Временный файл удалён.
02 -===- D:\Раздачи Lossless ( J.)\Brandon Heath - Blue Mountain (2012) - [FLAC]\02 - Jesus in Disguise.flac
  Извлечение успешно выполнено
  Заключение: этот трек - CDDA с вероятностью 100%
  Временный файл удалён.
03 -===- D:\Раздачи Lossless ( J.)\Brandon Heath - Blue Mountain (2012) - [FLAC]\03 - Blue Mountain.flac
  Извлечение успешно выполнено
  Заключение: этот трек - CDDA с вероятностью 100%
  Временный файл удалён.
04 -===- D:\Раздачи Lossless ( J.)\Brandon Heath - Blue Mountain (2012) - [FLAC]\04 - Diamond.flac
  Извлечение успешно выполнено
  Заключение: этот трек - CDDA с вероятностью 100%
  Временный файл удалён.
05 -===- D:\Раздачи Lossless ( J.)\Brandon Heath - Blue Mountain (2012) - [FLAC]\05 - Love Will Be Enough for Us.flac
  Извлечение успешно выполнено
  Заключение: этот трек - CDDA с вероятностью 99%
  Временный файл удалён.
06 -===- D:\Раздачи Lossless ( J.)\Brandon Heath - Blue Mountain (2012) - [FLAC]\06 - Love Does.flac
  Извлечение успешно выполнено
  Заключение: этот трек - CDDA с вероятностью 100%
  Временный файл удалён.
07 -===- D:\Раздачи Lossless ( J.)\Brandon Heath - Blue Mountain (2012) - [FLAC]\07 - Paul Brown Petty.flac
  Извлечение успешно выполнено
  Заключение: этот трек - CDDA с вероятностью 99%
  Временный файл удалён.
08 -===- D:\Раздачи Lossless ( J.)\Brandon Heath - Blue Mountain (2012) - [FLAC]\08 - In the Dust.flac
  Извлечение успешно выполнено
  Заключение: этот трек - CDDA с вероятностью 99%
  Временный файл удалён.
09 -===- D:\Раздачи Lossless ( J.)\Brandon Heath - Blue Mountain (2012) - [FLAC]\09 - Dyin' Day.flac
  Извлечение успешно выполнено
  Заключение: этот трек - CDDA с вероятностью 100%
  Временный файл удалён.
10 -===- D:\Раздачи Lossless ( J.)\Brandon Heath - Blue Mountain (2012) - [FLAC]\10 - Hands of the Healer.flac
  Извлечение успешно выполнено
  Заключение: этот трек - CDDA с вероятностью 99%
  Временный файл удалён.
11 -===- D:\Раздачи Lossless ( J.)\Brandon Heath - Blue Mountain (2012) - [FLAC]\11 - He Paid It All.flac
  Извлечение успешно выполнено
  Заключение: этот трек - CDDA с вероятностью 99%
  Временный файл удалён.
Завершено: пятница, 30. 11. 2012. - 1:09.42 (Время операции: 0:04.38)
Доп. информация: Official Site | Wikipedia
Правила, инструкции, FAQ!!!
Торрент  Добавлен [26 мар 2019, 18:48] Скачать торрент Магнет ссылка
Скачать торрент
[ Размер 11.44 КБ / Просмотров 5 ]

Статус
Проверен 
 
Размер  260.58 МБ
Приватный: Нет (DHT включён)
.torrent скачан  0
 


     Отправить личное сообщение
   
Страница 1 из 1
Показать сообщения за:  Поле сортировки  
Начать новую тему Ответить на тему


Сейчас этот форум просматривают: нет зарегистрированных пользователей и гости: 0


Вы не можете начинать темы
Вы не можете отвечать на сообщения
Вы не можете редактировать свои сообщения
Вы не можете удалять свои сообщения
Вы не можете добавлять вложения

Перейти:  
cron