Начать новую тему Ответить на тему
Статистика раздачи
Размер: 285.72 МБ | Добавлен: 26 мар 2019, 18:52 | Скачали: 0
Сидеров: 0  [0 байт/сек]    Личеров: 0  [0 байт/сек]
Пред. тема | След. тема 

Автор
Сообщение

СообщениеДобавлено: 26 мар 2019, 18:52 

Ответить с цитатой 

Royal Tailor / Black & White


Жанр: Christian, Pop-Rock
Страна-производитель диска: U.S.A
Год издания диска: 2011
Издатель (лейбл): Provident/Sony Music
Страна: U.S.A
Аудиокодек: FLAC (*.flac)
Тип рипа: tracks+.cue
Битрейт аудио: lossless
Продолжительность: 00:40:05
Источник (релизер): what.cd
Наличие сканов в содержимом раздачи: нет
Треклист:
01. Death Of Me
02. Make A Move
03. Freefall
04. Control
05. Gravity (Pulling Heaven Down)
06. Hold Me Together
07. Wannabe
08. Black & White
09. Run To Love
10. Hope
11. Love Is Here
Код:
Exact Audio Copy V1.0 beta 2 from 29. April 2011
EAC extraction logfile from 14. July 2011, 11:50
Royal Tailor / Black & White
Used drive  : HL-DT-STDVDRRW GSA-4166B   Adapter: 10  ID: 1
Read mode               : Secure
Utilize accurate stream : Yes
Defeat audio cache      : Yes
Make use of C2 pointers : No
Read offset correction                      : 102
Overread into Lead-In and Lead-Out          : No
Fill up missing offset samples with silence : Yes
Delete leading and trailing silent blocks   : No
Null samples used in CRC calculations       : Yes
Used interface                              : Native Win32 interface for Win NT & 2000
Gap handling                                : Appended to previous track
Used output format              : User Defined Encoder
Selected bitrate                : 896 kBit/s
Quality                         : High
Add ID3 tag                     : No
Command line compressor         : C:\Program Files (x86)\Exact Audio Copy\FLAC\FLAC.EXE
Additional command line options : -8 -V -T "ARTIST=%artist%" -T "TITLE=%title%" -T "ALBUM=%albumtitle%" -T "DATE=%year%" -T "TRACKNUMBER=%tracknr%" -T "GENRE=%genre%" -T "COMMENT=%comment%" %hascover%--picture="%coverfile%"%hascover% %source% -o %dest%
TOC of the extracted CD
     Track |   Start  |  Length  | Start sector | End sector
    ---------------------------------------------------------
        1  |  0:00.15 |  3:42.59 |        15    |    16723
        2  |  3:42.74 |  3:22.71 |     16724    |    31944
        3  |  7:05.70 |  3:42.31 |     31945    |    48625
        4  | 10:48.26 |  3:41.31 |     48626    |    65231
        5  | 14:29.57 |  5:18.11 |     65232    |    89092
        6  | 19:47.68 |  3:24.09 |     89093    |   104401
        7  | 23:12.02 |  2:58.07 |    104402    |   117758
        8  | 26:10.09 |  3:43.50 |    117759    |   134533
        9  | 29:53.59 |  3:31.36 |    134534    |   150394
       10  | 33:25.20 |  3:38.18 |    150395    |   166762
       11  | 37:03.38 |  3:01.60 |    166763    |   180397
Track  1
     Filename Z:\Shared Music\Royal Tailor\Black & White\ 01-Death Of Me-Blues-2011.wav
     Pre-gap length  0:00:02.20
     Peak level 100.0 %
     Extraction speed 1.2 X
     Track quality 99.9 %
     Test CRC AA922D95
     Copy CRC AA922D95
     Track not present in AccurateRip database
     Copy OK
Track  2
     Filename Z:\Shared Music\Royal Tailor\Black & White\ 02-Make A Move-Blues-2011.wav
     Pre-gap length  0:00:00.58
     Peak level 100.0 %
     Extraction speed 1.7 X
     Track quality 100.0 %
     Test CRC D588220A
     Copy CRC D588220A
     Track not present in AccurateRip database
     Copy OK
Track  3
     Filename Z:\Shared Music\Royal Tailor\Black & White\ 03-Freefall-Blues-2011.wav
     Pre-gap length  0:00:00.73
     Peak level 100.0 %
     Extraction speed 1.5 X
     Track quality 99.9 %
     Test CRC C88F649A
     Copy CRC C88F649A
     Track not present in AccurateRip database
     Copy OK
Track  4
     Filename Z:\Shared Music\Royal Tailor\Black & White\ 04-Control-Blues-2011.wav
     Pre-gap length  0:00:00.48
     Peak level 100.0 %
     Extraction speed 1.7 X
     Track quality 99.9 %
     Test CRC 6964E18C
     Copy CRC 6964E18C
     Track not present in AccurateRip database
     Copy OK
Track  5
     Filename Z:\Shared Music\Royal Tailor\Black & White\ 05-Gravity (Pulling Heaven Down)-Blues-2011.wav
     Pre-gap length  0:00:01.72
     Peak level 100.0 %
     Extraction speed 2.2 X
     Track quality 100.0 %
     Test CRC F50B10E4
     Copy CRC F50B10E4
     Track not present in AccurateRip database
     Copy OK
Track  6
     Filename Z:\Shared Music\Royal Tailor\Black & White\ 06-Hold Me Together-Blues-2011.wav
     Pre-gap length  0:00:01.12
     Peak level 100.0 %
     Extraction speed 2.2 X
     Track quality 100.0 %
     Test CRC 9211FAA7
     Copy CRC 9211FAA7
     Track not present in AccurateRip database
     Copy OK
Track  7
     Filename Z:\Shared Music\Royal Tailor\Black & White\ 07-Wannabe-Blues-2011.wav
     Pre-gap length  0:00:01.85
     Peak level 100.0 %
     Extraction speed 2.3 X
     Track quality 100.0 %
     Test CRC 673E4225
     Copy CRC 673E4225
     Track not present in AccurateRip database
     Copy OK
Track  8
     Filename Z:\Shared Music\Royal Tailor\Black & White\ 08-Black & White-Blues-2011.wav
     Pre-gap length  0:00:01.00
     Peak level 100.0 %
     Extraction speed 2.4 X
     Track quality 100.0 %
     Test CRC 30A006DE
     Copy CRC 30A006DE
     Track not present in AccurateRip database
     Copy OK
Track  9
     Filename Z:\Shared Music\Royal Tailor\Black & White\ 09-Run To Love-Blues-2011.wav
     Pre-gap length  0:00:00.60
     Peak level 100.0 %
     Extraction speed 2.2 X
     Track quality 99.9 %
     Test CRC 6C91E987
     Copy CRC 6C91E987
     Track not present in AccurateRip database
     Copy OK
Track 10
     Filename Z:\Shared Music\Royal Tailor\Black & White\ 10-Hope-Blues-2011.wav
     Pre-gap length  0:00:00.14
     Peak level 100.0 %
     Extraction speed 2.6 X
     Track quality 100.0 %
     Test CRC E5BED422
     Copy CRC E5BED422
     Track not present in AccurateRip database
     Copy OK
Track 11
     Filename Z:\Shared Music\Royal Tailor\Black & White\ 11-Love Is Here-Blues-2011.wav
     Pre-gap length  0:00:00.80
     Peak level 100.0 %
     Extraction speed 2.6 X
     Track quality 100.0 %
     Test CRC 83862019
     Copy CRC 83862019
     Track not present in AccurateRip database
     Copy OK
None of the tracks are present in the AccurateRip database
No errors occurred
End of status report
==== Log checksum 708A087172DA9070AF0382209FA1BE644B29599070D93DD2CE681F57137270DF ====
Код:
по неизвестным причинам отсутствует
Правила, инструкции, FAQ!!!
Торрент  Добавлен [26 мар 2019, 18:52] Скачать торрент Магнет ссылка
Скачать торрент
[ Размер 12.37 КБ / Просмотров 1 ]

Статус
Проверен 
 
Размер  285.72 МБ
Приватный: Нет (DHT включён)
.torrent скачан  0
 


     Отправить личное сообщение
   
Страница 1 из 1
Показать сообщения за:  Поле сортировки  
Начать новую тему Ответить на тему


Сейчас этот форум просматривают: нет зарегистрированных пользователей и гости: 0


Вы не можете начинать темы
Вы не можете отвечать на сообщения
Вы не можете редактировать свои сообщения
Вы не можете удалять свои сообщения
Вы не можете добавлять вложения

Перейти:  
cron