Начать новую тему Ответить на тему
Статистика раздачи
Размер: 1.71 ГБ | Добавлен: 26 мар 2019, 19:27 | Скачали: 0
Сидеров: 0  [0 байт/сек]    Личеров: 0  [0 байт/сек]
Пред. тема | След. тема 

Автор
Сообщение

СообщениеДобавлено: 26 мар 2019, 19:27 

Ответить с цитатой 

DAVID CROWDER BAND
коллекция


Жанр: Christian / Pop - Rock
Год издания диска: 2002-2007
Страна: USA (Texarkana, Texas)
Аудио кодек: FLAC (*.flac)
Тип рипа: tracks+.cue
Битрейт аудио: lossless
Коврики: есть
#777Издатель (лейбл): Sparrow Records
01. I Need Words - 2:02
02. Our Love Is Loud - 4:47
03. You're Everything - 5:54
04. God of Creation - 4:15
05. Wonderful King - 6:18
06. All Creatures of Our God and King - 3:21
07. God of Wrath - 4:53
08. Obsession - 6:00
09. My Hope - 4:16
10. Thank You for Hearing Me - 4:49
11. Undignified/You Alone - 8:58
Код:
Exact Audio Copy V0.99 prebeta 5 from 4. May 2009
EAC extraction logfile from 4. May 2011, 12:06
David Crowder / Can You Hear Us
Used drive  : PIONEER DVD-RW  DVR-118L   Adapter: 2  ID: 0
Read mode               : Secure
Utilize accurate stream : Yes
Defeat audio cache      : Yes
Make use of C2 pointers : No
Read offset correction                      : 6
Overread into Lead-In and Lead-Out          : No
Fill up missing offset samples with silence : Yes
Delete leading and trailing silent blocks   : No
Null samples used in CRC calculations       : Yes
Used interface                              : Native Win32 interface for Win NT & 2000
Gap handling                                : Appended to previous track
Used output format              : User Defined Encoder
Selected bitrate                : 128 kBit/s
Quality                         : High
Add ID3 tag                     : No
Command line compressor         : C:\Program Files (x86)\Exact Audio Copy\Flac\flac.exe
Additional command line options : -8 -V -T "ARTIST=%a" -T "TITLE=%t" -T "ALBUM=%g"
-T "DATE=%y" -T "TRACKNUMBER=%n" -T "GENRE=%m" -T "COMMENT=EAC FLAC -8" %s
TOC of the extracted CD
     Track |   Start  |  Length  | Start sector | End sector
    ---------------------------------------------------------
        1  |  0:00.00 |  2:02.00 |         0    |     9149
        2  |  2:02.00 |  4:46.42 |      9150    |    30641
        3  |  6:48.42 |  5:54.35 |     30642    |    57226
        4  | 12:43.02 |  4:14.45 |     57227    |    76321
        5  | 16:57.47 |  6:18.08 |     76322    |   104679
        6  | 23:15.55 |  3:20.67 |    104680    |   119746
        7  | 26:36.47 |  4:52.45 |    119747    |   141691
        8  | 31:29.17 |  5:59.68 |    141692    |   168684
        9  | 37:29.10 |  4:15.60 |    168685    |   187869
       10  | 41:44.70 |  4:48.40 |    187870    |   209509
       11  | 46:33.35 |  8:57.72 |    209510    |   249856
Track  1
     Filename D:\Торрент\David Crowder Band\2002 - Can You Hear Us\01. David Crowder - I Need Words.wav
     Pre-gap length  0:00:02.00
     Peak level 94.3 %
     Track quality 100.0 %
     Test CRC 106A9FF8
     Copy CRC 106A9FF8
     Accurately ripped (confidence 10)  [128C2F1C]
     Copy OK
Track  2
     Filename D:\Торрент\David Crowder Band\2002 - Can You Hear Us\02. David Crowder - Our Love Is Loud.wav
     Peak level 99.8 %
     Track quality 99.9 %
     Test CRC 3BE28322
     Copy CRC 3BE28322
     Accurately ripped (confidence 10)  [F5C15D04]
     Copy OK
Track  3
     Filename D:\Торрент\David Crowder Band\2002 - Can You Hear Us\03. David Crowder - You're Everything.wav
     Pre-gap length  0:00:00.20
     Peak level 99.8 %
     Track quality 100.0 %
     Test CRC B5D6C6AC
     Copy CRC B5D6C6AC
     Accurately ripped (confidence 10)  [DF637BF1]
     Copy OK
Track  4
     Filename D:\Торрент\David Crowder Band\2002 - Can You Hear Us\04. David Crowder - God of Creation.wav
     Pre-gap length  0:00:00.22
     Peak level 96.5 %
     Track quality 100.0 %
     Test CRC 8FF7A0F5
     Copy CRC 8FF7A0F5
     Accurately ripped (confidence 10)  [27A8E446]
     Copy OK
Track  5
     Filename D:\Торрент\David Crowder Band\2002 - Can You Hear Us\05. David Crowder - Wonderful King.wav
     Peak level 96.9 %
     Track quality 100.0 %
     Test CRC C6444571
     Copy CRC C6444571
     Accurately ripped (confidence 10)  [BFA6CD50]
     Copy OK
Track  6
     Filename D:\Торрент\David Crowder Band\2002 - Can You Hear Us\06. David Crowder - All Creatures of Our God and King.wav
     Peak level 96.5 %
     Track quality 99.9 %
     Test CRC E198052C
     Copy CRC E198052C
     Accurately ripped (confidence 10)  [08F5FE24]
     Copy OK
Track  7
     Filename D:\Торрент\David Crowder Band\2002 - Can You Hear Us\07. David Crowder - God of Wrath.wav
     Peak level 99.8 %
     Track quality 100.0 %
     Test CRC A0D8DEA3
     Copy CRC A0D8DEA3
     Accurately ripped (confidence 10)  [5BE3103D]
     Copy OK
Track  8
     Filename D:\Торрент\David Crowder Band\2002 - Can You Hear Us\08. David Crowder - Obsession.wav
     Peak level 96.5 %
     Track quality 100.0 %
     Test CRC 553060D0
     Copy CRC 553060D0
     Accurately ripped (confidence 10)  [8B2B250E]
     Copy OK
Track  9
     Filename D:\Торрент\David Crowder Band\2002 - Can You Hear Us\09. David Crowder - My Hope.wav
     Peak level 96.5 %
     Track quality 100.0 %
     Test CRC 91F04960
     Copy CRC 91F04960
     Accurately ripped (confidence 10)  [7E5564F2]
     Copy OK
Track 10
     Filename D:\Торрент\David Crowder Band\2002 - Can You Hear Us\10. David Crowder - Thank You for Hearing Me.wav
     Peak level 96.5 %
     Track quality 99.9 %
     Test CRC DBF0E8A9
     Copy CRC DBF0E8A9
     Accurately ripped (confidence 9)  [1A3FCC08]
     Copy OK
Track 11
     Filename D:\Торрент\David Crowder Band\2002 - Can You Hear Us\11. David Crowder - Undignified,You Alone.wav
     Peak level 96.5 %
     Track quality 99.9 %
     Test CRC 85E045D6
     Copy CRC 85E045D6
     Accurately ripped (confidence 9)  [E76A8543]
     Copy OK
All tracks accurately ripped
No errors occurred
End of status report
Код:
REM DATE 2002
REM DISCID 970D030B
REM COMMENT "ExactAudioCopy v0.99pb5"
PERFORMER "David Crowder"
TITLE "Can You Hear Us"
FILE "01. David Crowder - I Need Words.wav" WAVE
  TRACK 01 AUDIO
    TITLE "I Need Words"
    PERFORMER "David Crowder"
    INDEX 01 00:00:00
FILE "02. David Crowder - Our Love Is Loud.wav" WAVE
  TRACK 02 AUDIO
    TITLE "Our Love Is Loud"
    PERFORMER "David Crowder"
    INDEX 01 00:00:00
  TRACK 03 AUDIO
    TITLE "You're Everything"
    PERFORMER "David Crowder"
    INDEX 00 04:46:27
FILE "03. David Crowder - You're Everything.wav" WAVE
    INDEX 01 00:00:00
  TRACK 04 AUDIO
    TITLE "God of Creation"
    PERFORMER "David Crowder"
    INDEX 00 05:54:18
FILE "04. David Crowder - God of Creation.wav" WAVE
    INDEX 01 00:00:00
FILE "05. David Crowder - Wonderful King.wav" WAVE
  TRACK 05 AUDIO
    TITLE "Wonderful King"
    PERFORMER "David Crowder"
    INDEX 01 00:00:00
FILE "06. David Crowder - All Creatures of Our God and King.wav" WAVE
  TRACK 06 AUDIO
    TITLE "All Creatures of Our God and King"
    PERFORMER "David Crowder"
    INDEX 01 00:00:00
FILE "07. David Crowder - God of Wrath.wav" WAVE
  TRACK 07 AUDIO
    TITLE "God of Wrath"
    PERFORMER "David Crowder"
    INDEX 01 00:00:00
FILE "08. David Crowder - Obsession.wav" WAVE
  TRACK 08 AUDIO
    TITLE "Obsession"
    PERFORMER "David Crowder"
    INDEX 01 00:00:00
FILE "09. David Crowder - My Hope.wav" WAVE
  TRACK 09 AUDIO
    TITLE "My Hope"
    PERFORMER "David Crowder"
    INDEX 01 00:00:00
FILE "10. David Crowder - Thank You for Hearing Me.wav" WAVE
  TRACK 10 AUDIO
    TITLE "Thank You for Hearing Me"
    PERFORMER "David Crowder"
    INDEX 01 00:00:00
FILE "11. David Crowder - Undignified,You Alone.wav" WAVE
  TRACK 11 AUDIO
    TITLE "Undignified/You Alone"
    PERFORMER "David Crowder"
    INDEX 01 00:00:00
#777Издатель (лейбл): Sparrow Records
01. Sparks Fly - 0:18
02. Revolutionary Love - 3:59
03. O Praise Him (All This for a King) - 5:48
04. Skies Interlude - 0:28
05. Open Skies - 3:59
06. Intoxicating - 7:30
07. How Great - 4:03
08. No One Like You - 3:53
09. Reprise - 0:48
10. All Creatures No. 2 - 5:16
11. Only You - 4:02
12. Deliver Me - 4:42
13. Coming Toward - 2:14
14. Heaven Came Down - 4:14
15. Glorious Day - 0:28
16. Stars - 4:43
Код:
Exact Audio Copy V0.99 prebeta 5 from 4. May 2009
EAC extraction logfile from 18. June 2011, 1:06
David Crowder Band / Illuminate
Used drive  : PIONEER DVD-RW  DVR-118L   Adapter: 2  ID: 0
Read mode               : Secure
Utilize accurate stream : Yes
Defeat audio cache      : Yes
Make use of C2 pointers : No
Read offset correction                      : 6
Overread into Lead-In and Lead-Out          : No
Fill up missing offset samples with silence : Yes
Delete leading and trailing silent blocks   : No
Null samples used in CRC calculations       : Yes
Used interface                              : Native Win32 interface for Win NT & 2000
Gap handling                                : Appended to previous track
Used output format              : User Defined Encoder
Selected bitrate                : 128 kBit/s
Quality                         : High
Add ID3 tag                     : No
Command line compressor         : C:\Program Files (x86)\Exact Audio Copy\Flac\flac.exe
Additional command line options : -8 -V -T "ARTIST=%a" -T "TITLE=%t" -T "ALBUM=%g" -T "DATE=%y"
-T "TRACKNUMBER=%n" -T "GENRE=%m" -T "COMMENT=EAC FLAC -8" %s
TOC of the extracted CD
     Track |   Start  |  Length  | Start sector | End sector
    ---------------------------------------------------------
        1  |  0:00.00 |  0:18.20 |         0    |     1369
        2  |  0:18.20 |  3:59.20 |      1370    |    19314
        3  |  4:17.40 |  5:48.30 |     19315    |    45444
        4  | 10:05.70 |  0:28.26 |     45445    |    47570
        5  | 10:34.21 |  3:58.49 |     47571    |    65469
        6  | 14:32.70 |  7:30.35 |     65470    |    99254
        7  | 22:03.30 |  4:03.07 |     99255    |   117486
        8  | 26:06.37 |  3:52.39 |    117487    |   134925
        9  | 29:59.01 |  0:48.17 |    134926    |   138542
       10  | 30:47.18 |  5:15.43 |    138543    |   162210
       11  | 36:02.61 |  4:01.64 |    162211    |   180349
       12  | 40:04.50 |  4:42.13 |    180350    |   201512
       13  | 44:46.63 |  2:14.13 |    201513    |   211575
       14  | 47:01.01 |  4:13.74 |    211576    |   230624
       15  | 51:15.00 |  0:27.39 |    230625    |   232688
       16  | 51:42.39 |  4:41.19 |    232689    |   253782
       17  | 58:55.58 | 11:49.02 |    265183    |   318359
Track  1
     Filename D:\Торрент\David Crowder Band\2005 - Illuminate\01. David Crowder Band - Sparks Fly.wav
     Pre-gap length  0:00:02.00
     Peak level 67.7 %
     Track quality 99.4 %
     Test CRC B41A348C
     Copy CRC B41A348C
     Accurately ripped (confidence 19)  [CCE37AF1]
     Copy OK
Track  2
     Filename D:\Торрент\David Crowder Band\2005 - Illuminate\02. David Crowder Band - Revolutionary Love.wav
     Peak level 98.8 %
     Track quality 100.0 %
     Test CRC F911C009
     Copy CRC F911C009
     Accurately ripped (confidence 19)  [895B0491]
     Copy OK
Track  3
     Filename D:\Торрент\David Crowder Band\2005 - Illuminate\03. David Crowder Band - O Praise Him (All This for a King).wav
     Pre-gap length  0:00:02.06
     Peak level 98.8 %
     Track quality 100.0 %
     Test CRC 6E455E09
     Copy CRC 6E455E09
     Accurately ripped (confidence 19)  [03FB754C]
     Copy OK
Track  4
     Filename D:\Торрент\David Crowder Band\2005 - Illuminate\04. David Crowder Band - Skies Interlude.wav
     Pre-gap length  0:00:02.12
     Peak level 98.8 %
     Track quality 100.0 %
     Test CRC B9ED3D6C
     Copy CRC B9ED3D6C
     Accurately ripped (confidence 19)  [5D66E651]
     Copy OK
Track  5
     Filename D:\Торрент\David Crowder Band\2005 - Illuminate\05. David Crowder Band - Open Skies.wav
     Peak level 98.8 %
     Track quality 100.0 %
     Test CRC 2BC77378
     Copy CRC 2BC77378
     Accurately ripped (confidence 19)  [B5D4BAB4]
     Copy OK
Track  6
     Filename D:\Торрент\David Crowder Band\2005 - Illuminate\06. David Crowder Band - Intoxicating.wav
     Pre-gap length  0:00:01.68
     Peak level 98.8 %
     Track quality 100.0 %
     Test CRC 729E7EC2
     Copy CRC 729E7EC2
     Accurately ripped (confidence 19)  [666E14BF]
     Copy OK
Track  7
     Filename D:\Торрент\David Crowder Band\2005 - Illuminate\07. David Crowder Band - How Great.wav
     Peak level 98.8 %
     Track quality 99.9 %
     Test CRC 1ADBDD4C
     Copy CRC 1ADBDD4C
     Accurately ripped (confidence 19)  [E212B20B]
     Copy OK
Track  8
     Filename D:\Торрент\David Crowder Band\2005 - Illuminate\08. David Crowder Band - No One Like You.wav
     Pre-gap length  0:00:00.38
     Peak level 98.8 %
     Track quality 100.0 %
     Test CRC FD4D7125
     Copy CRC FD4D7125
     Accurately ripped (confidence 19)  [996577C9]
     Copy OK
Track  9
     Filename D:\Торрент\David Crowder Band\2005 - Illuminate\09. David Crowder Band - Reprise.wav
     Pre-gap length  0:00:01.10
     Peak level 85.3 %
     Track quality 100.0 %
     Test CRC 62C95C67
     Copy CRC 62C95C67
     Accurately ripped (confidence 18)  [DA522628]
     Copy OK
Track 10
     Filename D:\Торрент\David Crowder Band\2005 - Illuminate\10. David Crowder Band - All Creatures No. 2.wav
     Pre-gap length  0:00:01.01
     Peak level 98.8 %
     Track quality 100.0 %
     Test CRC 5195DCCF
     Copy CRC 5195DCCF
     Accurately ripped (confidence 18)  [03FF6CDE]
     Copy OK
Track 11
     Filename D:\Торрент\David Crowder Band\2005 - Illuminate\11. David Crowder Band - Only You.wav
     Pre-gap length  0:00:01.00
     Peak level 98.8 %
     Track quality 100.0 %
     Test CRC 52C929EF
     Copy CRC 52C929EF
     Accurately ripped (confidence 19)  [503135AE]
     Copy OK
Track 12
     Filename D:\Торрент\David Crowder Band\2005 - Illuminate\12. David Crowder Band - Deliver Me.wav
     Pre-gap length  0:00:01.16
     Peak level 98.8 %
     Track quality 100.0 %
     Test CRC 6930087F
     Copy CRC 6930087F
     Accurately ripped (confidence 19)  [3411D86D]
     Copy OK
Track 13
     Filename D:\Торрент\David Crowder Band\2005 - Illuminate\13. David Crowder Band - Coming Toward.wav
     Peak level 98.8 %
     Track quality 100.0 %
     Test CRC 278BFC2E
     Copy CRC 278BFC2E
     Accurately ripped (confidence 19)  [97A50A65]
     Copy OK
Track 14
     Filename D:\Торрент\David Crowder Band\2005 - Illuminate\14. David Crowder Band - Heaven Came Down.wav
     Peak level 98.8 %
     Track quality 100.0 %
     Test CRC DB919199
     Copy CRC DB919199
     Accurately ripped (confidence 18)  [A66A5BD7]
     Copy OK
Track 15
     Filename D:\Торрент\David Crowder Band\2005 - Illuminate\15. David Crowder Band - Glorious Day.wav
     Peak level 79.3 %
     Track quality 100.0 %
     Test CRC 9502C3AB
     Copy CRC 9502C3AB
     Accurately ripped (confidence 18)  [85F7F4FB]
     Copy OK
Track 16
     Filename D:\Торрент\David Crowder Band\2005 - Illuminate\16. David Crowder Band - Stars.wav
     Pre-gap length  0:00:04.85
     Peak level 91.1 %
     Track quality 99.9 %
     Test CRC 3C8550B9
     Copy CRC 3C8550B9
     Accurately ripped (confidence 16)  [BA03F0F8]
     Copy OK
All tracks accurately ripped
No errors occurred
End of status report
Код:
REM DATE 2003
REM DISCID ED109411
REM COMMENT "ExactAudioCopy v0.99pb5"
PERFORMER "David Crowder Band"
TITLE "Illuminate"
FILE "01. David Crowder Band - Sparks Fly.wav" WAVE
  TRACK 01 AUDIO
    TITLE "Sparks Fly"
    PERFORMER "David Crowder Band"
    INDEX 01 00:00:00
FILE "02. David Crowder Band - Revolutionary Love.wav" WAVE
  TRACK 02 AUDIO
    TITLE "Revolutionary Love"
    PERFORMER "David Crowder Band"
    INDEX 01 00:00:00
  TRACK 03 AUDIO
    TITLE "O Praise Him (All This for a King)"
    PERFORMER "David Crowder Band"
    INDEX 00 03:57:15
FILE "03. David Crowder Band - O Praise Him (All This for a King).wav" WAVE
    INDEX 01 00:00:00
  TRACK 04 AUDIO
    TITLE "Skies Interlude"
    PERFORMER "David Crowder Band"
    INDEX 00 05:46:21
FILE "04. David Crowder Band - Skies Interlude.wav" WAVE
    INDEX 01 00:00:00
FILE "05. David Crowder Band - Open Skies.wav" WAVE
  TRACK 05 AUDIO
    TITLE "Open Skies"
    PERFORMER "David Crowder Band"
    INDEX 01 00:00:00
  TRACK 06 AUDIO
    TITLE "Intoxicating"
    PERFORMER "David Crowder Band"
    INDEX 00 03:56:73
FILE "06. David Crowder Band - Intoxicating.wav" WAVE
    INDEX 01 00:00:00
FILE "07. David Crowder Band - How Great.wav" WAVE
  TRACK 07 AUDIO
    TITLE "How Great"
    PERFORMER "David Crowder Band"
    INDEX 01 00:00:00
  TRACK 08 AUDIO
    TITLE "No One Like You"
    PERFORMER "David Crowder Band"
    INDEX 00 04:02:53
FILE "08. David Crowder Band - No One Like You.wav" WAVE
    INDEX 01 00:00:00
  TRACK 09 AUDIO
    TITLE "Reprise"
    PERFORMER "David Crowder Band"
    INDEX 00 03:51:31
FILE "09. David Crowder Band - Reprise.wav" WAVE
    INDEX 01 00:00:00
  TRACK 10 AUDIO
    TITLE "All Creatures No. 2"
    PERFORMER "David Crowder Band"
    INDEX 00 00:47:16
FILE "10. David Crowder Band - All Creatures No. 2.wav" WAVE
    INDEX 01 00:00:00
  TRACK 11 AUDIO
    TITLE "Only You"
    PERFORMER "David Crowder Band"
    INDEX 00 05:14:43
FILE "11. David Crowder Band - Only You.wav" WAVE
    INDEX 01 00:00:00
  TRACK 12 AUDIO
    TITLE "Deliver Me"
    PERFORMER "David Crowder Band"
    INDEX 00 04:00:52
FILE "12. David Crowder Band - Deliver Me.wav" WAVE
    INDEX 01 00:00:00
FILE "13. David Crowder Band - Coming Toward.wav" WAVE
  TRACK 13 AUDIO
    TITLE "Coming Toward"
    PERFORMER "David Crowder Band"
    INDEX 01 00:00:00
FILE "14. David Crowder Band - Heaven Came Down.wav" WAVE
  TRACK 14 AUDIO
    TITLE "Heaven Came Down"
    PERFORMER "David Crowder Band"
    INDEX 01 00:00:00
FILE "15. David Crowder Band - Glorious Day.wav" WAVE
  TRACK 15 AUDIO
    TITLE "Glorious Day"
    PERFORMER "David Crowder Band"
    INDEX 01 00:00:00
  TRACK 16 AUDIO
    TITLE "Stars"
    PERFORMER "David Crowder Band"
    INDEX 00 00:22:50
FILE "16. David Crowder Band - Stars.wav" WAVE
    INDEX 01 00:00:00
  TRACK 17 MODEx/2xxx
    TITLE "Track17"
    PERFORMER "David Crowder Band"
    INDEX 00 04:41:19
#777Издатель (лейбл): Six Steps Records
01. The Glory of It All - 5:15
02. Can You Feel It? - 4:26
03. Everything Glorious - 3:47
04. ...Neverending... - 2:51
05. Never Let Go - 4:40
06. O, For a Thousand Tongues to Sing - 5:09
07. Rain Down - 5:25
08. We Won't Be Quiet - 2:34
09. Remedy - 5:36
10. Surely We Can Change - 5:18
Код:
Exact Audio Copy V0.99 prebeta 5 from 4. May 2009
EAC extraction logfile from 2. December 2010, 15:45
David Crowder Band / Remedy Prerelease for Watermarking
Used drive  : PIONEER DVD-RW  DVR-118L   Adapter: 2  ID: 0
Read mode               : Secure
Utilize accurate stream : Yes
Defeat audio cache      : Yes
Make use of C2 pointers : No
Read offset correction                      : 6
Overread into Lead-In and Lead-Out          : No
Fill up missing offset samples with silence : Yes
Delete leading and trailing silent blocks   : No
Null samples used in CRC calculations       : Yes
Used interface                              : Native Win32 interface for Win NT & 2000
Gap handling                                : Appended to previous track
Used output format              : User Defined Encoder
Selected bitrate                : 128 kBit/s
Quality                         : High
Add ID3 tag                     : No
Command line compressor         : C:\Program Files (x86)\Exact Audio Copy\Flac\flac.exe
Additional command line options : -8 -V -T "ARTIST=%a" -T "TITLE=%t"
-T "ALBUM=%g" -T "DATE=%y" -T "TRACKNUMBER=%n" -T "GENRE=%m" -T "COMMENT=EAC FLAC -8" %s
TOC of the extracted CD
     Track |   Start  |  Length  | Start sector | End sector
    ---------------------------------------------------------
        1  |  0:00.00 |  5:14.41 |         0    |    23590
        2  |  5:14.41 |  4:26.06 |     23591    |    43546
        3  |  9:40.47 |  3:47.32 |     43547    |    60603
        4  | 13:28.04 |  2:51.17 |     60604    |    73445
        5  | 16:19.21 |  4:39.68 |     73446    |    94438
        6  | 20:59.14 |  5:08.59 |     94439    |   117597
        7  | 26:07.73 |  5:24.68 |    117598    |   141965
        8  | 31:32.66 |  2:34.23 |    141966    |   153538
        9  | 34:07.14 |  5:35.57 |    153539    |   178720
       10  | 39:42.71 |  5:18.22 |    178721    |   202592
Track  1
     Filename C:\Program Files (x86)\Exact Audio Copy\Flac\Music\01. David Crowder Band - Glory Of It All.wav
     Pre-gap length  0:00:02.00
     Peak level 97.7 %
     Track quality 100.0 %
     Test CRC CAF218D5
     Copy CRC CAF218D5
     Accurately ripped (confidence 29)  [AFC982F8]
     Copy OK
Track  2
     Filename C:\Program Files (x86)\Exact Audio Copy\Flac\Music\02. David Crowder Band - Can You Feel It .wav
     Peak level 97.7 %
     Track quality 100.0 %
     Test CRC 81A1C6B2
     Copy CRC 81A1C6B2
     Accurately ripped (confidence 29)  [3991E213]
     Copy OK
Track  3
     Filename C:\Program Files (x86)\Exact Audio Copy\Flac\Music\03. David Crowder Band - Everything Glorious.wav
     Peak level 100.0 %
     Track quality 100.0 %
     Test CRC 16C02350
     Copy CRC 16C02350
     Accurately ripped (confidence 29)  [5D79F17B]
     Copy OK
Track  4
     Filename C:\Program Files (x86)\Exact Audio Copy\Flac\Music\04. David Crowder Band - Neverending.wav
     Pre-gap length  0:00:01.25
     Peak level 97.7 %
     Track quality 100.0 %
     Test CRC F9688A3C
     Copy CRC F9688A3C
     Accurately ripped (confidence 29)  [E1243322]
     Copy OK
Track  5
     Filename C:\Program Files (x86)\Exact Audio Copy\Flac\Music\05. David Crowder Band - Never Let Go.wav
     Pre-gap length  0:00:01.06
     Peak level 97.7 %
     Track quality 99.9 %
     Test CRC C78FF3F4
     Copy CRC C78FF3F4
     Accurately ripped (confidence 29)  [59352D8D]
     Copy OK
Track  6
     Filename C:\Program Files (x86)\Exact Audio Copy\Flac\Music\06. David Crowder Band - O For A Thousand Tongues.wav
     Peak level 97.7 %
     Track quality 99.9 %
     Test CRC 4D51A313
     Copy CRC 4D51A313
     Accurately ripped (confidence 29)  [EABDD408]
     Copy OK
Track  7
     Filename C:\Program Files (x86)\Exact Audio Copy\Flac\Music\07. David Crowder Band - Rain Down.wav
     Peak level 97.7 %
     Track quality 100.0 %
     Test CRC 67F1A6C5
     Copy CRC 67F1A6C5
     Accurately ripped (confidence 29)  [91D80AFF]
     Copy OK
Track  8
     Filename C:\Program Files (x86)\Exact Audio Copy\Flac\Music\08. David Crowder Band - We Won't Be Quiet.wav
     Peak level 97.7 %
     Track quality 100.0 %
     Test CRC 96D61438
     Copy CRC 96D61438
     Accurately ripped (confidence 29)  [CFF4030F]
     Copy OK
Track  9
     Filename C:\Program Files (x86)\Exact Audio Copy\Flac\Music\09. David Crowder Band - Remedy.wav
     Peak level 97.7 %
     Track quality 100.0 %
     Test CRC 1FE65C2E
     Copy CRC 1FE65C2E
     Accurately ripped (confidence 29)  [EC7A7C1B]
     Copy OK
Track 10
     Filename C:\Program Files (x86)\Exact Audio Copy\Flac\Music\10. David Crowder Band - Surely We Can Change.wav
     Peak level 97.7 %
     Track quality 100.0 %
     Test CRC C7559128
     Copy CRC C7559128
     Accurately ripped (confidence 29)  [C2D64B63]
     Copy OK
All tracks accurately ripped
No errors occurred
End of status report
Код:
REM DATE 2007
REM DISCID 8B0A8D0A
REM COMMENT "ExactAudioCopy v0.99pb5"
PERFORMER "David Crowder Band"
TITLE "Remedy Prerelease for Watermarking"
FILE "01. David Crowder Band - Glory Of It All.wav" WAVE
  TRACK 01 AUDIO
    TITLE "Glory Of It All"
    PERFORMER "David Crowder Band"
    INDEX 01 00:00:00
FILE "02. David Crowder Band - Can You Feel It .wav" WAVE
  TRACK 02 AUDIO
    TITLE "Can You Feel It?"
    PERFORMER "David Crowder Band"
    INDEX 01 00:00:00
FILE "03. David Crowder Band - Everything Glorious.wav" WAVE
  TRACK 03 AUDIO
    TITLE "Everything Glorious"
    PERFORMER "David Crowder Band"
    INDEX 01 00:00:00
  TRACK 04 AUDIO
    TITLE "Neverending"
    PERFORMER "David Crowder Band"
    INDEX 00 03:46:13
FILE "04. David Crowder Band - Neverending.wav" WAVE
    INDEX 01 00:00:00
  TRACK 05 AUDIO
    TITLE "Never Let Go"
    PERFORMER "David Crowder Band"
    INDEX 00 02:50:12
FILE "05. David Crowder Band - Never Let Go.wav" WAVE
    INDEX 01 00:00:00
FILE "06. David Crowder Band - O For A Thousand Tongues.wav" WAVE
  TRACK 06 AUDIO
    TITLE "O For A Thousand Tongues "
    PERFORMER "David Crowder Band"
    INDEX 01 00:00:00
FILE "07. David Crowder Band - Rain Down.wav" WAVE
  TRACK 07 AUDIO
    TITLE "Rain Down"
    PERFORMER "David Crowder Band"
    INDEX 01 00:00:00
FILE "08. David Crowder Band - We Won't Be Quiet.wav" WAVE
  TRACK 08 AUDIO
    TITLE "We Won't Be Quiet"
    PERFORMER "David Crowder Band"
    INDEX 01 00:00:00
FILE "09. David Crowder Band - Remedy.wav" WAVE
  TRACK 09 AUDIO
    TITLE "Remedy"
    PERFORMER "David Crowder Band"
    INDEX 01 00:00:00
FILE "10. David Crowder Band - Surely We Can Change.wav" WAVE
  TRACK 10 AUDIO
    TITLE "Surely We Can Change"
    PERFORMER "David Crowder Band"
    INDEX 01 00:00:00
#777Издатель (лейбл): Six Steps Records
01. Phos Hilaron (Hail Gladdening Light) - 2:05
02. Alleluia, Sing - 4:30
03. The Nearness - 3:55
04. Shadows - 3:25
05. Eastern Hymn - 6:26
06. SMS (Shine) - 3:18
07. The Veil - 4:19
08. We Are Loved - 4:17
09. All Around Me - 4:37
10. How He Loves - 5:19
11. Can I Lie Here - 3:30
12. Birmingham (We Are Safe) - 3:39
13. Church Music - Dance (!) - 3:52
14. What a Miracle - 3:41
15. Oh, Happiness - 3:17
16. God Almighty, None Compares - 6:51
17. In the End (O Resplendent Light!) - 6:53
Код:
Exact Audio Copy V0.99 prebeta 5 from 4. May 2009
EAC extraction logfile from 18. June 2011, 11:12
David Crowder Band / Church Music
Used drive  : PIONEER DVD-RW  DVR-118L   Adapter: 2  ID: 0
Read mode               : Secure
Utilize accurate stream : Yes
Defeat audio cache      : Yes
Make use of C2 pointers : No
Read offset correction                      : 6
Overread into Lead-In and Lead-Out          : No
Fill up missing offset samples with silence : Yes
Delete leading and trailing silent blocks   : No
Null samples used in CRC calculations       : Yes
Used interface                              : Native Win32 interface for Win NT & 2000
Gap handling                                : Appended to previous track
Used output format              : User Defined Encoder
Selected bitrate                : 128 kBit/s
Quality                         : High
Add ID3 tag                     : No
Command line compressor         : C:\Program Files (x86)\Exact Audio Copy\Flac\flac.exe
Additional command line options : -8 -V -T "ARTIST=%a" -T "TITLE=%t" -T "ALBUM=%g" -T "DATE=%y"
-T "TRACKNUMBER=%n" -T "GENRE=%m" -T "COMMENT=EAC FLAC -8" %s
TOC of the extracted CD
     Track |   Start  |  Length  | Start sector | End sector
    ---------------------------------------------------------
        1  |  0:00.00 |  2:05.25 |         0    |     9399
        2  |  2:05.25 |  4:29.44 |      9400    |    29618
        3  |  6:34.69 |  3:54.59 |     29619    |    47227
        4  | 10:29.53 |  3:25.31 |     47228    |    62633
        5  | 13:55.09 |  6:26.34 |     62634    |    91617
        6  | 20:21.43 |  3:18.01 |     91618    |   106468
        7  | 23:39.44 |  4:19.14 |    106469    |   125907
        8  | 27:58.58 |  4:16.51 |    125908    |   145158
        9  | 32:15.34 |  4:36.61 |    145159    |   165919
       10  | 36:52.20 |  5:18.52 |    165920    |   189821
       11  | 42:10.72 |  3:30.35 |    189822    |   205606
       12  | 45:41.32 |  3:38.39 |    205607    |   221995
       13  | 49:19.71 |  3:51.71 |    221996    |   239391
       14  | 53:11.67 |  3:40.49 |    239392    |   255940
       15  | 56:52.41 |  3:17.27 |    255941    |   270742
       16  | 60:09.68 |  6:50.57 |    270743    |   301549
       17  | 67:00.50 |  6:52.74 |    301550    |   332523
Track  1
     Filename D:\Торрент\David Crowder Band\2009 - Church Music\01. David Crowder Band - Phos Hilaron (Hail Gladdening Light).wav
     Pre-gap length  0:00:02.00
     Peak level 100.0 %
     Track quality 100.0 %
     Test CRC 2C922A71
     Copy CRC 2C922A71
     Accurately ripped (confidence 12)  [BA311F47]
     Copy OK
Track  2
     Filename D:\Торрент\David Crowder Band\2009 - Church Music\02. David Crowder Band - Alleluia, Sing.wav
     Peak level 100.0 %
     Track quality 100.0 %
     Test CRC 87D1CE93
     Copy CRC 87D1CE93
     Accurately ripped (confidence 12)  [19F7FF2C]
     Copy OK
Track  3
     Filename D:\Торрент\David Crowder Band\2009 - Church Music\03. David Crowder Band - The Nearness.wav
     Peak level 100.0 %
     Track quality 99.9 %
     Test CRC DEE89E57
     Copy CRC DEE89E57
     Accurately ripped (confidence 12)  [D78E7E3D]
     Copy OK
Track  4
     Filename D:\Торрент\David Crowder Band\2009 - Church Music\04. David Crowder Band - Shadows.wav
     Peak level 100.0 %
     Track quality 100.0 %
     Test CRC 9887ABF0
     Copy CRC 9887ABF0
     Accurately ripped (confidence 12)  [54AA2323]
     Copy OK
Track  5
     Filename D:\Торрент\David Crowder Band\2009 - Church Music\05. David Crowder Band - Eastern Hymn.wav
     Peak level 100.0 %
     Track quality 100.0 %
     Test CRC DDCAEBDF
     Copy CRC DDCAEBDF
     Accurately ripped (confidence 12)  [E2071131]
     Copy OK
Track  6
     Filename D:\Торрент\David Crowder Band\2009 - Church Music\06. David Crowder Band - SMS (Shine).wav
     Peak level 100.0 %
     Track quality 100.0 %
     Test CRC 3A52F47E
     Copy CRC 3A52F47E
     Accurately ripped (confidence 12)  [69636F46]
     Copy OK
Track  7
     Filename D:\Торрент\David Crowder Band\2009 - Church Music\07. David Crowder Band - The Veil.wav
     Peak level 100.0 %
     Track quality 100.0 %
     Test CRC 41C7B2C9
     Copy CRC 41C7B2C9
     Accurately ripped (confidence 12)  [BC6BBFD7]
     Copy OK
Track  8
     Filename D:\Торрент\David Crowder Band\2009 - Church Music\08. David Crowder Band - We Are Loved.wav
     Peak level 100.0 %
     Track quality 99.9 %
     Test CRC DCF6EA99
     Copy CRC DCF6EA99
     Accurately ripped (confidence 12)  [6FBD4B42]
     Copy OK
Track  9
     Filename D:\Торрент\David Crowder Band\2009 - Church Music\09. David Crowder Band - All Around Me.wav
     Peak level 97.9 %
     Track quality 100.0 %
     Test CRC 65394463
     Copy CRC 65394463
     Accurately ripped (confidence 12)  [E5971721]
     Copy OK
Track 10
     Filename D:\Торрент\David Crowder Band\2009 - Church Music\10. David Crowder Band - How He Loves.wav
     Peak level 100.0 %
     Track quality 100.0 %
     Test CRC 631F747B
     Copy CRC 631F747B
     Accurately ripped (confidence 12)  [B84102C3]
     Copy OK
Track 11
     Filename D:\Торрент\David Crowder Band\2009 - Church Music\11. David Crowder Band - Can I Lie Here.wav
     Peak level 100.0 %
     Track quality 100.0 %
     Test CRC B4810128
     Copy CRC B4810128
     Accurately ripped (confidence 12)  [AD069BD2]
     Copy OK
Track 12
     Filename D:\Торрент\David Crowder Band\2009 - Church Music\12. David Crowder Band - Birmingham (We Are Safe).wav
     Peak level 100.0 %
     Track quality 100.0 %
     Test CRC D499624C
     Copy CRC D499624C
     Accurately ripped (confidence 12)  [210BC230]
     Copy OK
Track 13
     Filename D:\Торрент\David Crowder Band\2009 - Church Music\13. David Crowder Band - Church Music - Dance (!).wav
     Peak level 100.0 %
     Track quality 100.0 %
     Test CRC B5581C3D
     Copy CRC B5581C3D
     Accurately ripped (confidence 12)  [D857AC50]
     Copy OK
Track 14
     Filename D:\Торрент\David Crowder Band\2009 - Church Music\14. David Crowder Band - What a Miracle.wav
     Peak level 100.0 %
     Track quality 100.0 %
     Test CRC 9F06E9D3
     Copy CRC 9F06E9D3
     Accurately ripped (confidence 12)  [55B0C76C]
     Copy OK
Track 15
     Filename D:\Торрент\David Crowder Band\2009 - Church Music\15. David Crowder Band - Oh, Happiness.wav
     Peak level 100.0 %
     Track quality 100.0 %
     Test CRC 4E8F2B63
     Copy CRC 4E8F2B63
     Accurately ripped (confidence 12)  [E1E4D9E2]
     Copy OK
Track 16
     Filename D:\Торрент\David Crowder Band\2009 - Church Music\16. David Crowder Band - God Almighty, None Compares.wav
     Peak level 100.0 %
     Track quality 99.9 %
     Test CRC 3320590E
     Copy CRC 3320590E
     Accurately ripped (confidence 12)  [B206CE78]
     Copy OK
Track 17
     Filename D:\Торрент\David Crowder Band\2009 - Church Music\17. David Crowder Band - In the End (O Resplendent Light!).wav
     Peak level 100.0 %
     Track quality 100.0 %
     Test CRC 53504D03
     Copy CRC 53504D03
     Accurately ripped (confidence 12)  [B73336E4]
     Copy OK
All tracks accurately ripped
No errors occurred
End of status report
Код:
REM DATE 2009
REM DISCID D3115111
REM COMMENT "ExactAudioCopy v0.99pb5"
PERFORMER "David Crowder Band"
TITLE "Church Music"
FILE "01. David Crowder Band - Phos Hilaron (Hail Gladdening Light).wav" WAVE
  TRACK 01 AUDIO
    TITLE "Phos Hilaron (Hail Gladdening Light)"
    PERFORMER "David Crowder Band"
    INDEX 01 00:00:00
FILE "02. David Crowder Band - Alleluia, Sing.wav" WAVE
  TRACK 02 AUDIO
    TITLE "Alleluia, Sing"
    PERFORMER "David Crowder Band"
    INDEX 01 00:00:00
FILE "03. David Crowder Band - The Nearness.wav" WAVE
  TRACK 03 AUDIO
    TITLE "The Nearness"
    PERFORMER "David Crowder Band"
    INDEX 01 00:00:00
FILE "04. David Crowder Band - Shadows.wav" WAVE
  TRACK 04 AUDIO
    TITLE "Shadows"
    PERFORMER "David Crowder Band"
    INDEX 01 00:00:00
FILE "05. David Crowder Band - Eastern Hymn.wav" WAVE
  TRACK 05 AUDIO
    TITLE "Eastern Hymn"
    PERFORMER "David Crowder Band"
    INDEX 01 00:00:00
FILE "06. David Crowder Band - SMS (Shine).wav" WAVE
  TRACK 06 AUDIO
    TITLE "SMS (Shine)"
    PERFORMER "David Crowder Band"
    INDEX 01 00:00:00
FILE "07. David Crowder Band - The Veil.wav" WAVE
  TRACK 07 AUDIO
    TITLE "The Veil"
    PERFORMER "David Crowder Band"
    INDEX 01 00:00:00
FILE "08. David Crowder Band - We Are Loved.wav" WAVE
  TRACK 08 AUDIO
    TITLE "We Are Loved"
    PERFORMER "David Crowder Band"
    INDEX 01 00:00:00
FILE "09. David Crowder Band - All Around Me.wav" WAVE
  TRACK 09 AUDIO
    TITLE "All Around Me"
    PERFORMER "David Crowder Band"
    INDEX 01 00:00:00
FILE "10. David Crowder Band - How He Loves.wav" WAVE
  TRACK 10 AUDIO
    TITLE "How He Loves"
    PERFORMER "David Crowder Band"
    INDEX 01 00:00:00
FILE "11. David Crowder Band - Can I Lie Here.wav" WAVE
  TRACK 11 AUDIO
    TITLE "Can I Lie Here"
    PERFORMER "David Crowder Band"
    INDEX 01 00:00:00
FILE "12. David Crowder Band - Birmingham (We Are Safe).wav" WAVE
  TRACK 12 AUDIO
    TITLE "Birmingham (We Are Safe)"
    PERFORMER "David Crowder Band"
    INDEX 01 00:00:00
FILE "13. David Crowder Band - Church Music - Dance (!).wav" WAVE
  TRACK 13 AUDIO
    TITLE "Church Music - Dance (!)"
    PERFORMER "David Crowder Band"
    INDEX 01 00:00:00
FILE "14. David Crowder Band - What a Miracle.wav" WAVE
  TRACK 14 AUDIO
    TITLE "What a Miracle"
    PERFORMER "David Crowder Band"
    INDEX 01 00:00:00
FILE "15. David Crowder Band - Oh, Happiness.wav" WAVE
  TRACK 15 AUDIO
    TITLE "Oh, Happiness"
    PERFORMER "David Crowder Band"
    INDEX 01 00:00:00
FILE "16. David Crowder Band - God Almighty, None Compares.wav" WAVE
  TRACK 16 AUDIO
    TITLE "God Almighty, None Compares"
    PERFORMER "David Crowder Band"
    INDEX 01 00:00:00
FILE "17. David Crowder Band - In the End (O Resplendent Light!).wav" WAVE
  TRACK 17 AUDIO
    TITLE "In the End (O Resplendent Light!)"
    PERFORMER "David Crowder Band"
    INDEX 01 00:00:00
ТОЛЬКО СВОИ РИПЫ!
Правила, инструкции, FAQ!!!
Торрент  Добавлен [26 мар 2019, 19:27] Скачать торрент Магнет ссылка
Скачать торрент
[ Размер 26.75 КБ / Просмотров 1 ]

Статус
Проверен 
 
Размер  1.71 ГБ
Приватный: Нет (DHT включён)
.torrent скачан  0
 


     Отправить личное сообщение
   
Страница 1 из 1
Показать сообщения за:  Поле сортировки  
Начать новую тему Ответить на тему


Сейчас этот форум просматривают: нет зарегистрированных пользователей и гости: 0


Вы не можете начинать темы
Вы не можете отвечать на сообщения
Вы не можете редактировать свои сообщения
Вы не можете удалять свои сообщения
Вы не можете добавлять вложения

Перейти:  
cron